<?xml version="1.0" standalone="no"?>
<!DOCTYPE svg PUBLIC "-//W3C//DTD SVG 1.1//EN" "http://www.w3.org/Graphics/SVG/1.1/DTD/svg11.dtd" >
<svg xmlns="http://www.w3.org/2000/svg" xmlns:xlink="http://www.w3.org/1999/xlink" version="1.1">
<metadata>
Created by FontForge 20170731 at Tue Nov  3 20:27:21 2020
 By Aleksey,,,
(c) 2015-2020 Apple Inc. All rights reserved.
</metadata>
<defs>
<font id="SFProText-Thin" horiz-adv-x="1825" >
  <font-face 
    font-family="SF Pro Text"
    font-weight="200"
    font-stretch="normal"
    units-per-em="2048"
    panose-1="0 0 0 0 0 0 0 0 0 0"
    ascent="1638"
    descent="-410"
    x-height="1077"
    cap-height="1443"
    bbox="-892 -1116.31 5198 2603"
    underline-thickness="61"
    underline-position="-399"
    unicode-range="U+0020-100D86"
  />
<missing-glyph horiz-adv-x="2048" 
d="M100 1603v347h1848v-347h-1848zM100 1184v347h1848v-347h-1848zM100 764v347h1848v-347h-1848zM100 345v347h1848v-347h-1848zM100 -74v346h1848v-346h-1848zM100 -494v347h1848v-347h-1848z" />
    <glyph glyph-name="uni10004C.small" unicode="&#x2b;&#x20dd;" 
d="M913 -51q-156 0 -299 61.5t-247 165.5t-165.5 247t-61.5 299q0 208 104 386.5t282 282.5t386 104q156 0 299 -61.5t247 -165.5t165.5 -247t61.5 -299q0 -208 -104 -386.5t-282 -282.5t-386 -104zM913 19q143 0 273 55.5t224 150t149.5 224.5t55.5 273t-55.5 273
t-149.5 224.5t-224.5 150t-273.5 55.5t-273 -55.5t-224 -150t-149.5 -224.5t-55.5 -273t55.5 -273t149.5 -224.5t224.5 -150t273.5 -55.5zM592 686q-15 0 -25.5 10t-10.5 24q0 16 10 26.5t26 10.5h285v285q0 15 10 25.5t24 10.5q16 0 26.5 -10t10.5 -26v-285h285
q16 0 26 -10.5t10 -26.5q0 -14 -10.5 -24t-25.5 -10h-285v-285q0 -16 -10.5 -26t-26.5 -10q-14 0 -24 10.5t-10 25.5v285h-285z" />
    <glyph glyph-name="uni10004E.small" unicode="&#x2212;&#x20dd;" 
d="M913 -51q-156 0 -299 61.5t-247 165.5t-165.5 247t-61.5 299q0 208 104 386.5t282 282.5t386 104q156 0 299 -61.5t247 -165.5t165.5 -247t61.5 -299q0 -208 -104 -386.5t-282 -282.5t-386 -104zM913 19q143 0 273 55.5t224 150t149.5 224.5t55.5 273t-55.5 273
t-149.5 224.5t-224.5 150t-273.5 55.5t-273 -55.5t-224 -150t-149.5 -224.5t-55.5 -273t55.5 -273t149.5 -224.5t224.5 -150t273.5 -55.5zM562 684q-17 0 -27.5 9.5t-10.5 25.5t10.5 26t27.5 10h701q17 0 27.5 -10t10.5 -26t-10.5 -25.5t-27.5 -9.5h-701z" />
    <glyph glyph-name="uni100050.small" unicode="&#xd7;&#x20dd;" 
d="M913 -51q-156 0 -299 61.5t-247 165.5t-165.5 247t-61.5 299q0 208 104 386.5t282 282.5t386 104q156 0 299 -61.5t247 -165.5t165.5 -247t61.5 -299q0 -208 -104 -386.5t-282 -282.5t-386 -104zM913 19q143 0 273 55.5t224 150t149.5 224.5t55.5 273t-55.5 273
t-149.5 224.5t-224.5 150t-273.5 55.5t-273 -55.5t-224 -150t-149.5 -224.5t-55.5 -273t55.5 -273t149.5 -224.5t224.5 -150t273.5 -55.5zM633 405q-15 0 -25.5 10t-10.5 25q0 14 12 26l253 254l-253 253q-12 12 -12 26q0 15 10.5 25t25.5 10q13 0 27 -12l252 -253l253 253
q12 12 27 12t25.5 -10t10.5 -24q0 -15 -12 -27l-253 -253l253 -254q12 -12 12 -26q0 -15 -10.5 -25t-25.5 -10q-14 0 -28 12l-252 252l-252 -252q-11 -12 -27 -12z" />
    <glyph glyph-name="uni100054.small" unicode="&#x3d;&#x20dd;" 
d="M913 -51q-156 0 -299 61.5t-247 165.5t-165.5 247t-61.5 299q0 208 104 386.5t282 282.5t386 104q156 0 299 -61.5t247 -165.5t165.5 -247t61.5 -299q0 -208 -104 -386.5t-282 -282.5t-386 -104zM913 19q143 0 273 55.5t224 150t149.5 224.5t55.5 273t-55.5 273
t-149.5 224.5t-224.5 150t-273.5 55.5t-273 -55.5t-224 -150t-149.5 -224.5t-55.5 -273t55.5 -273t149.5 -224.5t224.5 -150t273.5 -55.5zM591 826q-16 0 -26 9t-10 24t10 24t26 9h641q36 0 36 -33q0 -15 -10 -24t-26 -9h-641zM591 547q-16 0 -26 9t-10 24t10 24t26 9h641
q36 0 36 -33q0 -15 -10 -24t-26 -9h-641z" />
    <glyph glyph-name="uni10003A.small" unicode="&#x31;&#x20dd;" 
d="M913 -51q-156 0 -299 61.5t-247 165.5t-165.5 247t-61.5 299q0 208 104 386.5t282 282.5t386 104q156 0 299 -61.5t247 -165.5t165.5 -247t61.5 -299q0 -208 -104 -386.5t-282 -282.5t-386 -104zM913 19q143 0 273 55.5t224 150t149.5 224.5t55.5 273t-55.5 273
t-149.5 224.5t-224.5 150t-273.5 55.5t-273 -55.5t-224 -150t-149.5 -224.5t-55.5 -273t55.5 -273t149.5 -224.5t224.5 -150t273.5 -55.5zM946 368q-15 0 -24.5 10.5t-9.5 26.5v591h-4l-141 -92q-10 -6 -19 -6q-12 0 -20 8.5t-8 19.5q0 17 15 27l160 105q26 18 48 18
q17 0 27.5 -10t10.5 -28v-633q0 -17 -9.5 -27t-25.5 -10z" />
    <glyph glyph-name="uni10003C.small" unicode="&#x32;&#x20dd;" 
d="M913 -51q-156 0 -299 61.5t-247 165.5t-165.5 247t-61.5 299q0 208 104 386.5t282 282.5t386 104q156 0 299 -61.5t247 -165.5t165.5 -247t61.5 -299q0 -208 -104 -386.5t-282 -282.5t-386 -104zM913 19q143 0 273 55.5t224 150t149.5 224.5t55.5 273t-55.5 273
t-149.5 224.5t-224.5 150t-273.5 55.5t-273 -55.5t-224 -150t-149.5 -224.5t-55.5 -273t55.5 -273t149.5 -224.5t224.5 -150t273.5 -55.5zM739 372q-16 0 -25 9t-9 23t12 29l266 293q88 94 88 166q0 59 -40.5 94.5t-108.5 35.5q-65 0 -108.5 -36t-52.5 -91q-8 -26 -33 -26
q-14 0 -22 8.5t-8 22.5q0 10 3 24q12 68 75 112.5t145 44.5q97 0 156 -51t59 -136q0 -52 -26.5 -99.5t-87.5 -115.5l-220 -242v-5h335q14 0 22.5 -8t8.5 -22q0 -13 -9 -21.5t-22 -8.5h-398z" />
    <glyph glyph-name="uni10003E.small" unicode="&#x33;&#x20dd;" 
d="M913 -51q-156 0 -299 61.5t-247 165.5t-165.5 247t-61.5 299q0 208 104 386.5t282 282.5t386 104q156 0 299 -61.5t247 -165.5t165.5 -247t61.5 -299q0 -208 -104 -386.5t-282 -282.5t-386 -104zM913 19q143 0 273 55.5t224 150t149.5 224.5t55.5 273t-55.5 273
t-149.5 224.5t-224.5 150t-273.5 55.5t-273 -55.5t-224 -150t-149.5 -224.5t-55.5 -273t55.5 -273t149.5 -224.5t224.5 -150t273.5 -55.5zM914 360q-85 0 -148.5 39t-80.5 103q-4 12 -4 24q0 14 9 23t23 9q25 0 32 -26q13 -50 59 -82t111 -32q79 0 127.5 40t48.5 105
q0 60 -47.5 100t-120.5 40h-68q-13 0 -21 8t-8 21t8 21t21 8h62q64 0 107 39t43 96t-41.5 92t-110.5 35q-61 0 -103.5 -31.5t-51.5 -82.5q-5 -26 -32 -26q-14 0 -22.5 8.5t-8.5 22.5q0 12 3 25q10 63 71 102.5t145 39.5q95 0 156.5 -50t61.5 -127q0 -61 -39.5 -108.5
t-99.5 -57.5v-5q70 -7 117 -56t47 -116q0 -88 -68 -144.5t-177 -56.5z" />
    <glyph glyph-name="uni100040.small" unicode="&#x34;&#x20dd;" 
d="M913 -51q-156 0 -299 61.5t-247 165.5t-165.5 247t-61.5 299q0 208 104 386.5t282 282.5t386 104q156 0 299 -61.5t247 -165.5t165.5 -247t61.5 -299q0 -208 -104 -386.5t-282 -282.5t-386 -104zM913 19q143 0 273 55.5t224 150t149.5 224.5t55.5 273t-55.5 273
t-149.5 224.5t-224.5 150t-273.5 55.5t-273 -55.5t-224 -150t-149.5 -224.5t-55.5 -273t55.5 -273t149.5 -224.5t224.5 -150t273.5 -55.5zM1006 368q-15 0 -24 10t-9 26v129h-299q-24 0 -37.5 12.5t-13.5 34.5q0 20 12 39q91 147 281 422q26 40 68 40q25 0 40 -13t15 -36
v-439h85q14 0 22.5 -8t8.5 -22q0 -13 -9 -21.5t-22 -8.5h-85v-129q0 -16 -9 -26t-24 -10zM973 593v422h-4q-200 -289 -276 -417v-5h280z" />
    <glyph glyph-name="uni100042.small" unicode="&#x35;&#x20dd;" 
d="M913 -51q-156 0 -299 61.5t-247 165.5t-165.5 247t-61.5 299q0 208 104 386.5t282 282.5t386 104q156 0 299 -61.5t247 -165.5t165.5 -247t61.5 -299q0 -208 -104 -386.5t-282 -282.5t-386 -104zM913 19q143 0 273 55.5t224 150t149.5 224.5t55.5 273t-55.5 273
t-149.5 224.5t-224.5 150t-273.5 55.5t-273 -55.5t-224 -150t-149.5 -224.5t-55.5 -273t55.5 -273t149.5 -224.5t224.5 -150t273.5 -55.5zM909 360q-86 0 -146 38t-78 101q-4 9 -4 21q0 13 8.5 21.5t21.5 8.5q22 0 32 -25q14 -47 61.5 -77t108.5 -30q75 0 125 50.5t50 126.5
t-46.5 123t-121.5 47q-43 0 -77 -16t-70 -54q-19 -18 -41 -18q-19 0 -29 11.5t-9 30.5l25 306q2 20 14.5 32t34.5 12h334q12 0 20 -8.5t8 -20.5q0 -13 -7.5 -21t-20.5 -8h-324l-22 -267h4q27 36 72.5 57t94.5 21q101 0 164.5 -63t63.5 -163q0 -106 -68 -171t-178 -65z" />
    <glyph glyph-name="uni100044.small" unicode="&#x36;&#x20dd;" 
d="M913 -51q-156 0 -299 61.5t-247 165.5t-165.5 247t-61.5 299q0 208 104 386.5t282 282.5t386 104q156 0 299 -61.5t247 -165.5t165.5 -247t61.5 -299q0 -208 -104 -386.5t-282 -282.5t-386 -104zM913 19q143 0 273 55.5t224 150t149.5 224.5t55.5 273t-55.5 273
t-149.5 224.5t-224.5 150t-273.5 55.5t-273 -55.5t-224 -150t-149.5 -224.5t-55.5 -273t55.5 -273t149.5 -224.5t224.5 -150t273.5 -55.5zM917 360q-69 0 -125 30t-87 87q-43 76 -43 222q0 183 71.5 282.5t198.5 99.5q75 0 131.5 -36t69.5 -79q4 -12 4 -19q0 -13 -8 -20.5
t-20 -7.5q-18 0 -36 25q-19 35 -57 56.5t-86 21.5q-94 0 -149 -84.5t-55 -232.5v-9h4q59 123 207 123q96 0 161 -62t65 -161q0 -107 -68 -171.5t-178 -64.5zM916 416q81 0 129.5 48t48.5 128q0 76 -49 124t-127 48q-79 0 -129.5 -48.5t-50.5 -122.5q0 -77 50.5 -127
t127.5 -50z" />
    <glyph glyph-name="uni100046.small" unicode="&#x37;&#x20dd;" 
d="M913 -51q-156 0 -299 61.5t-247 165.5t-165.5 247t-61.5 299q0 208 104 386.5t282 282.5t386 104q156 0 299 -61.5t247 -165.5t165.5 -247t61.5 -299q0 -208 -104 -386.5t-282 -282.5t-386 -104zM913 19q143 0 273 55.5t224 150t149.5 224.5t55.5 273t-55.5 273
t-149.5 224.5t-224.5 150t-273.5 55.5t-273 -55.5t-224 -150t-149.5 -224.5t-55.5 -273t55.5 -273t149.5 -224.5t224.5 -150t273.5 -55.5zM808 363q-15 0 -25 9t-10 23q0 11 6 24l305 587v5h-363q-13 0 -21 8t-8 21q0 12 8 20.5t21 8.5h385q24 0 38.5 -12.5t14.5 -32.5
q0 -15 -11 -37l-305 -599q-14 -25 -35 -25z" />
    <glyph glyph-name="uni100048.small" unicode="&#x38;&#x20dd;" 
d="M913 -51q-156 0 -299 61.5t-247 165.5t-165.5 247t-61.5 299q0 208 104 386.5t282 282.5t386 104q156 0 299 -61.5t247 -165.5t165.5 -247t61.5 -299q0 -208 -104 -386.5t-282 -282.5t-386 -104zM913 19q143 0 273 55.5t224 150t149.5 224.5t55.5 273t-55.5 273
t-149.5 224.5t-224.5 150t-273.5 55.5t-273 -55.5t-224 -150t-149.5 -224.5t-55.5 -273t55.5 -273t149.5 -224.5t224.5 -150t273.5 -55.5zM912 360q-112 0 -182.5 57t-70.5 147q0 63 42.5 112t108.5 62v5q-55 17 -89 59t-34 96q0 80 63.5 131.5t161.5 51.5t161.5 -51.5
t63.5 -131.5q0 -54 -34 -97t-89 -58v-5q66 -13 108.5 -62t42.5 -112q0 -89 -71 -146.5t-182 -57.5zM912 764q70 0 114.5 37t44.5 94q0 58 -44.5 95t-114.5 37t-114.5 -37t-44.5 -95q0 -57 45 -94t114 -37zM913 414q82 0 134.5 42.5t52.5 109.5q0 64 -52.5 105t-134.5 41
t-135 -41.5t-53 -104.5q0 -67 52.5 -109.5t135.5 -42.5z" />
    <glyph glyph-name="uni10004A.small" unicode="&#x39;&#x20dd;" 
d="M913 -51q-156 0 -299 61.5t-247 165.5t-165.5 247t-61.5 299q0 208 104 386.5t282 282.5t386 104q156 0 299 -61.5t247 -165.5t165.5 -247t61.5 -299q0 -208 -104 -386.5t-282 -282.5t-386 -104zM913 19q143 0 273 55.5t224 150t149.5 224.5t55.5 273t-55.5 273
t-149.5 224.5t-224.5 150t-273.5 55.5t-273 -55.5t-224 -150t-149.5 -224.5t-55.5 -273t55.5 -273t149.5 -224.5t224.5 -150t273.5 -55.5zM895 360q-77 0 -135 38t-70 80q-3 9 -3 18q0 13 8 21t21 8q18 0 32 -23q22 -39 60.5 -61t86.5 -22q96 0 150.5 84.5t53.5 241.5h-4
q-25 -59 -78 -93t-129 -34q-95 0 -160 64.5t-65 162.5q0 105 68.5 170.5t176.5 65.5q118 0 186.5 -82.5t68.5 -240.5q0 -198 -69.5 -298t-198.5 -100zM907 674q78 0 129 50t51 124q0 75 -51.5 125.5t-126.5 50.5q-78 0 -128.5 -49t-50.5 -125t49.5 -126t127.5 -50z" />
    <glyph glyph-name="uni100004.small" unicode="A&#x20dd;" 
d="M913 -51q-156 0 -299 61.5t-247 165.5t-165.5 247t-61.5 299q0 208 104 386.5t282 282.5t386 104q156 0 299 -61.5t247 -165.5t165.5 -247t61.5 -299q0 -208 -104 -386.5t-282 -282.5t-386 -104zM913 19q143 0 273 55.5t224 150t149.5 224.5t55.5 273t-55.5 273
t-149.5 224.5t-224.5 150t-273.5 55.5t-273 -55.5t-224 -150t-149.5 -224.5t-55.5 -273t55.5 -273t149.5 -224.5t224.5 -150t273.5 -55.5zM656 357q-16 0 -25 8t-9 22q0 6 5 21l238 631q13 33 47 33t47 -33l238 -631q5 -15 5 -21q0 -13 -9 -21.5t-23 -8.5q-25 0 -35 28
l-73 198h-300l-73 -198q-9 -28 -33 -28zM782 640h260l-128 345h-4z" />
    <glyph glyph-name="uni100006.small" unicode="B&#x20dd;" 
d="M913 -51q-156 0 -299 61.5t-247 165.5t-165.5 247t-61.5 299q0 208 104 386.5t282 282.5t386 104q156 0 299 -61.5t247 -165.5t165.5 -247t61.5 -299q0 -208 -104 -386.5t-282 -282.5t-386 -104zM913 19q143 0 273 55.5t224 150t149.5 224.5t55.5 273t-55.5 273
t-149.5 224.5t-224.5 150t-273.5 55.5t-273 -55.5t-224 -150t-149.5 -224.5t-55.5 -273t55.5 -273t149.5 -224.5t224.5 -150t273.5 -55.5zM710 370q-35 0 -35 38v629q0 38 35 38h228q92 0 150 -48.5t58 -125.5q0 -59 -32.5 -102.5t-84.5 -55.5v-4q73 -10 116 -57t43 -117
q0 -91 -66.5 -143t-180.5 -52h-231zM742 760h168q75 0 121.5 36t46.5 94q0 61 -40 94.5t-112 33.5h-184v-258zM742 426h169q206 0 206 139q0 65 -44.5 102.5t-123.5 37.5h-207v-279z" />
    <glyph glyph-name="uni100008.small" unicode="C&#x20dd;" 
d="M913 -51q-156 0 -299 61.5t-247 165.5t-165.5 247t-61.5 299q0 208 104 386.5t282 282.5t386 104q156 0 299 -61.5t247 -165.5t165.5 -247t61.5 -299q0 -208 -104 -386.5t-282 -282.5t-386 -104zM913 19q143 0 273 55.5t224 150t149.5 224.5t55.5 273t-55.5 273
t-149.5 224.5t-224.5 150t-273.5 55.5t-273 -55.5t-224 -150t-149.5 -224.5t-55.5 -273t55.5 -273t149.5 -224.5t224.5 -150t273.5 -55.5zM918 361q-140 0 -225.5 99.5t-85.5 261.5t86 262t225 100q99 0 175.5 -52t94.5 -132q4 -19 4 -26q0 -32 -31 -32q-24 0 -31 26
q-14 71 -71.5 113t-139.5 42q-108 0 -175.5 -83.5t-67.5 -217.5t67.5 -217.5t175.5 -83.5q82 0 139.5 42t71.5 113q7 27 31 27q31 0 31 -33q0 -7 -4 -26q-18 -80 -94 -131.5t-176 -51.5z" />
    <glyph glyph-name="uni10000A.small" unicode="D&#x20dd;" 
d="M913 -51q-156 0 -299 61.5t-247 165.5t-165.5 247t-61.5 299q0 208 104 386.5t282 282.5t386 104q156 0 299 -61.5t247 -165.5t165.5 -247t61.5 -299q0 -208 -104 -386.5t-282 -282.5t-386 -104zM913 19q143 0 273 55.5t224 150t149.5 224.5t55.5 273t-55.5 273
t-149.5 224.5t-224.5 150t-273.5 55.5t-273 -55.5t-224 -150t-149.5 -224.5t-55.5 -273t55.5 -273t149.5 -224.5t224.5 -150t273.5 -55.5zM694 373q-32 0 -32 39v621q0 38 32 38h206q152 0 239 -92t87 -254q0 -168 -86 -260t-240 -92h-206zM729 432h163q124 0 193 74.5
t69 217.5q0 136 -70 212.5t-192 76.5h-163v-581z" />
    <glyph glyph-name="uni10000C.small" unicode="E&#x20dd;" 
d="M913 -51q-156 0 -299 61.5t-247 165.5t-165.5 247t-61.5 299q0 208 104 386.5t282 282.5t386 104q156 0 299 -61.5t247 -165.5t165.5 -247t61.5 -299q0 -208 -104 -386.5t-282 -282.5t-386 -104zM913 19q143 0 273 55.5t224 150t149.5 224.5t55.5 273t-55.5 273
t-149.5 224.5t-224.5 150t-273.5 55.5t-273 -55.5t-224 -150t-149.5 -224.5t-55.5 -273t55.5 -273t149.5 -224.5t224.5 -150t273.5 -55.5zM724 373q-32 0 -32 39v621q0 38 32 38h379q30 0 30 -30q0 -13 -8 -21.5t-22 -8.5h-343v-252h324q31 0 31 -29t-31 -29h-324v-268h343
q14 0 22 -8.5t8 -21.5t-8 -21.5t-22 -8.5h-379z" />
    <glyph glyph-name="uni10000E.small" unicode="F&#x20dd;" 
d="M913 -51q-156 0 -299 61.5t-247 165.5t-165.5 247t-61.5 299q0 208 104 386.5t282 282.5t386 104q156 0 299 -61.5t247 -165.5t165.5 -247t61.5 -299q0 -208 -104 -386.5t-282 -282.5t-386 -104zM913 19q143 0 273 55.5t224 150t149.5 224.5t55.5 273t-55.5 273
t-149.5 224.5t-224.5 150t-273.5 55.5t-273 -55.5t-224 -150t-149.5 -224.5t-55.5 -273t55.5 -273t149.5 -224.5t224.5 -150t273.5 -55.5zM739 367q-16 0 -25 10t-9 27v629q0 38 32 38h377q30 0 30 -30q0 -13 -8 -21.5t-22 -8.5h-341v-260h312q30 0 30 -30q0 -29 -30 -29
h-312v-288q0 -37 -34 -37z" />
    <glyph glyph-name="uni100010.small" unicode="G&#x20dd;" 
d="M913 -51q-156 0 -299 61.5t-247 165.5t-165.5 247t-61.5 299q0 208 104 386.5t282 282.5t386 104q156 0 299 -61.5t247 -165.5t165.5 -247t61.5 -299q0 -208 -104 -386.5t-282 -282.5t-386 -104zM913 19q143 0 273 55.5t224 150t149.5 224.5t55.5 273t-55.5 273
t-149.5 224.5t-224.5 150t-273.5 55.5t-273 -55.5t-224 -150t-149.5 -224.5t-55.5 -273t55.5 -273t149.5 -224.5t224.5 -150t273.5 -55.5zM919 361q-140 0 -226 99t-86 262t85.5 262.5t225.5 99.5q109 0 180.5 -56t89.5 -128q4 -18 4 -26q0 -32 -31 -32q-23 0 -31 26
q-14 71 -71 113t-140 42q-108 0 -175 -83.5t-67 -217.5t67.5 -217.5t174.5 -83.5q99 0 153.5 56t54.5 155v41h-195q-12 0 -20 8t-8 20t7.5 20t20.5 8h230q34 0 34 -37v-55q0 -125 -75 -200.5t-202 -75.5z" />
    <glyph glyph-name="uni100012.small" unicode="H&#x20dd;" 
d="M913 -51q-156 0 -299 61.5t-247 165.5t-165.5 247t-61.5 299q0 208 104 386.5t282 282.5t386 104q156 0 299 -61.5t247 -165.5t165.5 -247t61.5 -299q0 -208 -104 -386.5t-282 -282.5t-386 -104zM913 19q143 0 273 55.5t224 150t149.5 224.5t55.5 273t-55.5 273
t-149.5 224.5t-224.5 150t-273.5 55.5t-273 -55.5t-224 -150t-149.5 -224.5t-55.5 -273t55.5 -273t149.5 -224.5t224.5 -150t273.5 -55.5zM672 367q-16 0 -25 10t-9 27v637q0 36 34 36t34 -36v-276h411v276q0 36 34 36t34 -36v-637q0 -37 -34 -37q-16 0 -25 10t-9 27v303
h-411v-303q0 -37 -34 -37z" />
    <glyph glyph-name="uni100014.small" unicode="I&#x20dd;" 
d="M913 -51q-156 0 -299 61.5t-247 165.5t-165.5 247t-61.5 299q0 208 104 386.5t282 282.5t386 104q156 0 299 -61.5t247 -165.5t165.5 -247t61.5 -299q0 -208 -104 -386.5t-282 -282.5t-386 -104zM913 19q143 0 273 55.5t224 150t149.5 224.5t55.5 273t-55.5 273
t-149.5 224.5t-224.5 150t-273.5 55.5t-273 -55.5t-224 -150t-149.5 -224.5t-55.5 -273t55.5 -273t149.5 -224.5t224.5 -150t273.5 -55.5zM912 367q-16 0 -25 10t-9 27v636q0 37 34 37t34 -37v-636q0 -37 -34 -37z" />
    <glyph glyph-name="uni100016.small" unicode="J&#x20dd;" 
d="M913 -51q-156 0 -299 61.5t-247 165.5t-165.5 247t-61.5 299q0 208 104 386.5t282 282.5t386 104q156 0 299 -61.5t247 -165.5t165.5 -247t61.5 -299q0 -208 -104 -386.5t-282 -282.5t-386 -104zM913 19q143 0 273 55.5t224 150t149.5 224.5t55.5 273t-55.5 273
t-149.5 224.5t-224.5 150t-273.5 55.5t-273 -55.5t-224 -150t-149.5 -224.5t-55.5 -273t55.5 -273t149.5 -224.5t224.5 -150t273.5 -55.5zM883 364q-76 0 -131.5 39t-69.5 100q-3 15 -3 26q0 33 32 33q23 0 32 -26q9 -50 48 -80.5t94 -30.5q60 0 95 40t35 108v467
q0 17 9.5 27t25.5 10q34 0 34 -37v-468q0 -97 -53 -152.5t-148 -55.5z" />
    <glyph glyph-name="uni100018.small" unicode="&#x212a;&#x20dd;" 
d="M913 -51q-156 0 -299 61.5t-247 165.5t-165.5 247t-61.5 299q0 208 104 386.5t282 282.5t386 104q156 0 299 -61.5t247 -165.5t165.5 -247t61.5 -299q0 -208 -104 -386.5t-282 -282.5t-386 -104zM913 19q143 0 273 55.5t224 150t149.5 224.5t55.5 273t-55.5 273
t-149.5 224.5t-224.5 150t-273.5 55.5t-273 -55.5t-224 -150t-149.5 -224.5t-55.5 -273t55.5 -273t149.5 -224.5t224.5 -150t273.5 -55.5zM708 367q-16 0 -25.5 10t-9.5 27v636q0 37 35 37q34 0 34 -37v-327h4l346 350q14 14 31 14q13 0 22 -8.5t9 -20.5q0 -14 -11 -25
l-248 -251l269 -343q12 -16 12 -28q0 -15 -9.5 -24t-24.5 -9q-18 0 -34 19l-263 338l-103 -105v-216q0 -17 -9 -27t-25 -10z" />
    <glyph glyph-name="uni10001A.small" unicode="L&#x20dd;" 
d="M913 -51q-156 0 -299 61.5t-247 165.5t-165.5 247t-61.5 299q0 208 104 386.5t282 282.5t386 104q156 0 299 -61.5t247 -165.5t165.5 -247t61.5 -299q0 -208 -104 -386.5t-282 -282.5t-386 -104zM913 19q143 0 273 55.5t224 150t149.5 224.5t55.5 273t-55.5 273
t-149.5 224.5t-224.5 150t-273.5 55.5t-273 -55.5t-224 -150t-149.5 -224.5t-55.5 -273t55.5 -273t149.5 -224.5t224.5 -150t273.5 -55.5zM754 373q-15 0 -24.5 10.5t-9.5 26.5v630q0 37 34 37t34 -37v-607h336q30 0 30 -30t-30 -30h-370z" />
    <glyph glyph-name="uni10001C.small" unicode="M&#x20dd;" 
d="M913 -51q-156 0 -299 61.5t-247 165.5t-165.5 247t-61.5 299q0 208 104 386.5t282 282.5t386 104q156 0 299 -61.5t247 -165.5t165.5 -247t61.5 -299q0 -208 -104 -386.5t-282 -282.5t-386 -104zM913 19q143 0 273 55.5t224 150t149.5 224.5t55.5 273t-55.5 273
t-149.5 224.5t-224.5 150t-273.5 55.5t-273 -55.5t-224 -150t-149.5 -224.5t-55.5 -273t55.5 -273t149.5 -224.5t224.5 -150t273.5 -55.5zM613 365q-14 0 -22.5 9.5t-8.5 25.5v632q0 20 13 32.5t33 12.5q36 0 50 -36l232 -585h4l231 585q15 36 51 36q20 0 33 -12.5t13 -32.5
v-632q0 -16 -9 -25.5t-23 -9.5q-32 0 -32 35v563h-5l-221 -559q-12 -27 -41 -27q-28 0 -40 27l-221 559h-5v-563q0 -35 -32 -35z" />
    <glyph glyph-name="uni10001E.small" unicode="N&#x20dd;" 
d="M913 -51q-156 0 -299 61.5t-247 165.5t-165.5 247t-61.5 299q0 208 104 386.5t282 282.5t386 104q156 0 299 -61.5t247 -165.5t165.5 -247t61.5 -299q0 -208 -104 -386.5t-282 -282.5t-386 -104zM913 19q143 0 273 55.5t224 150t149.5 224.5t55.5 273t-55.5 273
t-149.5 224.5t-224.5 150t-273.5 55.5t-273 -55.5t-224 -150t-149.5 -224.5t-55.5 -273t55.5 -273t149.5 -224.5t224.5 -150t273.5 -55.5zM675 367q-32 0 -32 34v631q0 45 41 45q26 0 44 -27l383 -574h4v567q0 34 33 34t33 -34v-634q0 -19 -11.5 -30.5t-30.5 -11.5
q-26 0 -43 27l-384 572h-3v-565q0 -34 -34 -34z" />
    <glyph glyph-name="uni100020.small" unicode="O&#x20dd;" 
d="M913 -51q-156 0 -299 61.5t-247 165.5t-165.5 247t-61.5 299q0 208 104 386.5t282 282.5t386 104q156 0 299 -61.5t247 -165.5t165.5 -247t61.5 -299q0 -208 -104 -386.5t-282 -282.5t-386 -104zM913 19q143 0 273 55.5t224 150t149.5 224.5t55.5 273t-55.5 273
t-149.5 224.5t-224.5 150t-273.5 55.5t-273 -55.5t-224 -150t-149.5 -224.5t-55.5 -273t55.5 -273t149.5 -224.5t224.5 -150t273.5 -55.5zM912 361q-142 0 -230.5 100t-88.5 261q0 162 88 262t231 100t231.5 -100t88.5 -262q0 -161 -88.5 -261t-231.5 -100zM912 420
q112 0 181.5 83.5t69.5 218.5q0 136 -69.5 219.5t-181.5 83.5t-181 -83.5t-69 -219.5q0 -135 69 -218.5t181 -83.5z" />
    <glyph glyph-name="uni100022.small" unicode="P&#x20dd;" 
d="M913 -51q-156 0 -299 61.5t-247 165.5t-165.5 247t-61.5 299q0 208 104 386.5t282 282.5t386 104q156 0 299 -61.5t247 -165.5t165.5 -247t61.5 -299q0 -208 -104 -386.5t-282 -282.5t-386 -104zM913 19q143 0 273 55.5t224 150t149.5 224.5t55.5 273t-55.5 273
t-149.5 224.5t-224.5 150t-273.5 55.5t-273 -55.5t-224 -150t-149.5 -224.5t-55.5 -273t55.5 -273t149.5 -224.5t224.5 -150t273.5 -55.5zM744 367q-16 0 -25.5 10t-9.5 27v629q0 38 33 38h219q97 0 160.5 -62t63.5 -157q0 -97 -63 -158t-161 -61h-183v-229q0 -37 -34 -37z
M778 691h179q70 0 115 45t45 116t-45 116t-115 45h-179v-322z" />
    <glyph glyph-name="uni100024.small" unicode="Q&#x20dd;" 
d="M913 -51q-156 0 -299 61.5t-247 165.5t-165.5 247t-61.5 299q0 208 104 386.5t282 282.5t386 104q156 0 299 -61.5t247 -165.5t165.5 -247t61.5 -299q0 -208 -104 -386.5t-282 -282.5t-386 -104zM913 19q143 0 273 55.5t224 150t149.5 224.5t55.5 273t-55.5 273
t-149.5 224.5t-224.5 150t-273.5 55.5t-273 -55.5t-224 -150t-149.5 -224.5t-55.5 -273t55.5 -273t149.5 -224.5t224.5 -150t273.5 -55.5zM912 361q-144 0 -232 100.5t-88 262.5q0 160 88.5 260t231.5 100t231.5 -100t88.5 -260q0 -102 -36.5 -182t-102.5 -126l60 -82
q11 -15 11 -25q0 -12 -7.5 -19.5t-19.5 -7.5q-17 0 -28 16l-65 90q-58 -27 -132 -27zM912 420q58 0 96 17l-64 89q-10 13 -10 23q0 12 8 19.5t20 7.5q15 0 25 -14l69 -95q108 80 108 257q0 134 -69.5 217.5t-182.5 83.5q-112 0 -181.5 -83.5t-69.5 -217.5q0 -137 69 -220.5
t182 -83.5z" />
    <glyph glyph-name="uni100026.small" unicode="R&#x20dd;" 
d="M913 -51q-156 0 -299 61.5t-247 165.5t-165.5 247t-61.5 299q0 208 104 386.5t282 282.5t386 104q156 0 299 -61.5t247 -165.5t165.5 -247t61.5 -299q0 -208 -104 -386.5t-282 -282.5t-386 -104zM913 19q143 0 273 55.5t224 150t149.5 224.5t55.5 273t-55.5 273
t-149.5 224.5t-224.5 150t-273.5 55.5t-273 -55.5t-224 -150t-149.5 -224.5t-55.5 -273t55.5 -273t149.5 -224.5t224.5 -150t273.5 -55.5zM716 367q-16 0 -25.5 10t-9.5 27v629q0 38 33 38h218q101 0 163 -58t62 -152q0 -75 -43 -129.5t-116 -70.5l141 -236q10 -17 10 -29
q0 -13 -8.5 -21t-21.5 -8q-21 0 -36 24l-153 261h-180v-248q0 -37 -34 -37zM750 709h177q73 0 117.5 41t44.5 110q0 70 -44 111.5t-117 41.5h-178v-304z" />
    <glyph glyph-name="uni100028.small" unicode="S&#x20dd;" 
d="M913 -51q-156 0 -299 61.5t-247 165.5t-165.5 247t-61.5 299q0 208 104 386.5t282 282.5t386 104q156 0 299 -61.5t247 -165.5t165.5 -247t61.5 -299q0 -208 -104 -386.5t-282 -282.5t-386 -104zM913 19q143 0 273 55.5t224 150t149.5 224.5t55.5 273t-55.5 273
t-149.5 224.5t-224.5 150t-273.5 55.5t-273 -55.5t-224 -150t-149.5 -224.5t-55.5 -273t55.5 -273t149.5 -224.5t224.5 -150t273.5 -55.5zM907 361q-95 0 -163 43t-86 109q-4 15 -4 29q0 33 32 33q24 0 34 -29q13 -57 66 -91t128 -34q77 0 132.5 40t55.5 98q0 48 -34 76
t-117 49l-110 30q-88 23 -129.5 64t-41.5 108q0 87 69 142t178 55q91 0 155.5 -40t81.5 -106q4 -15 4 -29q0 -32 -32 -32q-26 0 -33 28q-14 56 -61.5 88t-117.5 32q-72 0 -122.5 -40t-50.5 -98q0 -42 30 -68.5t99 -45.5l106 -29q104 -28 150 -69t46 -109q0 -93 -72.5 -148.5
t-192.5 -55.5z" />
    <glyph glyph-name="uni10002A.small" unicode="T&#x20dd;" 
d="M913 -51q-156 0 -299 61.5t-247 165.5t-165.5 247t-61.5 299q0 208 104 386.5t282 282.5t386 104q156 0 299 -61.5t247 -165.5t165.5 -247t61.5 -299q0 -208 -104 -386.5t-282 -282.5t-386 -104zM913 19q143 0 273 55.5t224 150t149.5 224.5t55.5 273t-55.5 273
t-149.5 224.5t-224.5 150t-273.5 55.5t-273 -55.5t-224 -150t-149.5 -224.5t-55.5 -273t55.5 -273t149.5 -224.5t224.5 -150t273.5 -55.5zM908 366q-16 0 -25 10t-9 27v607h-210q-13 0 -21.5 8.5t-8.5 21.5q0 14 8.5 22t21.5 8h496q13 0 21.5 -8t8.5 -22q0 -13 -8.5 -21.5
t-21.5 -8.5h-217v-607q0 -17 -9.5 -27t-25.5 -10z" />
    <glyph glyph-name="uni10002C.small" unicode="U&#x20dd;" 
d="M913 -51q-156 0 -299 61.5t-247 165.5t-165.5 247t-61.5 299q0 208 104 386.5t282 282.5t386 104q156 0 299 -61.5t247 -165.5t165.5 -247t61.5 -299q0 -208 -104 -386.5t-282 -282.5t-386 -104zM913 19q143 0 273 55.5t224 150t149.5 224.5t55.5 273t-55.5 273
t-149.5 224.5t-224.5 150t-273.5 55.5t-273 -55.5t-224 -150t-149.5 -224.5t-55.5 -273t55.5 -273t149.5 -224.5t224.5 -150t273.5 -55.5zM912 361q-122 0 -198.5 68.5t-76.5 183.5v427q0 37 34 37t34 -37v-424q0 -87 58.5 -141t148.5 -54q91 0 149 54t58 141v424
q0 37 34 37q35 0 35 -37v-427q0 -115 -77 -183.5t-199 -68.5z" />
    <glyph glyph-name="uni10002E.small" unicode="V&#x20dd;" 
d="M913 -51q-156 0 -299 61.5t-247 165.5t-165.5 247t-61.5 299q0 208 104 386.5t282 282.5t386 104q156 0 299 -61.5t247 -165.5t165.5 -247t61.5 -299q0 -208 -104 -386.5t-282 -282.5t-386 -104zM913 19q143 0 273 55.5t224 150t149.5 224.5t55.5 273t-55.5 273
t-149.5 224.5t-224.5 150t-273.5 55.5t-273 -55.5t-224 -150t-149.5 -224.5t-55.5 -273t55.5 -273t149.5 -224.5t224.5 -150t273.5 -55.5zM913 364q-39 0 -55 40l-237 621q-4 14 -4 20q0 14 9.5 23t25.5 9q26 0 36 -29l222 -601h5l222 601q10 29 36 29q15 0 24.5 -8.5
t9.5 -23.5q0 -9 -4 -20l-236 -620q-16 -41 -54 -41z" />
    <glyph glyph-name="uni100030.small" unicode="W&#x20dd;" 
d="M913 -51q-156 0 -299 61.5t-247 165.5t-165.5 247t-61.5 299q0 208 104 386.5t282 282.5t386 104q156 0 299 -61.5t247 -165.5t165.5 -247t61.5 -299q0 -208 -104 -386.5t-282 -282.5t-386 -104zM913 19q143 0 273 55.5t224 150t149.5 224.5t55.5 273t-55.5 273
t-149.5 224.5t-224.5 150t-273.5 55.5t-273 -55.5t-224 -150t-149.5 -224.5t-55.5 -273t55.5 -273t149.5 -224.5t224.5 -150t273.5 -55.5zM711 364q-39 0 -48 40l-159 628q-2 6 -2 13q0 32 33 32q27 0 34 -32l142 -582h5l156 579q8 31 40 31q33 0 41 -31l156 -579h4l143 582
q7 32 34 32q33 0 33 -32q0 -7 -2 -13l-159 -628q-10 -40 -49 -40t-49 39l-149 565h-5l-149 -565q-11 -39 -50 -39z" />
    <glyph glyph-name="uni100032.small" unicode="X&#x20dd;" 
d="M913 -51q-156 0 -299 61.5t-247 165.5t-165.5 247t-61.5 299q0 208 104 386.5t282 282.5t386 104q156 0 299 -61.5t247 -165.5t165.5 -247t61.5 -299q0 -208 -104 -386.5t-282 -282.5t-386 -104zM913 19q143 0 273 55.5t224 150t149.5 224.5t55.5 273t-55.5 273
t-149.5 224.5t-224.5 150t-273.5 55.5t-273 -55.5t-224 -150t-149.5 -224.5t-55.5 -273t55.5 -273t149.5 -224.5t224.5 -150t273.5 -55.5zM686 367q-14 0 -23 8.5t-9 21.5q0 9 8 22l209 305l-203 297q-9 13 -9 24q0 14 9.5 23t23.5 9q20 0 32 -19l188 -283h4l189 283
q12 19 31 19q14 0 23 -8.5t9 -21.5q0 -11 -8 -22l-208 -303l206 -300q8 -13 8 -23q0 -14 -9.5 -23t-23.5 -9q-19 0 -32 20l-189 282h-4l-190 -282q-13 -20 -32 -20z" />
    <glyph glyph-name="uni100034.small" unicode="Y&#x20dd;" 
d="M913 -51q-156 0 -299 61.5t-247 165.5t-165.5 247t-61.5 299q0 208 104 386.5t282 282.5t386 104q156 0 299 -61.5t247 -165.5t165.5 -247t61.5 -299q0 -208 -104 -386.5t-282 -282.5t-386 -104zM913 19q143 0 273 55.5t224 150t149.5 224.5t55.5 273t-55.5 273
t-149.5 224.5t-224.5 150t-273.5 55.5t-273 -55.5t-224 -150t-149.5 -224.5t-55.5 -273t55.5 -273t149.5 -224.5t224.5 -150t273.5 -55.5zM913 367q-16 0 -25 10t-9 27v262l-241 360q-7 8 -7 21t9 21.5t23 8.5q20 0 32 -20l216 -321h4l216 321q12 20 32 20q13 0 22 -8.5
t9 -22.5q0 -11 -6 -20l-241 -360v-262q0 -37 -34 -37z" />
    <glyph glyph-name="uni100036.small" unicode="Z&#x20dd;" 
d="M913 -51q-156 0 -299 61.5t-247 165.5t-165.5 247t-61.5 299q0 208 104 386.5t282 282.5t386 104q156 0 299 -61.5t247 -165.5t165.5 -247t61.5 -299q0 -208 -104 -386.5t-282 -282.5t-386 -104zM913 19q143 0 273 55.5t224 150t149.5 224.5t55.5 273t-55.5 273
t-149.5 224.5t-224.5 150t-273.5 55.5t-273 -55.5t-224 -150t-149.5 -224.5t-55.5 -273t55.5 -273t149.5 -224.5t224.5 -150t273.5 -55.5zM690 373q-18 0 -29 10.5t-11 26.5q0 17 15 38l408 558v5h-391q-13 0 -21.5 8.5t-8.5 21.5t8.5 21.5t21.5 8.5h435q17 0 28.5 -11
t11.5 -27q0 -18 -14 -37l-406 -558v-5h409q13 0 21.5 -8.5t8.5 -21.5t-8.5 -21.5t-21.5 -8.5h-456z" />
    <glyph glyph-name="uni100038.small" unicode="&#x30;&#x20dd;" 
d="M913 -51q-156 0 -299 61.5t-247 165.5t-165.5 247t-61.5 299q0 208 104 386.5t282 282.5t386 104q156 0 299 -61.5t247 -165.5t165.5 -247t61.5 -299q0 -208 -104 -386.5t-282 -282.5t-386 -104zM913 19q143 0 273 55.5t224 150t149.5 224.5t55.5 273t-55.5 273
t-149.5 224.5t-224.5 150t-273.5 55.5t-273 -55.5t-224 -150t-149.5 -224.5t-55.5 -273t55.5 -273t149.5 -224.5t224.5 -150t273.5 -55.5zM912 360q-113 0 -182.5 99.5t-69.5 261.5q0 161 69.5 260.5t182.5 99.5t183 -99.5t70 -260.5q0 -162 -70 -261.5t-183 -99.5zM912 419
q83 0 134.5 83.5t51.5 218.5q0 134 -51.5 217.5t-134.5 83.5t-134 -83.5t-51 -217.5q0 -135 51 -218.5t134 -83.5z" />
    <glyph glyph-name="uni100039.small" unicode="&#x30;&#x20dd;&#x25cf;" 
d="M913 -51q-156 0 -299 61.5t-247 165.5t-165.5 247t-61.5 299q0 208 104 386.5t282 282.5t386 104q156 0 299 -61.5t247 -165.5t165.5 -247t61.5 -299q0 -208 -104 -386.5t-282 -282.5t-386 -104zM912 357q114 0 185 101t71 264t-71 264t-185 101t-184.5 -101t-70.5 -264
t70.5 -264t184.5 -101zM912 418q-83 0 -135 84t-52 220t52 220t135 84t135 -84t52 -220t-52 -220t-135 -84z" />
    <glyph glyph-name="uni1000F2.small" unicode="&#x2713;&#x20de;" horiz-adv-x="1795" 
d="M416 23q-216 0 -216 215v964q0 106 55 161t161 55h963q106 0 161 -55t55 -161v-964q0 -105 -55 -160t-161 -55h-963zM418 91h959q72 0 111 38.5t39 112.5v957q0 74 -39 112.5t-111 38.5h-959q-74 0 -112 -38.5t-38 -112.5v-957q0 -151 150 -151zM814 350q-20 0 -36 19
l-227 266q-11 16 -11 28q0 15 10 24.5t23 9.5q19 0 32 -16l207 -246l383 599q14 19 30 19q13 0 23.5 -10t10.5 -23q0 -12 -9 -25l-403 -626q-14 -19 -33 -19z" />
    <glyph glyph-name="uni1000F0.small" unicode="&#x2717;&#x20de;" horiz-adv-x="1795" 
d="M416 23q-216 0 -216 215v964q0 106 55 161t161 55h963q106 0 161 -55t55 -161v-964q0 -105 -55 -160t-161 -55h-963zM418 91h959q72 0 111 38.5t39 112.5v957q0 74 -39 112.5t-111 38.5h-959q-74 0 -112 -38.5t-38 -112.5v-957q0 -151 150 -151zM618 406
q-15 0 -25.5 10.5t-10.5 24.5q0 15 12 26l253 254l-253 254q-12 11 -12 26q0 14 10.5 24t25.5 10t27 -12l252 -252l253 252q13 13 27 13q15 0 25.5 -10t10.5 -25t-12 -26l-253 -254l253 -253q12 -12 12 -27q0 -14 -10.5 -24.5t-25.5 -10.5t-28 13l-252 252l-252 -252
q-12 -13 -27 -13z" />
    <glyph glyph-name="uni10003B.small" unicode="&#x31;&#x20dd;&#x25cf;" 
d="M913 -51q-156 0 -299 61.5t-247 165.5t-165.5 247t-61.5 299q0 208 104 386.5t282 282.5t386 104q156 0 299 -61.5t247 -165.5t165.5 -247t61.5 -299q0 -208 -104 -386.5t-282 -282.5t-386 -104zM947 366q16 0 25.5 10.5t9.5 27.5v638q0 39 -39 39q-23 0 -49 -18
l-161 -106q-15 -10 -15 -27q0 -12 8 -20.5t20 -8.5q9 0 19 6l143 92h4v-595q0 -17 9.5 -27.5t25.5 -10.5z" />
    <glyph glyph-name="uni10003D.small" unicode="&#x32;&#x20dd;&#x25cf;" 
d="M913 -51q-156 0 -299 61.5t-247 165.5t-165.5 247t-61.5 299q0 208 104 386.5t282 282.5t386 104q156 0 299 -61.5t247 -165.5t165.5 -247t61.5 -299q0 -208 -104 -386.5t-282 -282.5t-386 -104zM737 370h403q14 0 22.5 9t8.5 22q0 14 -8.5 22t-22.5 8h-339v5l223 244
q61 68 87.5 116t26.5 101q0 86 -59.5 138t-157.5 52q-83 0 -146.5 -45t-76.5 -114q-3 -14 -3 -25q0 -14 9 -23t23 -9q25 0 33 27q9 55 52.5 91.5t109.5 36.5q69 0 109.5 -36t40.5 -95q0 -41 -21.5 -80t-66.5 -88l-269 -295q-13 -14 -13 -29t9.5 -24t25.5 -9z" />
    <glyph glyph-name="uni10003F.small" unicode="&#x33;&#x20dd;&#x25cf;" 
d="M913 -51q-156 0 -299 61.5t-247 165.5t-165.5 247t-61.5 299q0 208 104 386.5t282 282.5t386 104q156 0 299 -61.5t247 -165.5t165.5 -247t61.5 -299q0 -208 -104 -386.5t-282 -282.5t-386 -104zM914 357q110 0 179 57.5t69 146.5q0 67 -47.5 117t-118.5 57v4
q60 10 100 58.5t40 110.5q0 78 -62 128.5t-158 50.5q-85 0 -147 -40.5t-72 -103.5q-2 -20 -2 -25q0 -14 8.5 -23t22.5 -9q27 0 33 27q9 51 51.5 82.5t104.5 31.5q69 0 111 -35t42 -92q0 -58 -43.5 -97t-107.5 -39h-62q-13 0 -21.5 -8t-8.5 -22t8.5 -22t21.5 -8h68
q73 0 121.5 -40t48.5 -101q0 -65 -49 -105.5t-129 -40.5q-66 0 -112.5 32t-58.5 82q-9 27 -33 27q-14 0 -23 -9t-9 -24q0 -9 3 -24q18 -64 82.5 -104t149.5 -40z" />
    <glyph glyph-name="uni100041.small" unicode="&#x34;&#x20dd;&#x25cf;" 
d="M913 -51q-156 0 -299 61.5t-247 165.5t-165.5 247t-61.5 299q0 208 104 386.5t282 282.5t386 104q156 0 299 -61.5t247 -165.5t165.5 -247t61.5 -299q0 -208 -104 -386.5t-282 -282.5t-386 -104zM1007 366q33 0 33 36v130h87q13 0 21.5 8.5t8.5 22.5t-8.5 22.5t-21.5 8.5
h-87v443q0 23 -15 36.5t-40 13.5q-42 0 -70 -41q-189 -274 -283 -426q-12 -21 -12 -40q0 -22 14 -35t38 -13h301v-130q0 -16 9.5 -26t24.5 -10zM973 594h-282v4q65 110 278 421h4v-425z" />
    <glyph glyph-name="uni100043.small" unicode="&#x35;&#x20dd;&#x25cf;" 
d="M913 -51q-156 0 -299 61.5t-247 165.5t-165.5 247t-61.5 299q0 208 104 386.5t282 282.5t386 104q156 0 299 -61.5t247 -165.5t165.5 -247t61.5 -299q0 -208 -104 -386.5t-282 -282.5t-386 -104zM909 357q111 0 180 66t69 174q0 100 -65 164t-166 64q-50 0 -95.5 -21.5
t-72.5 -57.5h-4l22 269h327q13 0 21 8t8 21t-8 21.5t-21 8.5h-338q-22 0 -34.5 -12t-14.5 -33l-25 -308q-2 -19 8.5 -31t29.5 -12q23 0 42 18q36 39 70.5 55t77.5 16q76 0 123 -47.5t47 -124.5q0 -76 -50.5 -127t-126.5 -51q-62 0 -109.5 30t-62.5 78q-9 25 -32 25
q-13 0 -22 -8.5t-9 -21.5q0 -8 4 -22q19 -64 79.5 -102.5t147.5 -38.5z" />
    <glyph glyph-name="uni100045.small" unicode="&#x36;&#x20dd;&#x25cf;" 
d="M913 -51q-156 0 -299 61.5t-247 165.5t-165.5 247t-61.5 299q0 208 104 386.5t282 282.5t386 104q156 0 299 -61.5t247 -165.5t165.5 -247t61.5 -299q0 -208 -104 -386.5t-282 -282.5t-386 -104zM917 357q111 0 180 65.5t69 174.5q0 99 -66 162t-163 63q-149 0 -208 -125
h-4v9q0 149 55 234.5t150 85.5q48 0 86.5 -21.5t57.5 -56.5q17 -26 37 -26q12 0 20 8t8 21q0 11 -4 19q-13 43 -70 80t-133 37q-128 0 -200.5 -100.5t-72.5 -285.5q0 -147 43 -225q33 -58 89.5 -88.5t125.5 -30.5zM916 415q-78 0 -128.5 50.5t-50.5 127.5q0 75 51 124
t130 49t128.5 -48.5t49.5 -125.5q0 -80 -49 -128.5t-131 -48.5z" />
    <glyph glyph-name="uni100047.small" unicode="&#x37;&#x20dd;&#x25cf;" 
d="M913 -51q-156 0 -299 61.5t-247 165.5t-165.5 247t-61.5 299q0 208 104 386.5t282 282.5t386 104q156 0 299 -61.5t247 -165.5t165.5 -247t61.5 -299q0 -208 -104 -386.5t-282 -282.5t-386 -104zM807 361q23 0 35 25l309 604q11 23 11 38q0 20 -15 33t-39 13h-389
q-13 0 -21.5 -8.5t-8.5 -21.5t8.5 -21t21.5 -8h366v-5l-308 -592q-6 -13 -6 -24q0 -15 10.5 -24t25.5 -9z" />
    <glyph glyph-name="uni100049.small" unicode="&#x38;&#x20dd;&#x25cf;" 
d="M913 -51q-156 0 -299 61.5t-247 165.5t-165.5 247t-61.5 299q0 208 104 386.5t282 282.5t386 104q156 0 299 -61.5t247 -165.5t165.5 -247t61.5 -299q0 -208 -104 -386.5t-282 -282.5t-386 -104zM912 357q112 0 184 58t72 149q0 64 -43 113t-109 63v4q55 16 89.5 59.5
t34.5 97.5q0 82 -64 134t-164 52q-99 0 -163 -52t-64 -134q0 -54 34 -97t90 -60v-4q-67 -13 -110 -63t-43 -113q0 -92 71.5 -149.5t184.5 -57.5zM912 766q-70 0 -115 37.5t-45 95.5t45 95t115 37q71 0 116 -37t45 -95t-45.5 -95.5t-115.5 -37.5zM913 413q-83 0 -136.5 42.5
t-53.5 109.5q0 65 54 107t136 42t135.5 -42t53.5 -107q0 -67 -53.5 -109.5t-135.5 -42.5z" />
    <glyph glyph-name="uni10004B.small" unicode="&#x39;&#x20dd;&#x25cf;" 
d="M913 -51q-156 0 -299 61.5t-247 165.5t-165.5 247t-61.5 299q0 208 104 386.5t282 282.5t386 104q156 0 299 -61.5t247 -165.5t165.5 -247t61.5 -299q0 -208 -104 -386.5t-282 -282.5t-386 -104zM894 357q131 0 201.5 101.5t70.5 301.5q0 160 -69 243.5t-189 83.5
q-109 0 -178.5 -66.5t-69.5 -172.5q0 -99 66 -164t162 -65q77 0 130.5 34t78.5 94h4q0 -158 -54.5 -243.5t-151.5 -85.5q-101 0 -148 84q-14 23 -33 23q-13 0 -21.5 -8.5t-8.5 -21.5q0 -9 3 -18q12 -42 71 -81t136 -39zM907 676q-78 0 -128 50t-50 127t50.5 126t129.5 49
q76 0 128 -50.5t52 -127.5q0 -74 -52 -124t-130 -50z" />
    <glyph glyph-name="dblemdash" unicode="&#x2014;&#x2014;" horiz-adv-x="3448" 
d="M89 548v72h3270v-72h-3270z" />
    <glyph glyph-name="trplemdash" unicode="&#x2014;&#x2014;&#x2014;" horiz-adv-x="5171" 
d="M89 548v72h4993v-72h-4993z" />
    <glyph glyph-name="uni10009D.small" unicode="E&#x20de;&#x25a0;" horiz-adv-x="1795" 
d="M416 23q-216 0 -216 215v964q0 106 55 161t161 55h963q106 0 161 -55t55 -161v-964q0 -105 -55 -160t-161 -55h-963zM707 371h383q31 0 31 31q0 13 -8 21.5t-23 8.5h-346v270h327q31 0 31 29q0 30 -31 30h-327v254h346q15 0 23 8.5t8 21.5q0 31 -31 31h-383
q-33 0 -33 -39v-627q0 -18 9 -28.5t24 -10.5z" />
    <glyph glyph-name="uni100094.small" unicode="A&#x20de;" horiz-adv-x="1795" 
d="M416 23q-216 0 -216 215v964q0 106 55 161t161 55h963q106 0 161 -55t55 -161v-964q0 -105 -55 -160t-161 -55h-963zM418 91h959q72 0 111 38.5t39 112.5v957q0 74 -39 112.5t-111 38.5h-959q-74 0 -112 -38.5t-38 -112.5v-957q0 -151 150 -151zM641 358q-34 0 -34 31
q0 4 5 21l238 630q13 34 47 34t47 -34l238 -630q5 -17 5 -22q0 -13 -9 -21.5t-23 -8.5q-25 0 -35 29l-73 197h-300l-73 -197q-10 -29 -33 -29zM767 642h260l-128 345h-4z" />
    <glyph glyph-name="uni100096.small" unicode="B&#x20de;" horiz-adv-x="1795" 
d="M416 23q-216 0 -216 215v964q0 106 55 161t161 55h963q106 0 161 -55t55 -161v-964q0 -105 -55 -160t-161 -55h-963zM418 91h959q72 0 111 38.5t39 112.5v957q0 74 -39 112.5t-111 38.5h-959q-74 0 -112 -38.5t-38 -112.5v-957q0 -151 150 -151zM695 371
q-16 0 -25.5 10.5t-9.5 27.5v629q0 38 35 38h228q92 0 150 -48t58 -125q0 -59 -32.5 -103t-84.5 -56v-3q73 -10 116 -57t43 -118q0 -91 -66.5 -143t-180.5 -52h-231zM727 761h168q75 0 121.5 36.5t46.5 93.5q0 61 -40 94.5t-112 33.5h-184v-258zM727 428h169q206 0 206 138
q0 66 -44.5 103t-123.5 37h-207v-278z" />
    <glyph glyph-name="uni100098.small" unicode="C&#x20de;" horiz-adv-x="1795" 
d="M416 23q-216 0 -216 215v964q0 106 55 161t161 55h963q106 0 161 -55t55 -161v-964q0 -105 -55 -160t-161 -55h-963zM418 91h959q72 0 111 38.5t39 112.5v957q0 74 -39 112.5t-111 38.5h-959q-74 0 -112 -38.5t-38 -112.5v-957q0 -151 150 -151zM903 362
q-140 0 -225.5 99.5t-85.5 262.5q0 162 85.5 261.5t225.5 99.5q99 0 175.5 -52t94.5 -131q4 -19 4 -26q0 -33 -31 -33q-24 0 -31 27q-14 70 -71.5 112.5t-139.5 42.5q-108 0 -175.5 -84t-67.5 -217q0 -134 67.5 -217.5t175.5 -83.5q82 0 139.5 42t71.5 113q7 26 31 26
q31 0 31 -33q0 -6 -4 -25q-18 -81 -93.5 -132.5t-176.5 -51.5z" />
    <glyph glyph-name="uni10009A.small" unicode="D&#x20de;" horiz-adv-x="1795" 
d="M416 23q-216 0 -216 215v964q0 106 55 161t161 55h963q106 0 161 -55t55 -161v-964q0 -105 -55 -160t-161 -55h-963zM418 91h959q72 0 111 38.5t39 112.5v957q0 74 -39 112.5t-111 38.5h-959q-74 0 -112 -38.5t-38 -112.5v-957q0 -151 150 -151zM679 375q-32 0 -32 38
v621q0 39 32 39h206q152 0 239 -92.5t87 -254.5q0 -168 -86 -259.5t-240 -91.5h-206zM714 433h163q124 0 193 75t69 217q0 136 -70 212.5t-192 76.5h-163v-581z" />
    <glyph glyph-name="uni10009C.small" unicode="E&#x20de;" horiz-adv-x="1795" 
d="M416 23q-216 0 -216 215v964q0 106 55 161t161 55h963q106 0 161 -55t55 -161v-964q0 -105 -55 -160t-161 -55h-963zM418 91h959q72 0 111 38.5t39 112.5v957q0 74 -39 112.5t-111 38.5h-959q-74 0 -112 -38.5t-38 -112.5v-957q0 -151 150 -151zM709 375q-32 0 -32 38
v621q0 39 32 39h379q14 0 22 -8.5t8 -22.5q0 -13 -8 -21.5t-22 -8.5h-343v-251h324q31 0 31 -30q0 -29 -31 -29h-324v-267h343q14 0 22 -8.5t8 -21.5q0 -30 -30 -30h-379z" />
    <glyph glyph-name="uni10009E.small" unicode="F&#x20de;" horiz-adv-x="1795" 
d="M416 23q-216 0 -216 215v964q0 106 55 161t161 55h963q106 0 161 -55t55 -161v-964q0 -105 -55 -160t-161 -55h-963zM418 91h959q72 0 111 38.5t39 112.5v957q0 74 -39 112.5t-111 38.5h-959q-74 0 -112 -38.5t-38 -112.5v-957q0 -151 150 -151zM724 368
q-15 0 -24.5 10.5t-9.5 26.5v629q0 39 32 39h377q14 0 22 -8.5t8 -22.5q0 -13 -8 -21.5t-22 -8.5h-341v-260h312q30 0 30 -29t-30 -29h-312v-289q0 -37 -34 -37z" />
    <glyph glyph-name="uni1000A0.small" unicode="G&#x20de;" horiz-adv-x="1795" 
d="M416 23q-216 0 -216 215v964q0 106 55 161t161 55h963q106 0 161 -55t55 -161v-964q0 -105 -55 -160t-161 -55h-963zM418 91h959q72 0 111 38.5t39 112.5v957q0 74 -39 112.5t-111 38.5h-959q-74 0 -112 -38.5t-38 -112.5v-957q0 -151 150 -151zM904 362
q-140 0 -226 99.5t-86 262.5q0 162 85.5 261.5t225.5 99.5q110 0 181 -55.5t89 -127.5q4 -20 4 -26q0 -33 -31 -33q-22 0 -31 27q-14 71 -71.5 113t-139.5 42q-108 0 -175 -83.5t-67 -217.5t67.5 -217.5t174.5 -83.5q99 0 153.5 56t54.5 154v41h-195q-12 0 -20 8t-8 20
t7.5 20t20.5 8h230q16 0 25 -9.5t9 -26.5v-55q0 -126 -75 -201.5t-202 -75.5z" />
    <glyph glyph-name="uni1000A2.small" unicode="H&#x20de;" horiz-adv-x="1795" 
d="M416 23q-216 0 -216 215v964q0 106 55 161t161 55h963q106 0 161 -55t55 -161v-964q0 -105 -55 -160t-161 -55h-963zM418 91h959q72 0 111 38.5t39 112.5v957q0 74 -39 112.5t-111 38.5h-959q-74 0 -112 -38.5t-38 -112.5v-957q0 -151 150 -151zM657 368q-16 0 -25 10
t-9 27v637q0 37 34 37t34 -37v-275h411v275q0 37 34 37t34 -37v-637q0 -37 -34 -37q-16 0 -25 10t-9 27v303h-411v-303q0 -37 -34 -37z" />
    <glyph glyph-name="uni1000A4.small" unicode="I&#x20de;" horiz-adv-x="1795" 
d="M416 23q-216 0 -216 215v964q0 106 55 161t161 55h963q106 0 161 -55t55 -161v-964q0 -105 -55 -160t-161 -55h-963zM418 91h959q72 0 111 38.5t39 112.5v957q0 74 -39 112.5t-111 38.5h-959q-74 0 -112 -38.5t-38 -112.5v-957q0 -151 150 -151zM897 368
q-15 0 -24.5 10.5t-9.5 26.5v637q0 17 9 27t25 10q34 0 34 -37v-637q0 -37 -34 -37z" />
    <glyph glyph-name="uni1000A6.small" unicode="J&#x20de;" horiz-adv-x="1795" 
d="M416 23q-216 0 -216 215v964q0 106 55 161t161 55h963q106 0 161 -55t55 -161v-964q0 -105 -55 -160t-161 -55h-963zM418 91h959q72 0 111 38.5t39 112.5v957q0 74 -39 112.5t-111 38.5h-959q-74 0 -112 -38.5t-38 -112.5v-957q0 -151 150 -151zM868 366q-76 0 -131.5 39
t-69.5 100q-3 13 -3 25q0 34 32 34q23 0 32 -26q9 -50 48 -80.5t94 -30.5q60 0 95 39.5t35 107.5v468q0 17 9.5 27t25.5 10q34 0 34 -37v-468q0 -97 -53 -152.5t-148 -55.5z" />
    <glyph glyph-name="uni1000A8.small" unicode="&#x212a;&#x20de;" horiz-adv-x="1795" 
d="M416 23q-216 0 -216 215v964q0 106 55 161t161 55h963q106 0 161 -55t55 -161v-964q0 -105 -55 -160t-161 -55h-963zM418 91h959q72 0 111 38.5t39 112.5v957q0 74 -39 112.5t-111 38.5h-959q-74 0 -112 -38.5t-38 -112.5v-957q0 -151 150 -151zM693 368q-16 0 -25.5 10
t-9.5 27v637q0 17 9.5 27t25.5 10q34 0 34 -37v-328h4l346 350q15 15 31 15q13 0 22 -8.5t9 -21.5q0 -14 -11 -25l-248 -251l269 -342q12 -18 12 -29q0 -14 -10 -23.5t-24 -9.5q-18 0 -34 20l-263 337l-103 -104v-217q0 -17 -9 -27t-25 -10z" />
    <glyph glyph-name="uni1000AA.small" unicode="L&#x20de;" horiz-adv-x="1795" 
d="M416 23q-216 0 -216 215v964q0 106 55 161t161 55h963q106 0 161 -55t55 -161v-964q0 -105 -55 -160t-161 -55h-963zM418 91h959q72 0 111 38.5t39 112.5v957q0 74 -39 112.5t-111 38.5h-959q-74 0 -112 -38.5t-38 -112.5v-957q0 -151 150 -151zM739 375q-16 0 -25 10
t-9 27v630q0 37 34 37t34 -37v-607h336q13 0 21.5 -8.5t8.5 -21.5q0 -30 -30 -30h-370z" />
    <glyph glyph-name="uni1000AC.small" unicode="M&#x20de;" horiz-adv-x="1795" 
d="M416 23q-216 0 -216 215v964q0 106 55 161t161 55h963q106 0 161 -55t55 -161v-964q0 -105 -55 -160t-161 -55h-963zM418 91h959q72 0 111 38.5t39 112.5v957q0 74 -39 112.5t-111 38.5h-959q-74 0 -112 -38.5t-38 -112.5v-957q0 -151 150 -151zM598 367q-31 0 -31 34
v632q0 21 13 33.5t33 12.5q36 0 50 -37l232 -584h4l231 584q16 37 51 37q20 0 33 -12.5t13 -33.5v-632q0 -16 -9 -25t-23 -9q-32 0 -32 34v564h-5l-221 -559q-12 -28 -41 -28q-28 0 -40 28l-221 559h-5v-564q0 -34 -32 -34z" />
    <glyph glyph-name="uni1000AE.small" unicode="N&#x20de;" horiz-adv-x="1795" 
d="M416 23q-216 0 -216 215v964q0 106 55 161t161 55h963q106 0 161 -55t55 -161v-964q0 -105 -55 -160t-161 -55h-963zM418 91h959q72 0 111 38.5t39 112.5v957q0 74 -39 112.5t-111 38.5h-959q-74 0 -112 -38.5t-38 -112.5v-957q0 -151 150 -151zM660 368q-32 0 -32 35
v630q0 46 41 46q26 0 44 -27l383 -575h4v567q0 35 33 35t33 -35v-634q0 -20 -11 -31t-31 -11q-25 0 -43 28l-384 572h-3v-565q0 -35 -34 -35z" />
    <glyph glyph-name="uni1000B0.small" unicode="O&#x20de;" horiz-adv-x="1795" 
d="M416 23q-216 0 -216 215v964q0 106 55 161t161 55h963q106 0 161 -55t55 -161v-964q0 -105 -55 -160t-161 -55h-963zM418 91h959q72 0 111 38.5t39 112.5v957q0 74 -39 112.5t-111 38.5h-959q-74 0 -112 -38.5t-38 -112.5v-957q0 -151 150 -151zM897 362q-143 0 -231 100
t-88 262q0 161 88.5 261t230.5 100q143 0 231.5 -100t88.5 -261q0 -162 -88.5 -262t-231.5 -100zM897 421q112 0 181.5 83.5t69.5 219.5q0 135 -69.5 218.5t-181.5 83.5t-181 -83.5t-69 -218.5q0 -136 69 -219.5t181 -83.5z" />
    <glyph glyph-name="uni1000B2.small" unicode="P&#x20de;" horiz-adv-x="1795" 
d="M416 23q-216 0 -216 215v964q0 106 55 161t161 55h963q106 0 161 -55t55 -161v-964q0 -105 -55 -160t-161 -55h-963zM418 91h959q72 0 111 38.5t39 112.5v957q0 74 -39 112.5t-111 38.5h-959q-74 0 -112 -38.5t-38 -112.5v-957q0 -151 150 -151zM729 368
q-16 0 -25.5 10.5t-9.5 26.5v630q0 17 9 27.5t24 10.5h219q98 0 161 -62t63 -158t-63 -157.5t-161 -61.5h-183v-229q0 -37 -34 -37zM763 692h179q70 0 115 45.5t45 115.5q0 71 -45 116.5t-115 45.5h-179v-323z" />
    <glyph glyph-name="uni1000B4.small" unicode="Q&#x20de;" horiz-adv-x="1795" 
d="M416 23q-216 0 -216 215v964q0 106 55 161t161 55h963q106 0 161 -55t55 -161v-964q0 -105 -55 -160t-161 -55h-963zM418 91h959q72 0 111 38.5t39 112.5v957q0 74 -39 112.5t-111 38.5h-959q-74 0 -112 -38.5t-38 -112.5v-957q0 -151 150 -151zM897 362
q-144 0 -232 100.5t-88 262.5q0 160 88 260t232 100t232 -100t88 -260q0 -102 -36.5 -181.5t-102.5 -125.5l60 -83q11 -15 11 -25q0 -11 -7.5 -19t-19.5 -8q-16 0 -28 16l-65 90q-59 -27 -132 -27zM897 421q54 0 96 17l-64 89q-10 14 -10 24q0 11 8.5 18.5t19.5 7.5
q15 0 25 -14l69 -94q108 80 108 256q0 135 -69.5 218t-182.5 83t-182 -83t-69 -218q0 -137 69 -220.5t182 -83.5z" />
    <glyph glyph-name="uni1000B6.small" unicode="R&#x20de;" horiz-adv-x="1795" 
d="M416 23q-216 0 -216 215v964q0 106 55 161t161 55h963q106 0 161 -55t55 -161v-964q0 -105 -55 -160t-161 -55h-963zM418 91h959q72 0 111 38.5t39 112.5v957q0 74 -39 112.5t-111 38.5h-959q-74 0 -112 -38.5t-38 -112.5v-957q0 -151 150 -151zM701 368
q-16 0 -25.5 10.5t-9.5 26.5v629q0 18 9 28.5t24 10.5h218q100 0 162.5 -58t62.5 -152q0 -76 -43 -130t-116 -71l141 -235q10 -17 10 -29q0 -14 -8 -22t-22 -8q-21 0 -36 25l-153 261h-180v-249q0 -37 -34 -37zM735 710h177q73 0 117.5 41.5t44.5 110.5t-44.5 111t-116.5 42
h-178v-305z" />
    <glyph glyph-name="uni1000B8.small" unicode="S&#x20de;" horiz-adv-x="1795" 
d="M416 23q-216 0 -216 215v964q0 106 55 161t161 55h963q106 0 161 -55t55 -161v-964q0 -105 -55 -160t-161 -55h-963zM418 91h959q72 0 111 38.5t39 112.5v957q0 74 -39 112.5t-111 38.5h-959q-74 0 -112 -38.5t-38 -112.5v-957q0 -151 150 -151zM892 362q-94 0 -162.5 43
t-86.5 109q-4 16 -4 29q0 33 32 33q24 0 34 -28q13 -57 66.5 -91.5t127.5 -34.5q77 0 132.5 40.5t55.5 97.5q0 48 -34 76t-117 50l-110 29q-88 23 -129.5 64.5t-41.5 108.5q0 86 69 141.5t178 55.5q92 0 156 -40t81 -107q4 -15 4 -28q0 -33 -32 -33q-25 0 -33 28
q-14 56 -61.5 88.5t-117.5 32.5q-72 0 -122.5 -40.5t-50.5 -98.5q0 -42 30 -68.5t99 -44.5l106 -29q104 -28 150 -69.5t46 -109.5q0 -92 -72.5 -148t-192.5 -56z" />
    <glyph glyph-name="uni1000BA.small" unicode="T&#x20de;" horiz-adv-x="1795" 
d="M416 23q-216 0 -216 215v964q0 106 55 161t161 55h963q106 0 161 -55t55 -161v-964q0 -105 -55 -160t-161 -55h-963zM418 91h959q72 0 111 38.5t39 112.5v957q0 74 -39 112.5t-111 38.5h-959q-74 0 -112 -38.5t-38 -112.5v-957q0 -151 150 -151zM893 367
q-15 0 -24.5 10.5t-9.5 26.5v607h-210q-13 0 -21.5 8.5t-8.5 21.5q0 14 8.5 22.5t21.5 8.5h496q13 0 21.5 -8.5t8.5 -22.5q0 -13 -8.5 -21.5t-21.5 -8.5h-217v-607q0 -17 -9.5 -27t-25.5 -10z" />
    <glyph glyph-name="uni1000BC.small" unicode="U&#x20de;" horiz-adv-x="1795" 
d="M416 23q-216 0 -216 215v964q0 106 55 161t161 55h963q106 0 161 -55t55 -161v-964q0 -105 -55 -160t-161 -55h-963zM418 91h959q72 0 111 38.5t39 112.5v957q0 74 -39 112.5t-111 38.5h-959q-74 0 -112 -38.5t-38 -112.5v-957q0 -151 150 -151zM897 362q-121 0 -198 69
t-77 183v428q0 37 34 37t34 -37v-424q0 -87 58.5 -141t148.5 -54q91 0 149 54t58 141v424q0 17 9.5 27t24.5 10q35 0 35 -37v-428q0 -114 -77 -183t-199 -69z" />
    <glyph glyph-name="uni1000BE.small" unicode="V&#x20de;" horiz-adv-x="1795" 
d="M416 23q-216 0 -216 215v964q0 106 55 161t161 55h963q106 0 161 -55t55 -161v-964q0 -105 -55 -160t-161 -55h-963zM418 91h959q72 0 111 38.5t39 112.5v957q0 74 -39 112.5t-111 38.5h-959q-74 0 -112 -38.5t-38 -112.5v-957q0 -151 150 -151zM898 366q-39 0 -55 40
l-237 620q-4 16 -4 21q0 14 9.5 23t25.5 9q26 0 36 -30l222 -600h5l222 600q10 30 36 30q15 0 24.5 -9t9.5 -23q0 -9 -4 -21l-236 -620q-15 -40 -54 -40z" />
    <glyph glyph-name="uni1000C0.small" unicode="W&#x20de;" horiz-adv-x="1795" 
d="M416 23q-216 0 -216 215v964q0 106 55 161t161 55h963q106 0 161 -55t55 -161v-964q0 -105 -55 -160t-161 -55h-963zM418 91h959q72 0 111 38.5t39 112.5v957q0 74 -39 112.5t-111 38.5h-959q-74 0 -112 -38.5t-38 -112.5v-957q0 -151 150 -151zM696 366q-39 0 -48 40
l-159 628q-2 5 -2 13q0 14 9 23t24 9q27 0 34 -33l142 -582h5l156 580q9 31 40 31q32 0 41 -31l156 -580h4l143 582q7 33 34 33q15 0 24 -9t9 -23q0 -8 -2 -13l-159 -628q-10 -40 -49 -40q-38 0 -49 38l-149 566h-5l-149 -566q-11 -38 -50 -38z" />
    <glyph glyph-name="uni1000C2.small" unicode="X&#x20de;" horiz-adv-x="1795" 
d="M416 23q-216 0 -216 215v964q0 106 55 161t161 55h963q106 0 161 -55t55 -161v-964q0 -105 -55 -160t-161 -55h-963zM418 91h959q72 0 111 38.5t39 112.5v957q0 74 -39 112.5t-111 38.5h-959q-74 0 -112 -38.5t-38 -112.5v-957q0 -151 150 -151zM671 368q-13 0 -22.5 9
t-9.5 21q0 10 8 23l209 304l-203 298q-9 12 -9 24q0 14 9.5 23t23.5 9q19 0 32 -19l188 -283h4l189 283q13 19 31 19q14 0 23 -8.5t9 -21.5q0 -12 -8 -23l-208 -302l206 -301q8 -13 8 -23q0 -14 -9.5 -23t-23.5 -9q-18 0 -32 20l-189 283h-4l-190 -283q-14 -20 -32 -20z" />
    <glyph glyph-name="uni1000C4.small" unicode="Y&#x20de;" horiz-adv-x="1795" 
d="M416 23q-216 0 -216 215v964q0 106 55 161t161 55h963q106 0 161 -55t55 -161v-964q0 -105 -55 -160t-161 -55h-963zM418 91h959q72 0 111 38.5t39 112.5v957q0 74 -39 112.5t-111 38.5h-959q-74 0 -112 -38.5t-38 -112.5v-957q0 -151 150 -151zM898 368q-16 0 -25 10
t-9 27v262l-241 360q-7 10 -7 21q0 14 9 22.5t23 8.5q20 0 32 -20l216 -321h4l216 321q12 20 32 20q14 0 22.5 -8.5t8.5 -22.5q0 -12 -6 -21l-241 -359v-263q0 -17 -9 -27t-25 -10z" />
    <glyph glyph-name="uni1000C6.small" unicode="Z&#x20de;" horiz-adv-x="1795" 
d="M416 23q-216 0 -216 215v964q0 106 55 161t161 55h963q106 0 161 -55t55 -161v-964q0 -105 -55 -160t-161 -55h-963zM418 91h959q72 0 111 38.5t39 112.5v957q0 74 -39 112.5t-111 38.5h-959q-74 0 -112 -38.5t-38 -112.5v-957q0 -151 150 -151zM675 375q-18 0 -29 10
t-11 27q0 16 15 38l408 558v4h-391q-13 0 -21.5 8.5t-8.5 21.5t8.5 22t21.5 9h435q17 0 28.5 -11t11.5 -28t-14 -37l-406 -557v-5h409q13 0 21.5 -8.5t8.5 -21.5t-8.5 -21.5t-21.5 -8.5h-456z" />
    <glyph glyph-name="uni100005.small" unicode="A&#x20dd;&#x25cf;" 
d="M913 -51q-156 0 -299 61.5t-247 165.5t-165.5 247t-61.5 299q0 208 104 386.5t282 282.5t386 104q156 0 299 -61.5t247 -165.5t165.5 -247t61.5 -299q0 -208 -104 -386.5t-282 -282.5t-386 -104zM653 362q24 0 35 29l73 199h302l73 -199q11 -29 36 -29q14 0 23.5 8.5
t9.5 21.5q0 10 -5 23l-240 636q-13 34 -48 34t-48 -34l-240 -636q-5 -13 -5 -22q0 -31 34 -31zM781 649l129 347h4l129 -347h-262z" />
    <glyph glyph-name="uni100007.small" unicode="B&#x20dd;&#x25cf;" 
d="M913 -51q-156 0 -299 61.5t-247 165.5t-165.5 247t-61.5 299q0 208 104 386.5t282 282.5t386 104q156 0 299 -61.5t247 -165.5t165.5 -247t61.5 -299q0 -208 -104 -386.5t-282 -282.5t-386 -104zM709 367h232q116 0 183 53t67 145q0 71 -43 118.5t-117 57.5v3
q53 13 85.5 57.5t32.5 103.5q0 77 -58.5 126t-151.5 49h-230q-37 0 -37 -39v-635q0 -39 37 -39zM741 762v260h185q73 0 113 -34t40 -95q0 -58 -47 -94.5t-123 -36.5h-168zM741 425v281h208q80 0 125 -37.5t45 -103.5q0 -140 -208 -140h-170z" />
    <glyph glyph-name="uni100009.small" unicode="C&#x20dd;&#x25cf;" 
d="M913 -51q-156 0 -299 61.5t-247 165.5t-165.5 247t-61.5 299q0 208 104 386.5t282 282.5t386 104q156 0 299 -61.5t247 -165.5t165.5 -247t61.5 -299q0 -208 -104 -386.5t-282 -282.5t-386 -104zM918 358q102 0 178.5 52t94.5 133q4 20 4 27q0 33 -32 33q-22 0 -31 -27
q-15 -71 -72.5 -113.5t-140.5 -42.5q-109 0 -177 84.5t-68 219.5q0 134 68 218.5t177 84.5q83 0 141 -42.5t72 -113.5q9 -27 31 -27q32 0 32 34q0 7 -4 26q-19 80 -96 132.5t-177 52.5q-141 0 -228 -101t-87 -264q0 -164 87 -265t228 -101z" />
    <glyph glyph-name="uni10000B.small" unicode="D&#x20dd;&#x25cf;" 
d="M913 -51q-156 0 -299 61.5t-247 165.5t-165.5 247t-61.5 299q0 208 104 386.5t282 282.5t386 104q156 0 299 -61.5t247 -165.5t165.5 -247t61.5 -299q0 -208 -104 -386.5t-282 -282.5t-386 -104zM692 371h208q156 0 243 92.5t87 262.5q0 164 -87.5 257t-242.5 93h-208
q-33 0 -33 -39v-627q0 -18 9 -28.5t24 -10.5zM728 431v586h164q122 0 193 -77t71 -215q0 -144 -69.5 -219t-194.5 -75h-164z" />
    <glyph glyph-name="uni10000D.small" unicode="E&#x20dd;&#x25cf;" 
d="M913 -51q-156 0 -299 61.5t-247 165.5t-165.5 247t-61.5 299q0 208 104 386.5t282 282.5t386 104q156 0 299 -61.5t247 -165.5t165.5 -247t61.5 -299q0 -208 -104 -386.5t-282 -282.5t-386 -104zM722 371h383q31 0 31 31q0 13 -8 21.5t-23 8.5h-346v270h327q31 0 31 29
q0 30 -31 30h-327v254h346q15 0 23 8.5t8 21.5q0 31 -31 31h-383q-33 0 -33 -39v-627q0 -18 9 -28.5t24 -10.5z" />
    <glyph glyph-name="uni10000F.small" unicode="F&#x20dd;&#x25cf;" 
d="M913 -52q-156 0 -299 61.5t-247 165.5t-165.5 247t-61.5 299q0 208 104 386.5t282 282.5t386 104q156 0 299 -61.5t247 -165.5t165.5 -247t61.5 -299q0 -208 -104 -386.5t-282 -282.5t-386 -104zM737 364q35 0 35 38v290h315q30 0 30 30t-30 30h-315v262h344q14 0 22 8.5
t8 21.5q0 31 -30 31h-380q-34 0 -34 -39v-634q0 -17 9.5 -27.5t25.5 -10.5z" />
    <glyph glyph-name="uni100011.small" unicode="G&#x20dd;&#x25cf;" 
d="M913 -51q-156 0 -299 61.5t-247 165.5t-165.5 247t-61.5 299q0 208 104 386.5t282 282.5t386 104q156 0 299 -61.5t247 -165.5t165.5 -247t61.5 -299q0 -208 -104 -386.5t-282 -282.5t-386 -104zM920 345q133 0 211.5 79t78.5 211v57q0 39 -36 39h-241q-13 0 -21 -8.5
t-8 -21.5q0 -12 8 -20.5t21 -8.5h205v-43q0 -103 -57.5 -162t-160.5 -59q-113 0 -183.5 88t-70.5 228t70.5 227.5t183.5 87.5q86 0 145.5 -44t75.5 -119q9 -28 32 -28q32 0 32 35q0 12 -3 27q-19 75 -93.5 133.5t-189.5 58.5q-146 0 -235.5 -104t-89.5 -274
q0 -171 89.5 -275t236.5 -104z" />
    <glyph glyph-name="uni100013.small" unicode="H&#x20dd;&#x25cf;" 
d="M913 -51q-156 0 -299 61.5t-247 165.5t-165.5 247t-61.5 299q0 208 104 386.5t282 282.5t386 104q156 0 299 -61.5t247 -165.5t165.5 -247t61.5 -299q0 -208 -104 -386.5t-282 -282.5t-386 -104zM669 365q36 0 36 37v306h414v-306q0 -37 34 -37q36 0 36 37v643
q0 38 -36 38q-34 0 -34 -38v-278h-414v278q0 38 -36 38q-34 0 -34 -38v-643q0 -37 34 -37z" />
    <glyph glyph-name="uni100015.small" unicode="I&#x20dd;&#x25cf;" 
d="M913 -51q-156 0 -299 61.5t-247 165.5t-165.5 247t-61.5 299q0 208 104 386.5t282 282.5t386 104q156 0 299 -61.5t247 -165.5t165.5 -247t61.5 -299q0 -208 -104 -386.5t-282 -282.5t-386 -104zM912 365q16 0 25.5 10.5t9.5 27.5v642q0 17 -9.5 27.5t-25.5 10.5
t-25.5 -10.5t-9.5 -27.5v-642q0 -17 9.5 -27.5t25.5 -10.5z" />
    <glyph glyph-name="uni100017.small" unicode="J&#x20dd;&#x25cf;" 
d="M913 -51q-156 0 -299 61.5t-247 165.5t-165.5 247t-61.5 299q0 208 104 386.5t282 282.5t386 104q156 0 299 -61.5t247 -165.5t165.5 -247t61.5 -299q0 -208 -104 -386.5t-282 -282.5t-386 -104zM882 362q96 0 150 56.5t54 154.5v472q0 38 -35 38q-16 0 -25.5 -10.5
t-9.5 -27.5v-472q0 -69 -35 -109t-96 -40q-56 0 -95 31t-48 81q-9 27 -33 27q-15 0 -24 -9.5t-9 -25.5q0 -13 4 -26q14 -61 69.5 -100.5t132.5 -39.5z" />
    <glyph glyph-name="uni100019.small" unicode="&#x212a;&#x20dd;&#x25cf;" 
d="M913 -51q-156 0 -299 61.5t-247 165.5t-165.5 247t-61.5 299q0 208 104 386.5t282 282.5t386 104q156 0 299 -61.5t247 -165.5t165.5 -247t61.5 -299q0 -208 -104 -386.5t-282 -282.5t-386 -104zM706 365q35 0 35 38v217l104 106l265 -341q17 -20 35 -20q14 0 24 9.5
t10 24.5q0 13 -12 29l-271 346l250 253q11 11 11 25q0 13 -9.5 22t-22.5 9q-16 0 -31 -15l-350 -353h-3v330q0 38 -35 38q-16 0 -25.5 -10t-9.5 -28v-642q0 -18 9.5 -28t25.5 -10z" />
    <glyph glyph-name="uni10001B.small" unicode="L&#x20dd;&#x25cf;" 
d="M913 -51q-156 0 -299 61.5t-247 165.5t-165.5 247t-61.5 299q0 208 104 386.5t282 282.5t386 104q156 0 299 -61.5t247 -165.5t165.5 -247t61.5 -299q0 -208 -104 -386.5t-282 -282.5t-386 -104zM752 371h374q31 0 31 31q0 14 -8.5 22.5t-22.5 8.5h-339v612q0 38 -35 38
q-16 0 -25.5 -10.5t-9.5 -27.5v-636q0 -17 9.5 -27.5t25.5 -10.5z" />
    <glyph glyph-name="uni10001D.small" unicode="M&#x20dd;&#x25cf;" 
d="M913 -51q-156 0 -299 61.5t-247 165.5t-165.5 247t-61.5 299q0 208 104 386.5t282 282.5t386 104q156 0 299 -61.5t247 -165.5t165.5 -247t61.5 -299q0 -208 -104 -386.5t-282 -282.5t-386 -104zM610 363q33 0 33 35v568h5l222 -563q12 -29 41 -29q30 0 42 29l223 563h5
v-568q0 -35 32 -35t32 35v638q0 21 -13 34t-33 13q-36 0 -52 -37l-233 -590h-4l-234 590q-16 37 -51 37q-20 0 -33.5 -13t-13.5 -34v-638q0 -16 9 -25.5t23 -9.5z" />
    <glyph glyph-name="uni10001F.small" unicode="N&#x20dd;&#x25cf;" 
d="M913 -51q-156 0 -299 61.5t-247 165.5t-165.5 247t-61.5 299q0 208 104 386.5t282 282.5t386 104q156 0 299 -61.5t247 -165.5t165.5 -247t61.5 -299q0 -208 -104 -386.5t-282 -282.5t-386 -104zM673 365q34 0 34 35v569h4l386 -577q18 -27 45 -27q19 0 30.5 11.5
t11.5 30.5v640q0 36 -34 36q-33 0 -33 -36v-571h-4l-387 579q-18 28 -44 28q-42 0 -42 -47v-636q0 -35 33 -35z" />
    <glyph glyph-name="uni100021.small" unicode="O&#x20dd;&#x25cf;" 
d="M913 -51q-156 0 -299 61.5t-247 165.5t-165.5 247t-61.5 299q0 208 104 386.5t282 282.5t386 104q156 0 299 -61.5t247 -165.5t165.5 -247t61.5 -299q0 -208 -104 -386.5t-282 -282.5t-386 -104zM912 358q145 0 234 101t89 265t-89 264.5t-234 100.5q-144 0 -233 -101
t-89 -264q0 -164 89 -265t233 -101zM912 418q-112 0 -182 84.5t-70 221.5q0 136 69.5 220.5t182.5 84.5t183 -84t70 -221t-70 -221.5t-183 -84.5z" />
    <glyph glyph-name="uni100023.small" unicode="P&#x20dd;&#x25cf;" 
d="M913 -51q-156 0 -299 61.5t-247 165.5t-165.5 247t-61.5 299q0 208 104 386.5t282 282.5t386 104q156 0 299 -61.5t247 -165.5t165.5 -247t61.5 -299q0 -208 -104 -386.5t-282 -282.5t-386 -104zM742 365q35 0 35 38v230h184q100 0 163.5 62t63.5 159t-64 159.5
t-162 62.5h-221q-34 0 -34 -38v-635q0 -17 9.5 -27.5t25.5 -10.5zM777 692v325h180q71 0 116 -45.5t45 -117.5q0 -71 -45 -116.5t-116 -45.5h-180z" />
    <glyph glyph-name="uni100025.small" unicode="Q&#x20dd;&#x25cf;" 
d="M913 -51q-156 0 -299 61.5t-247 165.5t-165.5 247t-61.5 299q0 208 104 386.5t282 282.5t386 104q156 0 299 -61.5t247 -165.5t165.5 -247t61.5 -299q0 -208 -104 -386.5t-282 -282.5t-386 -104zM912 358q72 0 133 28l65 -91q13 -16 29 -16q13 0 20.5 7.5t7.5 19.5
q0 10 -11 26l-61 83q67 46 104 126.5t37 183.5q0 162 -89.5 263t-234.5 101t-234 -101t-89 -263q0 -164 89 -265.5t234 -101.5zM912 419q-113 0 -183 84t-70 222q0 136 70 220t183 84q114 0 184 -84t70 -220q0 -177 -108 -258l-70 95q-10 14 -26 14q-12 0 -20 -7.5t-8 -19.5
q0 -10 10 -24l64 -89q-38 -17 -96 -17z" />
    <glyph glyph-name="uni100027.small" unicode="R&#x20dd;&#x25cf;" 
d="M913 -51q-156 0 -299 61.5t-247 165.5t-165.5 247t-61.5 299q0 208 104 386.5t282 282.5t386 104q156 0 299 -61.5t247 -165.5t165.5 -247t61.5 -299q0 -208 -104 -386.5t-282 -282.5t-386 -104zM713 365q17 0 26.5 10t9.5 27v251h181l154 -264q15 -24 37 -24
q14 0 22.5 8.5t8.5 21.5q0 12 -10 29l-142 237q73 17 116.5 72t43.5 131q0 95 -63 153.5t-165 58.5h-220q-33 0 -33 -39v-635q0 -17 9 -27t25 -10zM749 710v307h179q73 0 117.5 -42t44.5 -112t-44.5 -111.5t-118.5 -41.5h-178z" />
    <glyph glyph-name="uni100029.small" unicode="S&#x20dd;&#x25cf;" 
d="M913 -51q-156 0 -299 61.5t-247 165.5t-165.5 247t-61.5 299q0 208 104 386.5t282 282.5t386 104q156 0 299 -61.5t247 -165.5t165.5 -247t61.5 -299q0 -208 -104 -386.5t-282 -282.5t-386 -104zM907 358q121 0 194.5 56.5t73.5 150.5q0 68 -46.5 110t-151.5 70l-107 29
q-70 19 -100.5 46t-30.5 69q0 58 51 98.5t124 40.5q70 0 118 -32.5t62 -88.5q9 -28 34 -28q33 0 33 33q0 11 -5 28q-17 67 -82 108t-157 41q-110 0 -179.5 -56t-69.5 -144q0 -68 41.5 -109.5t130.5 -64.5l111 -30q84 -22 118 -50t34 -77q0 -57 -55.5 -97.5t-133.5 -40.5
q-75 0 -129 34.5t-67 91.5q-10 29 -34 29q-33 0 -33 -34q0 -15 5 -29q17 -67 86 -110.5t165 -43.5z" />
    <glyph glyph-name="uni10002B.small" unicode="T&#x20dd;&#x25cf;" 
d="M913 -51q-156 0 -299 61.5t-247 165.5t-165.5 247t-61.5 299q0 208 104 386.5t282 282.5t386 104q156 0 299 -61.5t247 -165.5t165.5 -247t61.5 -299q0 -208 -104 -386.5t-282 -282.5t-386 -104zM908 364q36 0 36 38v612h218q13 0 22 8.5t9 21.5q0 31 -31 31h-500
q-31 0 -31 -31q0 -13 9 -21.5t22 -8.5h212v-612q0 -17 9 -27.5t25 -10.5z" />
    <glyph glyph-name="uni10002D.small" unicode="U&#x20dd;&#x25cf;" 
d="M913 -51q-156 0 -299 61.5t-247 165.5t-165.5 247t-61.5 299q0 208 104 386.5t282 282.5t386 104q156 0 299 -61.5t247 -165.5t165.5 -247t61.5 -299q0 -208 -104 -386.5t-282 -282.5t-386 -104zM912 358q123 0 201 69.5t78 185.5v432q0 38 -35 38q-16 0 -25.5 -10
t-9.5 -28v-428q0 -88 -59 -142.5t-150 -54.5t-150 54.5t-59 142.5v428q0 38 -35 38q-16 0 -25.5 -10t-9.5 -28v-432q0 -116 78 -185.5t201 -69.5z" />
    <glyph glyph-name="uni10002F.small" unicode="V&#x20dd;&#x25cf;" 
d="M913 -51q-156 0 -299 61.5t-247 165.5t-165.5 247t-61.5 299q0 208 104 386.5t282 282.5t386 104q156 0 299 -61.5t247 -165.5t165.5 -247t61.5 -299q0 -208 -104 -386.5t-282 -282.5t-386 -104zM913 362q39 0 55 41l239 626q4 16 4 21q0 15 -10 23.5t-26 8.5
q-26 0 -37 -30l-223 -605h-5l-224 605q-10 30 -37 30q-16 0 -25.5 -9t-9.5 -23q0 -10 4 -21l239 -626q16 -41 56 -41z" />
    <glyph glyph-name="uni100031.small" unicode="W&#x20dd;&#x25cf;" 
d="M913 -51q-156 0 -299 61.5t-247 165.5t-165.5 247t-61.5 299q0 208 104 386.5t282 282.5t386 104q156 0 299 -61.5t247 -165.5t165.5 -247t61.5 -299q0 -208 -104 -386.5t-282 -282.5t-386 -104zM709 362q41 0 50 39l151 570h5l150 -570q11 -39 50 -39q40 0 50 41
l161 633q2 12 2 14q0 15 -9.5 23.5t-24.5 8.5q-28 0 -35 -33l-144 -587h-4l-158 585q-7 32 -41 32q-32 0 -41 -32l-157 -585h-5l-143 587q-7 33 -35 33q-15 0 -24.5 -8.5t-9.5 -23.5q0 -2 2 -14l161 -633q9 -41 49 -41z" />
    <glyph glyph-name="uni100033.small" unicode="X&#x20dd;&#x25cf;" 
d="M913 -51q-156 0 -299 61.5t-247 165.5t-165.5 247t-61.5 299q0 208 104 386.5t282 282.5t386 104q156 0 299 -61.5t247 -165.5t165.5 -247t61.5 -299q0 -208 -104 -386.5t-282 -282.5t-386 -104zM684 365q19 0 32 20l192 285h4l190 -285q13 -20 33 -20q15 0 24.5 9
t9.5 23q0 12 -9 24l-207 303l210 305q8 11 8 23q0 13 -9.5 22t-23.5 9q-19 0 -32 -20l-190 -285h-4l-189 285q-14 20 -34 20q-14 0 -23.5 -9.5t-9.5 -23.5q0 -12 9 -25l205 -300l-211 -307q-8 -13 -8 -23q0 -13 9.5 -21.5t23.5 -8.5z" />
    <glyph glyph-name="uni100035.small" unicode="Y&#x20dd;&#x25cf;" 
d="M913 -51q-156 0 -299 61.5t-247 165.5t-165.5 247t-61.5 299q0 208 104 386.5t282 282.5t386 104q156 0 299 -61.5t247 -165.5t165.5 -247t61.5 -299q0 -208 -104 -386.5t-282 -282.5t-386 -104zM913 365q16 0 25.5 10t9.5 28v264l242 363q7 8 7 21q0 14 -9 23t-23 9
q-19 0 -33 -21l-217 -324h-4l-217 324q-14 21 -33 21q-14 0 -23.5 -9t-9.5 -23q0 -11 7 -21l243 -364v-263q0 -17 9.5 -27.5t25.5 -10.5z" />
    <glyph glyph-name="uni100037.small" unicode="Z&#x20dd;&#x25cf;" 
d="M913 -51q-156 0 -299 61.5t-247 165.5t-165.5 247t-61.5 299q0 208 104 386.5t282 282.5t386 104q156 0 299 -61.5t247 -165.5t165.5 -247t61.5 -299q0 -208 -104 -386.5t-282 -282.5t-386 -104zM688 371h460q14 0 22.5 8.5t8.5 22.5q0 13 -8.5 21.5t-22.5 8.5h-412v5
l409 563q15 19 15 37q0 17 -11.5 28t-29.5 11h-439q-14 0 -22.5 -9t-8.5 -22t8.5 -21.5t22.5 -8.5h393v-5l-411 -563q-15 -21 -15 -38t11.5 -27.5t29.5 -10.5z" />
    <glyph glyph-name="uni100095.small" unicode="A&#x20de;&#x25a0;" horiz-adv-x="1795" 
d="M416 23q-216 0 -216 215v964q0 106 55 161t161 55h963q106 0 161 -55t55 -161v-964q0 -105 -55 -160t-161 -55h-963zM638 362q24 0 35 29l73 199h302l73 -199q11 -29 36 -29q14 0 23.5 8.5t9.5 21.5q0 10 -5 23l-240 636q-13 34 -48 34t-48 -34l-240 -636q-5 -13 -5 -22
q0 -31 34 -31zM766 649l129 347h4l129 -347h-262z" />
    <glyph glyph-name="uni100097.small" unicode="B&#x20de;&#x25a0;" horiz-adv-x="1795" 
d="M416 23q-216 0 -216 215v964q0 106 55 161t161 55h963q106 0 161 -55t55 -161v-964q0 -105 -55 -160t-161 -55h-963zM694 367h232q116 0 183 53t67 145q0 71 -43 118.5t-117 57.5v3q53 13 85.5 57.5t32.5 103.5q0 77 -58.5 126t-151.5 49h-230q-37 0 -37 -39v-635
q0 -39 37 -39zM726 762v260h185q73 0 113 -34t40 -95q0 -58 -47 -94.5t-123 -36.5h-168zM726 425v281h208q80 0 125 -37.5t45 -103.5q0 -140 -208 -140h-170z" />
    <glyph glyph-name="uni100099.small" unicode="C&#x20de;&#x25a0;" horiz-adv-x="1795" 
d="M416 23q-216 0 -216 215v964q0 106 55 161t161 55h963q106 0 161 -55t55 -161v-964q0 -105 -55 -160t-161 -55h-963zM903 358q102 0 178.5 52t94.5 133q4 20 4 27q0 33 -32 33q-22 0 -31 -27q-15 -71 -72.5 -113.5t-140.5 -42.5q-109 0 -177 84.5t-68 219.5
q0 134 68 218.5t177 84.5q83 0 141 -42.5t72 -113.5q9 -27 31 -27q32 0 32 34q0 7 -4 26q-19 80 -96 132.5t-177 52.5q-141 0 -228 -101t-87 -264q0 -164 87 -265t228 -101z" />
    <glyph glyph-name="uni10009B.small" unicode="D&#x20de;&#x25a0;" horiz-adv-x="1795" 
d="M416 23q-216 0 -216 215v964q0 106 55 161t161 55h963q106 0 161 -55t55 -161v-964q0 -105 -55 -160t-161 -55h-963zM677 371h208q156 0 243 92.5t87 262.5q0 164 -87.5 257t-242.5 93h-208q-33 0 -33 -39v-627q0 -18 9 -28.5t24 -10.5zM713 431v586h164q122 0 193 -77
t71 -215q0 -144 -69.5 -219t-194.5 -75h-164z" />
    <glyph glyph-name="uni10009F.small" unicode="F&#x20de;&#x25a0;" horiz-adv-x="1795" 
d="M416 23q-216 0 -216 215v964q0 106 55 161t161 55h963q106 0 161 -55t55 -161v-964q0 -105 -55 -160t-161 -55h-963zM722 365q35 0 35 38v290h315q30 0 30 30t-30 30h-315v262h344q14 0 22 8.5t8 21.5q0 31 -30 31h-380q-34 0 -34 -39v-634q0 -17 9.5 -27.5t25.5 -10.5z
" />
    <glyph glyph-name="uni1000A1.small" unicode="G&#x20de;&#x25a0;" horiz-adv-x="1795" 
d="M416 23q-216 0 -216 215v964q0 106 55 161t161 55h963q106 0 161 -55t55 -161v-964q0 -105 -55 -160t-161 -55h-963zM905 345q133 0 211.5 79t78.5 211v57q0 39 -36 39h-241q-13 0 -21 -8.5t-8 -21.5q0 -12 8 -20.5t21 -8.5h205v-43q0 -103 -57.5 -162t-160.5 -59
q-113 0 -183.5 88t-70.5 228t70.5 227.5t183.5 87.5q86 0 145.5 -44t75.5 -119q9 -28 32 -28q32 0 32 35q0 12 -3 27q-19 75 -93.5 133.5t-189.5 58.5q-146 0 -235.5 -104t-89.5 -274q0 -171 89.5 -275t236.5 -104z" />
    <glyph glyph-name="uni1000A3.small" unicode="H&#x20de;&#x25a0;" horiz-adv-x="1795" 
d="M416 23q-216 0 -216 215v964q0 106 55 161t161 55h963q106 0 161 -55t55 -161v-964q0 -105 -55 -160t-161 -55h-963zM654 365q36 0 36 37v306h414v-306q0 -37 34 -37q36 0 36 37v643q0 38 -36 38q-34 0 -34 -38v-278h-414v278q0 38 -36 38q-34 0 -34 -38v-643
q0 -37 34 -37z" />
    <glyph glyph-name="uni1000A5.small" unicode="I&#x20de;&#x25a0;" horiz-adv-x="1795" 
d="M416 23q-216 0 -216 215v964q0 106 55 161t161 55h963q106 0 161 -55t55 -161v-964q0 -105 -55 -160t-161 -55h-963zM897 365q16 0 25.5 10.5t9.5 27.5v642q0 17 -9.5 27.5t-25.5 10.5t-25.5 -10.5t-9.5 -27.5v-642q0 -17 9.5 -27.5t25.5 -10.5z" />
    <glyph glyph-name="uni1000A7.small" unicode="J&#x20de;&#x25a0;" horiz-adv-x="1795" 
d="M416 23q-216 0 -216 215v964q0 106 55 161t161 55h963q106 0 161 -55t55 -161v-964q0 -105 -55 -160t-161 -55h-963zM867 362q96 0 150 56.5t54 154.5v472q0 38 -35 38q-16 0 -25.5 -10.5t-9.5 -27.5v-472q0 -69 -35 -109t-96 -40q-56 0 -95 31t-48 81q-9 27 -33 27
q-15 0 -24 -9.5t-9 -25.5q0 -13 4 -26q14 -61 69.5 -100.5t132.5 -39.5z" />
    <glyph glyph-name="uni1000A9.small" unicode="&#x212a;&#x20de;&#x25a0;" horiz-adv-x="1795" 
d="M416 23q-216 0 -216 215v964q0 106 55 161t161 55h963q106 0 161 -55t55 -161v-964q0 -105 -55 -160t-161 -55h-963zM691 365q35 0 35 38v217l104 106l265 -341q17 -20 35 -20q14 0 24 9.5t10 24.5q0 13 -12 29l-271 346l250 253q11 11 11 25q0 13 -9.5 22t-22.5 9
q-16 0 -31 -15l-350 -353h-3v330q0 38 -35 38q-16 0 -25.5 -10t-9.5 -28v-642q0 -18 9.5 -28t25.5 -10z" />
    <glyph glyph-name="uni1000AB.small" unicode="L&#x20de;&#x25a0;" horiz-adv-x="1795" 
d="M416 23q-216 0 -216 215v964q0 106 55 161t161 55h963q106 0 161 -55t55 -161v-964q0 -105 -55 -160t-161 -55h-963zM737 371h374q31 0 31 31q0 14 -8.5 22.5t-22.5 8.5h-339v612q0 38 -35 38q-16 0 -25.5 -10.5t-9.5 -27.5v-636q0 -17 9.5 -27.5t25.5 -10.5z" />
    <glyph glyph-name="uni1000AD.small" unicode="M&#x20de;&#x25a0;" horiz-adv-x="1795" 
d="M416 23q-216 0 -216 215v964q0 106 55 161t161 55h963q106 0 161 -55t55 -161v-964q0 -105 -55 -160t-161 -55h-963zM595 363q33 0 33 35v568h5l222 -563q12 -29 41 -29q30 0 42 29l223 563h5v-568q0 -35 32 -35t32 35v638q0 21 -13 34t-33 13q-36 0 -52 -37l-233 -590
h-4l-234 590q-16 37 -51 37q-20 0 -33.5 -13t-13.5 -34v-638q0 -16 9 -25.5t23 -9.5z" />
    <glyph glyph-name="uni1000AF.small" unicode="N&#x20de;&#x25a0;" horiz-adv-x="1795" 
d="M416 23q-216 0 -216 215v964q0 106 55 161t161 55h963q106 0 161 -55t55 -161v-964q0 -105 -55 -160t-161 -55h-963zM658 365q34 0 34 35v569h4l386 -577q18 -27 45 -27q19 0 30.5 11.5t11.5 30.5v640q0 36 -34 36q-33 0 -33 -36v-571h-4l-387 579q-18 28 -44 28
q-42 0 -42 -47v-636q0 -35 33 -35z" />
    <glyph glyph-name="uni1000B1.small" unicode="O&#x20de;&#x25a0;" horiz-adv-x="1795" 
d="M416 23q-216 0 -216 215v964q0 106 55 161t161 55h963q106 0 161 -55t55 -161v-964q0 -105 -55 -160t-161 -55h-963zM897 358q145 0 234 101t89 265t-89 264.5t-234 100.5q-144 0 -233 -101t-89 -264q0 -164 89 -265t233 -101zM897 418q-112 0 -182 84.5t-70 221.5
q0 136 69.5 220.5t182.5 84.5t183 -84t70 -221t-70 -221.5t-183 -84.5z" />
    <glyph glyph-name="uni1000B3.small" unicode="P&#x20de;&#x25a0;" horiz-adv-x="1795" 
d="M416 23q-216 0 -216 215v964q0 106 55 161t161 55h963q106 0 161 -55t55 -161v-964q0 -105 -55 -160t-161 -55h-963zM727 365q35 0 35 38v230h184q100 0 163.5 62t63.5 159t-64 159.5t-162 62.5h-221q-34 0 -34 -38v-635q0 -17 9.5 -27.5t25.5 -10.5zM762 692v325h180
q71 0 116 -45.5t45 -117.5q0 -71 -45 -116.5t-116 -45.5h-180z" />
    <glyph glyph-name="uni1000B5.small" unicode="Q&#x20de;&#x25a0;" horiz-adv-x="1795" 
d="M416 23q-216 0 -216 215v964q0 106 55 161t161 55h963q106 0 161 -55t55 -161v-964q0 -105 -55 -160t-161 -55h-963zM897 358q72 0 133 28l65 -91q13 -16 29 -16q13 0 20.5 7.5t7.5 19.5q0 10 -11 26l-61 83q67 46 104 126.5t37 183.5q0 162 -89.5 263t-234.5 101
t-234 -101t-89 -263q0 -164 89 -265.5t234 -101.5zM897 419q-113 0 -183 84t-70 222q0 136 70 220t183 84q114 0 184 -84t70 -220q0 -177 -108 -258l-70 95q-10 14 -26 14q-12 0 -20 -7.5t-8 -19.5q0 -10 10 -24l64 -89q-38 -17 -96 -17z" />
    <glyph glyph-name="uni1000B7.small" unicode="R&#x20de;&#x25a0;" horiz-adv-x="1795" 
d="M416 23q-216 0 -216 215v964q0 106 55 161t161 55h963q106 0 161 -55t55 -161v-964q0 -105 -55 -160t-161 -55h-963zM698 365q17 0 26.5 10t9.5 27v251h181l154 -264q15 -24 37 -24q14 0 22.5 8.5t8.5 21.5q0 12 -10 29l-142 237q73 17 116.5 72t43.5 131q0 95 -63 153.5
t-165 58.5h-220q-33 0 -33 -39v-635q0 -17 9 -27t25 -10zM734 710v307h179q73 0 117.5 -42t44.5 -112t-44.5 -111.5t-118.5 -41.5h-178z" />
    <glyph glyph-name="uni1000B9.small" unicode="S&#x20de;&#x25a0;" horiz-adv-x="1795" 
d="M416 23q-216 0 -216 215v964q0 106 55 161t161 55h963q106 0 161 -55t55 -161v-964q0 -105 -55 -160t-161 -55h-963zM892 358q121 0 194.5 56.5t73.5 150.5q0 68 -46.5 110t-151.5 70l-107 29q-70 19 -100.5 46t-30.5 69q0 58 51 98.5t124 40.5q70 0 118 -32.5t62 -88.5
q9 -28 34 -28q33 0 33 33q0 11 -5 28q-17 67 -82 108t-157 41q-110 0 -179.5 -56t-69.5 -144q0 -68 41.5 -109.5t130.5 -64.5l111 -30q84 -22 118 -50t34 -77q0 -57 -55.5 -97.5t-133.5 -40.5q-75 0 -129 34.5t-67 91.5q-10 29 -34 29q-33 0 -33 -34q0 -15 5 -29
q17 -67 86 -110.5t165 -43.5z" />
    <glyph glyph-name="uni1000BB.small" unicode="T&#x20de;&#x25a0;" horiz-adv-x="1795" 
d="M416 23q-216 0 -216 215v964q0 106 55 161t161 55h963q106 0 161 -55t55 -161v-964q0 -105 -55 -160t-161 -55h-963zM893 364q36 0 36 38v612h218q13 0 22 8.5t9 21.5q0 31 -31 31h-500q-31 0 -31 -31q0 -13 9 -21.5t22 -8.5h212v-612q0 -17 9 -27.5t25 -10.5z" />
    <glyph glyph-name="uni1000BD.small" unicode="U&#x20de;&#x25a0;" horiz-adv-x="1795" 
d="M416 23q-216 0 -216 215v964q0 106 55 161t161 55h963q106 0 161 -55t55 -161v-964q0 -105 -55 -160t-161 -55h-963zM897 358q123 0 201 69.5t78 185.5v432q0 38 -35 38q-16 0 -25.5 -10t-9.5 -28v-428q0 -88 -59 -142.5t-150 -54.5t-150 54.5t-59 142.5v428q0 38 -35 38
q-16 0 -25.5 -10t-9.5 -28v-432q0 -116 78 -185.5t201 -69.5z" />
    <glyph glyph-name="uni1000BF.small" unicode="V&#x20de;&#x25a0;" horiz-adv-x="1795" 
d="M416 23q-216 0 -216 215v964q0 106 55 161t161 55h963q106 0 161 -55t55 -161v-964q0 -105 -55 -160t-161 -55h-963zM898 362q39 0 55 41l239 626q4 16 4 21q0 15 -10 23.5t-26 8.5q-26 0 -37 -30l-223 -605h-5l-224 605q-10 30 -37 30q-16 0 -25.5 -9t-9.5 -23
q0 -10 4 -21l239 -626q16 -41 56 -41z" />
    <glyph glyph-name="uni1000C1.small" unicode="W&#x20de;&#x25a0;" horiz-adv-x="1795" 
d="M416 23q-216 0 -216 215v964q0 106 55 161t161 55h963q106 0 161 -55t55 -161v-964q0 -105 -55 -160t-161 -55h-963zM694 362q41 0 50 39l151 570h5l150 -570q10 -39 50 -39t50 41l161 633q2 12 2 14q0 15 -9.5 23.5t-24.5 8.5q-28 0 -35 -33l-144 -587h-4l-158 585
q-7 32 -41 32q-32 0 -41 -32l-157 -585h-5l-143 587q-7 33 -35 33q-15 0 -24.5 -8.5t-9.5 -23.5q0 -2 2 -14l161 -633q9 -41 49 -41z" />
    <glyph glyph-name="uni1000C3.small" unicode="X&#x20de;&#x25a0;" horiz-adv-x="1795" 
d="M416 23q-216 0 -216 215v964q0 106 55 161t161 55h963q106 0 161 -55t55 -161v-964q0 -105 -55 -160t-161 -55h-963zM669 365q19 0 32 20l192 285h4l190 -285q13 -20 33 -20q15 0 24.5 9t9.5 23q0 12 -9 24l-207 303l210 305q8 11 8 23q0 13 -9.5 22t-23.5 9
q-19 0 -32 -20l-190 -285h-4l-189 285q-14 20 -34 20q-14 0 -23.5 -9.5t-9.5 -23.5q0 -12 9 -25l205 -300l-211 -307q-8 -13 -8 -23q0 -13 9.5 -21.5t23.5 -8.5z" />
    <glyph glyph-name="uni1000C5.small" unicode="Y&#x20de;&#x25a0;" horiz-adv-x="1795" 
d="M416 23q-216 0 -216 215v964q0 106 55 161t161 55h963q106 0 161 -55t55 -161v-964q0 -105 -55 -160t-161 -55h-963zM898 365q16 0 25.5 10t9.5 28v264l242 363q7 8 7 21q0 14 -9 23t-23 9q-19 0 -33 -21l-217 -324h-4l-217 324q-14 21 -33 21q-14 0 -23.5 -9t-9.5 -23
q0 -11 7 -21l243 -364v-263q0 -17 9.5 -27.5t25.5 -10.5z" />
    <glyph glyph-name="uni1000C7.small" unicode="Z&#x20de;&#x25a0;" horiz-adv-x="1795" 
d="M416 23q-216 0 -216 215v964q0 106 55 161t161 55h963q106 0 161 -55t55 -161v-964q0 -105 -55 -160t-161 -55h-963zM673 371h460q13 0 22 8.5t9 22.5q0 13 -8.5 21.5t-22.5 8.5h-412v5l409 563q15 19 15 37q0 17 -11.5 28t-29.5 11h-439q-13 0 -22 -9t-9 -22t8.5 -21.5
t22.5 -8.5h393v-5l-411 -563q-15 -21 -15 -38t11.5 -27.5t29.5 -10.5z" />
    <glyph glyph-name="uni10005C.small" unicode="&#x3f;&#x20dd;" 
d="M913 -51q-156 0 -299 61.5t-247 165.5t-165.5 247t-61.5 299q0 208 104 386.5t282 282.5t386 104q156 0 299 -61.5t247 -165.5t165.5 -247t61.5 -299q0 -208 -104 -386.5t-282 -282.5t-386 -104zM913 19q143 0 273 55.5t224 150t149.5 224.5t55.5 273t-55.5 273
t-149.5 224.5t-224.5 150t-273.5 55.5t-273 -55.5t-224 -150t-149.5 -224.5t-55.5 -273t55.5 -273t149.5 -224.5t224.5 -150t273.5 -55.5zM899 563q-16 0 -25.5 9.5t-9.5 25.5v25q0 48 22 82.5t72 68.5q57 40 80 70t23 69q0 52 -40 84.5t-107 32.5q-59 0 -98.5 -34
t-48.5 -86q-8 -17 -15.5 -24.5t-23.5 -7.5q-13 0 -22.5 9t-9.5 23q0 11 4 31q10 63 69 106.5t148 43.5q93 0 155 -48.5t62 -125.5q0 -57 -27.5 -96.5t-90.5 -82.5q-47 -31 -65.5 -57t-18.5 -62v-23q0 -14 -9 -23.5t-24 -9.5zM897 350q-25 0 -43 18t-18 42q0 25 18 42.5
t43 17.5t43 -17.5t18 -42.5t-18 -42.5t-43 -17.5z" />
    <glyph glyph-name="uni10005D.small" unicode="&#x3f;&#x20dd;&#x25cf;" 
d="M913 -51q-156 0 -299 61.5t-247 165.5t-165.5 247t-61.5 299q0 208 104 386.5t282 282.5t386 104q156 0 299 -61.5t247 -165.5t165.5 -247t61.5 -299q0 -208 -104 -386.5t-282 -282.5t-386 -104zM898 563q16 0 25.5 9.5t9.5 24.5v22q0 36 18.5 62.5t65.5 58.5
q64 43 91.5 83t27.5 97q0 79 -62 127.5t-157 48.5q-91 0 -150.5 -43.5t-69.5 -106.5q-4 -22 -4 -32q0 -15 9.5 -23.5t23.5 -8.5q16 0 24 7.5t16 23.5q10 53 49 87t99 34q67 0 107.5 -33t40.5 -85q0 -39 -23 -69t-81 -71q-50 -35 -72.5 -69.5t-22.5 -82.5v-25q0 -36 35 -36z
M897 347q25 0 43.5 18t18.5 43t-18 43t-44 18q-25 0 -43.5 -18t-18.5 -43t18.5 -43t43.5 -18z" />
    <glyph glyph-name="uni1000EC.small" unicode="&#x3f;&#x20de;" horiz-adv-x="1795" 
d="M416 23q-216 0 -216 215v964q0 106 55 161t161 55h963q106 0 161 -55t55 -161v-964q0 -105 -55 -160t-161 -55h-963zM418 91h959q72 0 111 38.5t39 112.5v957q0 74 -39 112.5t-111 38.5h-959q-74 0 -112 -38.5t-38 -112.5v-957q0 -151 150 -151zM884 565q-16 0 -25.5 9.5
t-9.5 25.5v25q0 48 22 82t71 69q58 41 81 70t23 68q0 52 -40 85t-107 33q-60 0 -99 -34t-48 -87q-8 -17 -15.5 -24t-23.5 -7q-13 0 -22.5 8.5t-9.5 22.5q0 19 4 32q10 62 69 105.5t148 43.5q93 0 155 -48.5t62 -125.5q0 -57 -27.5 -96.5t-90.5 -81.5q-47 -32 -65.5 -58
t-18.5 -62v-22q0 -14 -9 -23.5t-24 -9.5zM882 351q-25 0 -43 18t-18 42q0 25 18 42.5t43 17.5t43 -17.5t18 -42.5q0 -24 -18 -42t-43 -18z" />
    <glyph glyph-name="uni1000ED.small" unicode="&#x3f;&#x20de;&#x25a0;" horiz-adv-x="1795" 
d="M416 23q-216 0 -216 215v964q0 106 55 161t161 55h963q106 0 161 -55t55 -161v-964q0 -105 -55 -160t-161 -55h-963zM883 563q16 0 25.5 9.5t9.5 24.5v22q0 36 18.5 62.5t65.5 58.5q64 43 91.5 83t27.5 97q0 79 -62 127.5t-157 48.5q-91 0 -150.5 -43.5t-69.5 -106.5
q-4 -22 -4 -32q0 -15 9.5 -23.5t23.5 -8.5q25 0 40 31q10 53 49 87t99 34q67 0 107.5 -33t40.5 -85q0 -39 -23 -69t-82 -71q-50 -35 -72 -69.5t-22 -82.5v-25q0 -36 35 -36zM882 347q25 0 43.5 18t18.5 43t-18 43t-44 18q-25 0 -43.5 -18t-18.5 -43t18.5 -43t43.5 -18z" />
    <glyph glyph-name="uni10005E.small" unicode="&#x21;&#x20dd;" 
d="M913 -51q-156 0 -299 61.5t-247 165.5t-165.5 247t-61.5 299q0 208 104 386.5t282 282.5t386 104q156 0 299 -61.5t247 -165.5t165.5 -247t61.5 -299q0 -208 -104 -386.5t-282 -282.5t-386 -104zM913 19q143 0 273 55.5t224 150t149.5 224.5t55.5 273t-55.5 273
t-149.5 224.5t-224.5 150t-273.5 55.5t-273 -55.5t-224 -150t-149.5 -224.5t-55.5 -273t55.5 -273t149.5 -224.5t224.5 -150t273.5 -55.5zM912 581q-17 0 -26.5 10.5t-9.5 29.5l-7 424q0 19 12 31t31 12t31 -12t11 -31l-7 -424q0 -19 -9.5 -29.5t-25.5 -10.5zM912 350
q-25 0 -43 18t-18 42q0 25 18 42.5t43 17.5t43 -17.5t18 -42.5t-18 -42.5t-43 -17.5z" />
    <glyph glyph-name="uni10005F.small" unicode="&#x21;&#x20dd;&#x25cf;" 
d="M913 -51q-156 0 -299 61.5t-247 165.5t-165.5 247t-61.5 299q0 208 104 386.5t282 282.5t386 104q156 0 299 -61.5t247 -165.5t165.5 -247t61.5 -299q0 -208 -104 -386.5t-282 -282.5t-386 -104zM912 581q35 0 37 41l7 428q0 19 -12.5 31t-31.5 12q-20 0 -32 -12t-11 -31
l6 -428q2 -41 37 -41zM912 347q25 0 43.5 18t18.5 43q0 26 -18 43.5t-44 17.5q-25 0 -43.5 -18t-18.5 -43t18.5 -43t43.5 -18z" />
    <glyph glyph-name="uni1000EE.small" unicode="&#x21;&#x20de;" horiz-adv-x="1795" 
d="M416 23q-216 0 -216 215v964q0 106 55 161t161 55h963q106 0 161 -55t55 -161v-964q0 -105 -55 -160t-161 -55h-963zM418 91h959q72 0 111 38.5t39 112.5v957q0 74 -39 112.5t-111 38.5h-959q-74 0 -112 -38.5t-38 -112.5v-957q0 -151 150 -151zM897 582q-16 0 -26 11
t-10 30l-7 424q0 19 12 30.5t31 11.5t31 -11.5t11 -30.5l-7 -424q0 -19 -9.5 -30t-25.5 -11zM897 351q-25 0 -43 18t-18 42q0 25 18 42.5t43 17.5t43 -17.5t18 -42.5q0 -24 -18 -42t-43 -18z" />
    <glyph glyph-name="uni1000EF.small" unicode="&#x21;&#x20de;&#x25a0;" horiz-adv-x="1795" 
d="M416 23q-216 0 -216 215v964q0 106 55 161t161 55h963q106 0 161 -55t55 -161v-964q0 -105 -55 -160t-161 -55h-963zM897 581q35 0 37 41l7 428q0 19 -12.5 31t-31.5 12q-20 0 -32 -12t-11 -31l6 -428q2 -41 37 -41zM897 347q25 0 43.5 18t18.5 43q0 26 -18 43.5
t-44 17.5q-25 0 -43.5 -18t-18.5 -43t18.5 -43t43.5 -18z" />
    <glyph glyph-name="uni10004D.small" unicode="&#x2b;&#x20dd;&#x25cf;" 
d="M913 -51q-156 0 -299 61.5t-247 165.5t-165.5 247t-61.5 299q0 208 104 386.5t282 282.5t386 104q156 0 299 -61.5t247 -165.5t165.5 -247t61.5 -299q0 -208 -104 -386.5t-282 -282.5t-386 -104zM552 722q0 -15 10.5 -25t26.5 -10h287v-288q0 -15 10.5 -25.5t24.5 -10.5
q16 0 26.5 10t10.5 26v288h288q15 0 25.5 10t10.5 25q0 16 -10 26.5t-26 10.5h-288v287q0 16 -10 26.5t-27 10.5q-14 0 -24.5 -10.5t-10.5 -26.5v-287h-287q-16 0 -26.5 -10.5t-10.5 -26.5z" />
    <glyph glyph-name="uni1000DC.small" unicode="&#x2b;&#x20de;" horiz-adv-x="1795" 
d="M416 23q-216 0 -216 215v964q0 106 55 161t161 55h963q106 0 161 -55t55 -161v-964q0 -105 -55 -160t-161 -55h-963zM418 91h959q72 0 111 38.5t39 112.5v957q0 74 -39 112.5t-111 38.5h-959q-74 0 -112 -38.5t-38 -112.5v-957q0 -151 150 -151zM577 687
q-15 0 -25.5 10.5t-10.5 24.5q0 16 10 26t26 10h285v285q0 15 10 25.5t24 10.5q16 0 26.5 -10t10.5 -26v-285h285q16 0 26 -10t10 -26q0 -14 -10.5 -24.5t-25.5 -10.5h-285v-285q0 -16 -10.5 -26t-26.5 -10q-14 0 -24 10.5t-10 25.5v285h-285z" />
    <glyph glyph-name="uni1000DD.small" unicode="&#x2b;&#x20de;&#x25a0;" horiz-adv-x="1795" 
d="M416 23q-216 0 -216 215v964q0 106 55 161t161 55h963q106 0 161 -55t55 -161v-964q0 -105 -55 -160t-161 -55h-963zM537 722q0 -15 10.5 -25t26.5 -10h287v-288q0 -15 10.5 -25.5t24.5 -10.5q16 0 26.5 10t10.5 26v288h288q15 0 25.5 10t10.5 25q0 16 -10 26.5t-26 10.5
h-288v287q0 16 -10.5 26.5t-26.5 10.5q-14 0 -24.5 -10.5t-10.5 -26.5v-287h-287q-16 0 -26.5 -10.5t-10.5 -26.5z" />
    <glyph glyph-name="uni10004F.small" unicode="&#x2212;&#x20dd;&#x25cf;" 
d="M913 -51q-156 0 -299 61.5t-247 165.5t-165.5 247t-61.5 299q0 208 104 386.5t282 282.5t386 104q156 0 299 -61.5t247 -165.5t165.5 -247t61.5 -299q0 -208 -104 -386.5t-282 -282.5t-386 -104zM559 685h707q17 0 28 9.5t11 25.5t-11 26.5t-28 10.5h-707
q-17 0 -28 -10.5t-11 -26.5t11 -25.5t28 -9.5z" />
    <glyph glyph-name="uni1000DE.small" unicode="&#x2212;&#x20de;" horiz-adv-x="1795" 
d="M416 23q-216 0 -216 215v964q0 106 55 161t161 55h963q106 0 161 -55t55 -161v-964q0 -105 -55 -160t-161 -55h-963zM418 91h959q72 0 111 38.5t39 112.5v957q0 74 -39 112.5t-111 38.5h-959q-74 0 -112 -38.5t-38 -112.5v-957q0 -151 150 -151zM547 686q-17 0 -27.5 9.5
t-10.5 24.5q0 16 10.5 26t27.5 10h701q17 0 27.5 -10t10.5 -26q0 -15 -10.5 -24.5t-27.5 -9.5h-701z" />
    <glyph glyph-name="uni1000DF.small" unicode="&#x2212;&#x20de;&#x25a0;" horiz-adv-x="1795" 
d="M416 23q-216 0 -216 215v964q0 106 55 161t161 55h963q106 0 161 -55t55 -161v-964q0 -105 -55 -160t-161 -55h-963zM544 685h707q17 0 28 9.5t11 25.5t-11 26.5t-28 10.5h-707q-17 0 -28 -10.5t-11 -26.5t11 -25.5t28 -9.5z" />
    <glyph glyph-name="uni100051.small" unicode="&#xd7;&#x20dd;&#x25cf;" 
d="M913 -51q-156 0 -299 61.5t-247 165.5t-165.5 247t-61.5 299q0 208 104 386.5t282 282.5t386 104q156 0 299 -61.5t247 -165.5t165.5 -247t61.5 -299q0 -208 -104 -386.5t-282 -282.5t-386 -104zM630 403q16 0 28 12l254 255l255 -255q12 -12 27 -12q16 0 26.5 10.5
t10.5 25.5q0 13 -12 27l-255 255l256 256q11 11 11 27q0 15 -10.5 25t-25.5 10t-27 -12l-256 -255l-254 254q-12 12 -28 12q-15 0 -25.5 -10t-10.5 -25q0 -14 12 -26l255 -256l-255 -256q-12 -12 -12 -26q0 -15 10.5 -25.5t25.5 -10.5z" />
    <glyph glyph-name="uni1000E0.small" unicode="&#xd7;&#x20de;" horiz-adv-x="1795" 
d="M416 23q-216 0 -216 215v964q0 106 55 161t161 55h963q106 0 161 -55t55 -161v-964q0 -105 -55 -160t-161 -55h-963zM418 91h959q72 0 111 38.5t39 112.5v957q0 74 -39 112.5t-111 38.5h-959q-74 0 -112 -38.5t-38 -112.5v-957q0 -151 150 -151zM618 406
q-15 0 -25.5 10.5t-10.5 24.5q0 15 12 26l253 254l-253 254q-12 11 -12 26q0 14 10.5 24t25.5 10t27 -12l252 -252l253 252q13 13 27 13q15 0 25.5 -10t10.5 -25t-12 -26l-253 -254l253 -253q12 -12 12 -27q0 -14 -10.5 -24.5t-25.5 -10.5t-28 13l-252 252l-252 -252
q-12 -13 -27 -13z" />
    <glyph glyph-name="uni1000E1.small" unicode="&#xd7;&#x20de;&#x25a0;" horiz-adv-x="1795" 
d="M416 23q-216 0 -216 215v964q0 106 55 161t161 55h963q106 0 161 -55t55 -161v-964q0 -105 -55 -160t-161 -55h-963zM615 403q16 0 28 12l254 255l254 -255q13 -12 28 -12q16 0 26.5 10.5t10.5 25.5q0 13 -12 27l-255 255l256 256q11 11 11 27q0 15 -10.5 25t-25.5 10
t-27 -12l-256 -255l-254 254q-12 12 -28 12q-15 0 -25.5 -10t-10.5 -25q0 -14 12 -26l255 -256l-255 -256q-12 -12 -12 -26q0 -15 10.5 -25.5t25.5 -10.5z" />
    <glyph glyph-name="uni100052.small" unicode="&#xf7;&#x20dd;" 
d="M913 -51q-156 0 -299 61.5t-247 165.5t-165.5 247t-61.5 299q0 208 104 386.5t282 282.5t386 104q156 0 299 -61.5t247 -165.5t165.5 -247t61.5 -299q0 -208 -104 -386.5t-282 -282.5t-386 -104zM913 19q143 0 273 55.5t224 150t149.5 224.5t55.5 273t-55.5 273
t-149.5 224.5t-224.5 150t-273.5 55.5t-273 -55.5t-224 -150t-149.5 -224.5t-55.5 -273t55.5 -273t149.5 -224.5t224.5 -150t273.5 -55.5zM912 947q-25 0 -42.5 16t-17.5 40q0 26 17.5 43.5t42.5 17.5q26 0 43.5 -17t17.5 -43q0 -24 -17.5 -40.5t-43.5 -16.5zM571 685
q-17 0 -27.5 9t-10.5 25t10.5 25.5t27.5 9.5h682q17 0 27.5 -9.5t10.5 -25.5t-10.5 -25t-27.5 -9h-682zM912 375q-25 0 -42.5 16.5t-17.5 40.5q0 25 17.5 42.5t42.5 17.5q26 0 43.5 -17t17.5 -43q0 -24 -17.5 -40.5t-43.5 -16.5z" />
    <glyph glyph-name="uni100053.small" unicode="&#xf7;&#x20dd;&#x25cf;" 
d="M913 -51q-156 0 -299 61.5t-247 165.5t-165.5 247t-61.5 299q0 208 104 386.5t282 282.5t386 104q156 0 299 -61.5t247 -165.5t165.5 -247t61.5 -299q0 -208 -104 -386.5t-282 -282.5t-386 -104zM912 950q26 0 44 17t18 42q0 26 -17.5 43.5t-44.5 17.5q-26 0 -43.5 -18
t-17.5 -44q0 -25 17.5 -41.5t43.5 -16.5zM568 686h688q18 0 28.5 9.5t10.5 25.5q0 35 -39 35h-688q-18 0 -28.5 -9.5t-10.5 -25.5t10.5 -25.5t28.5 -9.5zM912 372q26 0 44 17t18 42q0 26 -17.5 43.5t-44.5 17.5q-26 0 -43.5 -18t-17.5 -44q0 -25 17.5 -41.5t43.5 -16.5z" />
    <glyph glyph-name="uni1000E2.small" unicode="&#xf7;&#x20de;" horiz-adv-x="1795" 
d="M416 23q-216 0 -216 215v964q0 106 55 161t161 55h963q106 0 161 -55t55 -161v-964q0 -105 -55 -160t-161 -55h-963zM418 91h959q72 0 111 38.5t39 112.5v957q0 74 -39 112.5t-111 38.5h-959q-74 0 -112 -38.5t-38 -112.5v-957q0 -151 150 -151zM897 948
q-25 0 -42.5 16.5t-17.5 40.5q0 25 17.5 43t42.5 18q26 0 43.5 -17t17.5 -43q0 -25 -17.5 -41.5t-43.5 -16.5zM556 686q-17 0 -27.5 9.5t-10.5 25.5t10.5 25.5t27.5 9.5h682q17 0 27.5 -9.5t10.5 -25.5t-10.5 -25.5t-27.5 -9.5h-682zM897 376q-25 0 -42.5 16.5t-17.5 40.5
q0 25 17.5 43t42.5 18q26 0 43.5 -17t17.5 -43q0 -25 -17.5 -41.5t-43.5 -16.5z" />
    <glyph glyph-name="uni1000E3.small" unicode="&#xf7;&#x20de;&#x25a0;" horiz-adv-x="1795" 
d="M416 23q-216 0 -216 215v964q0 106 55 161t161 55h963q106 0 161 -55t55 -161v-964q0 -105 -55 -160t-161 -55h-963zM897 950q26 0 44 17t18 42q0 26 -17.5 43.5t-44.5 17.5q-26 0 -43.5 -18t-17.5 -44q0 -25 17.5 -41.5t43.5 -16.5zM553 686h688q18 0 28.5 9.5
t10.5 25.5q0 35 -39 35h-688q-18 0 -28.5 -9.5t-10.5 -25.5t10.5 -25.5t28.5 -9.5zM897 372q26 0 44 17t18 42q0 26 -17.5 43.5t-44.5 17.5q-26 0 -43.5 -18t-17.5 -44q0 -25 17.5 -41.5t43.5 -16.5z" />
    <glyph glyph-name="uni100055.small" unicode="&#x3d;&#x20dd;&#x25cf;" 
d="M913 -51q-156 0 -299 61.5t-247 165.5t-165.5 247t-61.5 299q0 208 104 386.5t282 282.5t386 104q156 0 299 -61.5t247 -165.5t165.5 -247t61.5 -299q0 -208 -104 -386.5t-282 -282.5t-386 -104zM588 828h647q16 0 26.5 9t10.5 25t-10 25t-27 9h-647q-17 0 -27 -9
t-10 -25t10.5 -25t26.5 -9zM588 546h647q16 0 26.5 9t10.5 25t-10 25t-27 9h-647q-17 0 -27 -9t-10 -25t10.5 -25t26.5 -9z" />
    <glyph glyph-name="uni1000E4.small" unicode="&#x3d;&#x20de;" horiz-adv-x="1795" 
d="M416 23q-216 0 -216 215v964q0 106 55 161t161 55h963q106 0 161 -55t55 -161v-964q0 -105 -55 -160t-161 -55h-963zM418 91h959q72 0 111 38.5t39 112.5v957q0 74 -39 112.5t-111 38.5h-959q-74 0 -112 -38.5t-38 -112.5v-957q0 -151 150 -151zM576 828q-36 0 -36 32
q0 15 10 24t26 9h641q36 0 36 -33q0 -32 -36 -32h-641zM576 549q-36 0 -36 32q0 15 10 24t26 9h641q36 0 36 -33q0 -32 -36 -32h-641z" />
    <glyph glyph-name="uni1000E5.small" unicode="&#x3d;&#x20de;&#x25a0;" horiz-adv-x="1795" 
d="M416 23q-216 0 -216 215v964q0 106 55 161t161 55h963q106 0 161 -55t55 -161v-964q0 -105 -55 -160t-161 -55h-963zM573 828h647q16 0 26.5 9t10.5 25t-10 25t-27 9h-647q-17 0 -27 -9t-10 -25t10.5 -25t26.5 -9zM573 546h647q16 0 26.5 9t10.5 25t-10 25t-27 9h-647
q-17 0 -27 -9t-10 -25t10.5 -25t26.5 -9z" />
    <glyph glyph-name="uni100058.small" unicode="&#x3c;&#x20dd;" 
d="M913 -51q-156 0 -299 61.5t-247 165.5t-165.5 247t-61.5 299q0 208 104 386.5t282 282.5t386 104q156 0 299 -61.5t247 -165.5t165.5 -247t61.5 -299q0 -208 -104 -386.5t-282 -282.5t-386 -104zM913 19q143 0 273 55.5t224 150t149.5 224.5t55.5 273t-55.5 273
t-149.5 224.5t-224.5 150t-273.5 55.5t-273 -55.5t-224 -150t-149.5 -224.5t-55.5 -273t55.5 -273t149.5 -224.5t224.5 -150t273.5 -55.5zM1104 433q-11 0 -23 6l-444 242q-25 13 -25 39q0 24 25 39l444 244q14 7 23 7q16 0 25.5 -9.5t9.5 -24.5q0 -23 -25 -37l-409 -216v-4
l409 -216q25 -13 25 -36q0 -15 -10 -24.5t-25 -9.5z" />
    <glyph glyph-name="uni100059.small" unicode="&#x3c;&#x20dd;&#x25cf;" 
d="M913 -51q-156 0 -299 61.5t-247 165.5t-165.5 247t-61.5 299q0 208 104 386.5t282 282.5t386 104q156 0 299 -61.5t247 -165.5t165.5 -247t61.5 -299q0 -208 -104 -386.5t-282 -282.5t-386 -104zM1106 431q16 0 26.5 9.5t10.5 25.5q0 24 -26 37l-414 217v4l414 219
q26 13 26 37q0 15 -10 25t-26 10q-8 0 -24 -7l-449 -247q-26 -15 -26 -40q0 -26 26 -40l449 -244q12 -6 23 -6z" />
    <glyph glyph-name="uni1000E6.small" unicode="&#x3c;&#x20de;" horiz-adv-x="1795" 
d="M416 23q-216 0 -216 215v964q0 106 55 161t161 55h963q106 0 161 -55t55 -161v-964q0 -105 -55 -160t-161 -55h-963zM418 91h959q72 0 111 38.5t39 112.5v957q0 74 -39 112.5t-111 38.5h-959q-74 0 -112 -38.5t-38 -112.5v-957q0 -151 150 -151zM1089 434q-9 0 -23 7
l-444 241q-25 14 -25 39q0 26 25 39l444 245q12 6 23 6q16 0 25.5 -9.5t9.5 -24.5q0 -23 -25 -36l-409 -217v-4l409 -215q25 -13 25 -36q0 -16 -10 -25.5t-25 -9.5z" />
    <glyph glyph-name="uni1000E7.small" unicode="&#x3c;&#x20de;&#x25a0;" horiz-adv-x="1795" 
d="M416 23q-216 0 -216 215v964q0 106 55 161t161 55h963q106 0 161 -55t55 -161v-964q0 -105 -55 -160t-161 -55h-963zM1091 431q16 0 26.5 9.5t10.5 25.5q0 24 -26 37l-414 217v4l414 219q26 13 26 37q0 15 -10 25t-26 10q-8 0 -24 -7l-449 -247q-26 -15 -26 -40
q0 -26 26 -40l449 -244q12 -6 23 -6z" />
    <glyph glyph-name="uni100056.small" unicode="&#x3e;&#x20dd;" 
d="M913 -51q-156 0 -299 61.5t-247 165.5t-165.5 247t-61.5 299q0 208 104 386.5t282 282.5t386 104q156 0 299 -61.5t247 -165.5t165.5 -247t61.5 -299q0 -208 -104 -386.5t-282 -282.5t-386 -104zM913 19q143 0 273 55.5t224 150t149.5 224.5t55.5 273t-55.5 273
t-149.5 224.5t-224.5 150t-273.5 55.5t-273 -55.5t-224 -150t-149.5 -224.5t-55.5 -273t55.5 -273t149.5 -224.5t224.5 -150t273.5 -55.5zM721 433q-16 0 -26 9.5t-10 24.5q0 23 26 36l409 216v4l-409 216q-26 14 -26 37q0 15 10 24.5t26 9.5q8 0 22 -7l445 -244
q25 -15 25 -39q0 -26 -25 -39l-445 -242q-11 -6 -22 -6z" />
    <glyph glyph-name="uni100057.small" unicode="&#x3e;&#x20dd;&#x25cf;" 
d="M913 -51q-156 0 -299 61.5t-247 165.5t-165.5 247t-61.5 299q0 208 104 386.5t282 282.5t386 104q156 0 299 -61.5t247 -165.5t165.5 -247t61.5 -299q0 -208 -104 -386.5t-282 -282.5t-386 -104zM719 431q11 0 23 6l449 244q26 14 26 40q0 25 -26 40l-449 247
q-14 7 -23 7q-16 0 -26.5 -10t-10.5 -25q0 -24 27 -37l413 -219v-4l-413 -217q-27 -13 -27 -37q0 -16 10.5 -25.5t26.5 -9.5z" />
    <glyph glyph-name="uni1000E8.small" unicode="&#x3e;&#x20de;" horiz-adv-x="1795" 
d="M416 23q-216 0 -216 215v964q0 106 55 161t161 55h963q106 0 161 -55t55 -161v-964q0 -105 -55 -160t-161 -55h-963zM418 91h959q72 0 111 38.5t39 112.5v957q0 74 -39 112.5t-111 38.5h-959q-74 0 -112 -38.5t-38 -112.5v-957q0 -151 150 -151zM706 434q-16 0 -26 9.5
t-10 25.5q0 23 26 36l409 215v4l-409 217q-26 13 -26 36q0 15 10 24.5t26 9.5q10 0 22 -6l445 -245q25 -13 25 -39q0 -24 -25 -39l-445 -241q-12 -7 -22 -7z" />
    <glyph glyph-name="uni1000E9.small" unicode="&#x3e;&#x20de;&#x25a0;" horiz-adv-x="1795" 
d="M416 23q-216 0 -216 215v964q0 106 55 161t161 55h963q106 0 161 -55t55 -161v-964q0 -105 -55 -160t-161 -55h-963zM704 431q11 0 23 6l449 244q26 14 26 40q0 25 -26 40l-449 247q-14 7 -23 7q-16 0 -26.5 -10t-10.5 -25q0 -24 26 -37l414 -219v-4l-414 -217
q-26 -13 -26 -37q0 -16 10.5 -25.5t26.5 -9.5z" />
    <glyph glyph-name="uni10005A.small" unicode="&#x23;&#x20dd;" 
d="M913 -51q-156 0 -299 61.5t-247 165.5t-165.5 247t-61.5 299q0 208 104 386.5t282 282.5t386 104q156 0 299 -61.5t247 -165.5t165.5 -247t61.5 -299q0 -208 -104 -386.5t-282 -282.5t-386 -104zM913 19q143 0 273 55.5t224 150t149.5 224.5t55.5 273t-55.5 273
t-149.5 224.5t-224.5 150t-273.5 55.5t-273 -55.5t-224 -150t-149.5 -224.5t-55.5 -273t55.5 -273t149.5 -224.5t224.5 -150t273.5 -55.5zM726 364q-14 0 -23.5 10.5t-6.5 24.5l37 178h-94q-12 0 -19.5 7.5t-7.5 19.5q0 14 8.5 22t22.5 8h104l37 183h-90q-12 0 -19.5 7.5
t-7.5 19.5q0 14 8.5 22.5t22.5 8.5h99l37 177q6 27 34 27q15 0 24 -10.5t5 -24.5l-36 -169h168l38 177q6 27 33 27q15 0 24 -10t6 -25l-36 -169h91q12 0 19.5 -7.5t7.5 -19.5q0 -14 -9 -22.5t-22 -8.5h-99l-38 -183h85q13 0 20.5 -7.5t7.5 -19.5q0 -13 -8.5 -21.5
t-22.5 -8.5h-95l-39 -186q-6 -27 -34 -27q-15 0 -24 10.5t-5 24.5l37 177h-168l-39 -185q-6 -27 -33 -27zM809 631h171l39 188h-171z" />
    <glyph glyph-name="uni10005B.small" unicode="&#x23;&#x20dd;&#x25cf;" 
d="M913 -51q-156 0 -299 61.5t-247 165.5t-165.5 247t-61.5 299q0 208 104 386.5t282 282.5t386 104q156 0 299 -61.5t247 -165.5t165.5 -247t61.5 -299q0 -208 -104 -386.5t-282 -282.5t-386 -104zM724 362q28 0 34 27l39 187h169l-37 -178q-4 -15 5.5 -25.5t24.5 -10.5
q29 0 35 27l38 187h96q14 0 23 8.5t9 22.5q0 28 -28 28h-87l39 184h100q14 0 22.5 9t8.5 23q0 12 -7.5 19.5t-19.5 7.5h-91l36 171q3 15 -6.5 25.5t-24.5 10.5q-28 0 -34 -28l-38 -179h-169l36 171q4 15 -5.5 25.5t-24.5 10.5q-28 0 -34 -28l-38 -179h-99q-14 0 -23 -8.5
t-9 -22.5q0 -12 7.5 -20t20.5 -8h91l-38 -184h-105q-14 0 -23 -8.5t-9 -22.5q0 -28 28 -28h95l-37 -178q-3 -15 6 -25.5t24 -10.5zM808 632l39 190h173l-39 -190h-173z" />
    <glyph glyph-name="uni1000EA.small" unicode="&#x23;&#x20de;" horiz-adv-x="1795" 
d="M416 23q-216 0 -216 215v964q0 106 55 161t161 55h963q106 0 161 -55t55 -161v-964q0 -105 -55 -160t-161 -55h-963zM418 91h959q72 0 111 38.5t39 112.5v957q0 74 -39 112.5t-111 38.5h-959q-74 0 -112 -38.5t-38 -112.5v-957q0 -151 150 -151zM711 366q-15 0 -24 10
t-6 25l37 177h-94q-12 0 -19.5 7.5t-7.5 19.5q0 14 8.5 22.5t22.5 8.5h104l37 182h-90q-12 0 -19.5 8t-7.5 20q0 13 9 21.5t22 8.5h99l37 177q6 28 34 28q15 0 24 -10.5t5 -25.5l-36 -169h168l38 177q6 28 33 28q15 0 24 -10.5t6 -25.5l-36 -169h91q12 0 19.5 -7.5
t7.5 -19.5q0 -13 -8.5 -22t-22.5 -9h-99l-38 -182h85q13 0 20.5 -7.5t7.5 -19.5q0 -13 -9 -22t-22 -9h-95l-39 -185q-6 -27 -34 -27q-15 0 -24 10t-5 25l37 177h-168l-39 -185q-6 -27 -33 -27zM794 633h171l39 188h-171z" />
    <glyph glyph-name="uni1000EB.small" unicode="&#x23;&#x20de;&#x25a0;" horiz-adv-x="1795" 
d="M416 23q-216 0 -216 215v964q0 106 55 161t161 55h963q106 0 161 -55t55 -161v-964q0 -105 -55 -160t-161 -55h-963zM709 362q28 0 34 27l39 187h169l-37 -178q-4 -15 5.5 -25.5t24.5 -10.5q29 0 35 27l38 187h96q14 0 23 8.5t9 22.5q0 28 -28 28h-87l39 184h100
q14 0 22.5 9t8.5 23q0 12 -7.5 19.5t-19.5 7.5h-91l36 171q3 15 -6.5 25.5t-24.5 10.5q-28 0 -34 -28l-38 -179h-169l36 171q4 15 -5.5 25.5t-24.5 10.5q-28 0 -34 -28l-38 -179h-99q-14 0 -23 -8.5t-9 -22.5q0 -12 7.5 -20t20.5 -8h91l-38 -184h-105q-14 0 -23 -8.5
t-9 -22.5q0 -28 28 -28h95l-37 -178q-3 -15 6 -25.5t24 -10.5zM793 632l39 190h173l-39 -190h-173z" />
    <glyph glyph-name="uni100060.small" unicode="&#x2717;&#x20dd;" 
d="M913 -51q-156 0 -299 61.5t-247 165.5t-165.5 247t-61.5 299q0 208 104 386.5t282 282.5t386 104q156 0 299 -61.5t247 -165.5t165.5 -247t61.5 -299q0 -208 -104 -386.5t-282 -282.5t-386 -104zM913 19q143 0 273 55.5t224 150t149.5 224.5t55.5 273t-55.5 273
t-149.5 224.5t-224.5 150t-273.5 55.5t-273 -55.5t-224 -150t-149.5 -224.5t-55.5 -273t55.5 -273t149.5 -224.5t224.5 -150t273.5 -55.5zM633 405q-15 0 -25.5 10t-10.5 25q0 14 12 26l253 254l-253 253q-12 12 -12 26q0 15 10.5 25t25.5 10q13 0 27 -12l252 -253l253 253
q12 12 27 12t25.5 -10t10.5 -24q0 -15 -12 -27l-253 -253l253 -254q12 -12 12 -26q0 -15 -10.5 -25t-25.5 -10q-14 0 -28 12l-252 252l-252 -252q-11 -12 -27 -12z" />
    <glyph glyph-name="uni100061.small" unicode="&#x2717;&#x20dd;&#x25cf;" 
d="M913 -51q-156 0 -299 61.5t-247 165.5t-165.5 247t-61.5 299q0 208 104 386.5t282 282.5t386 104q156 0 299 -61.5t247 -165.5t165.5 -247t61.5 -299q0 -208 -104 -386.5t-282 -282.5t-386 -104zM630 403q16 0 28 12l254 255l255 -255q12 -12 27 -12q16 0 26.5 10.5
t10.5 25.5q0 13 -12 27l-255 255l256 256q11 11 11 27q0 15 -10.5 25t-25.5 10t-27 -12l-256 -255l-254 254q-12 12 -28 12q-15 0 -25.5 -10t-10.5 -25q0 -14 12 -26l255 -256l-255 -256q-12 -12 -12 -26q0 -15 10.5 -25.5t25.5 -10.5z" />
    <glyph glyph-name="uni1000F1.small" unicode="&#x2717;&#x20de;&#x25a0;" horiz-adv-x="1795" 
d="M416 23q-216 0 -216 215v964q0 106 55 161t161 55h963q106 0 161 -55t55 -161v-964q0 -105 -55 -160t-161 -55h-963zM615 403q16 0 28 12l254 255l254 -255q13 -12 28 -12q16 0 26.5 10.5t10.5 25.5q0 13 -12 27l-255 255l256 256q11 11 11 27q0 15 -10.5 25t-25.5 10
t-27 -12l-256 -255l-254 254q-12 12 -28 12q-15 0 -25.5 -10t-10.5 -25q0 -14 12 -26l255 -256l-255 -256q-12 -12 -12 -26q0 -15 10.5 -25.5t25.5 -10.5z" />
    <glyph glyph-name="uni100062.small" unicode="&#x2713;&#x20dd;" 
d="M913 -51q-156 0 -299 61.5t-247 165.5t-165.5 247t-61.5 299q0 208 104 386.5t282 282.5t386 104q156 0 299 -61.5t247 -165.5t165.5 -247t61.5 -299q0 -208 -104 -386.5t-282 -282.5t-386 -104zM913 19q143 0 273 55.5t224 150t149.5 224.5t55.5 273t-55.5 273
t-149.5 224.5t-224.5 150t-273.5 55.5t-273 -55.5t-224 -150t-149.5 -224.5t-55.5 -273t55.5 -273t149.5 -224.5t224.5 -150t273.5 -55.5zM829 349q-21 0 -36 18l-227 267q-11 16 -11 28q0 14 10 23.5t23 9.5q19 0 32 -16l207 -245l383 598q13 19 30 19q13 0 23.5 -9.5
t10.5 -22.5q0 -12 -9 -26l-403 -626q-14 -18 -33 -18z" />
    <glyph glyph-name="uni100063.small" unicode="&#x2713;&#x20dd;&#x25cf;" 
d="M913 -51q-156 0 -299 61.5t-247 165.5t-165.5 247t-61.5 299q0 208 104 386.5t282 282.5t386 104q156 0 299 -61.5t247 -165.5t165.5 -247t61.5 -299q0 -208 -104 -386.5t-282 -282.5t-386 -104zM828 346q20 0 34 20l407 631q9 18 9 26q0 14 -10.5 23.5t-24.5 9.5
q-18 0 -31 -19l-386 -604l-209 248q-12 16 -31 16q-14 0 -24 -9.5t-10 -24.5t11 -29l229 -268q16 -20 36 -20z" />
    <glyph glyph-name="uni1000F3.small" unicode="&#x2713;&#x20de;&#x25a0;" horiz-adv-x="1795" 
d="M416 23q-216 0 -216 215v964q0 106 55 161t161 55h963q106 0 161 -55t55 -161v-964q0 -105 -55 -160t-161 -55h-963zM813 346q20 0 34 20l407 631q9 18 9 26q0 14 -10.5 23.5t-24.5 9.5q-18 0 -31 -19l-386 -604l-209 248q-12 16 -31 16q-14 0 -24 -9.5t-10 -24.5t11 -29
l229 -268q16 -20 36 -20z" />
    <glyph glyph-name="uni10006A.small" unicode="&#x25c0;&#x20dd;" 
d="M913 -51q-156 0 -299 61.5t-247 165.5t-165.5 247t-61.5 299q0 208 104 386.5t282 282.5t386 104q156 0 299 -61.5t247 -165.5t165.5 -247t61.5 -299q0 -208 -104 -386.5t-282 -282.5t-386 -104zM913 19q143 0 273 55.5t224 150t149.5 224.5t55.5 273t-55.5 273
t-149.5 224.5t-224.5 150t-273.5 55.5t-273 -55.5t-224 -150t-149.5 -224.5t-55.5 -273t55.5 -273t149.5 -224.5t224.5 -150t273.5 -55.5zM606 684q-21 13 -21 35.5t21 35.5l449 272q21 13 41.5 4t20.5 -31v-559q0 -23 -20 -31.5t-42 4.5z" />
    <glyph glyph-name="uni10006B.small" unicode="&#x25c0;&#x20dd;&#x25cf;" 
d="M913 -51q-156 0 -299 61.5t-247 165.5t-165.5 247t-61.5 299q0 208 104 386.5t282 282.5t386 104q156 0 299 -61.5t247 -165.5t165.5 -247t61.5 -299q0 -208 -104 -386.5t-282 -282.5t-386 -104zM604 685l453 -273q22 -13 42.5 -4t20.5 32v564q0 22 -21 31.5t-42 -3.5
l-453 -275q-22 -13 -22 -36t22 -36z" />
    <glyph glyph-name="uni1000FA.small" unicode="&#x25c0;&#x20de;" horiz-adv-x="1795" 
d="M416 23q-216 0 -216 215v964q0 106 55 161t161 55h963q106 0 161 -55t55 -161v-964q0 -105 -55 -160t-161 -55h-963zM418 91h959q72 0 111 38.5t39 112.5v957q0 74 -39 112.5t-111 38.5h-959q-74 0 -112 -38.5t-38 -112.5v-957q0 -151 150 -151zM591 685q-21 13 -21 36
t21 35l449 272q21 13 41.5 4t20.5 -31v-559q0 -22 -20 -31t-42 4z" />
    <glyph glyph-name="uni1000FB.small" unicode="&#x25c0;&#x20de;&#x25a0;" horiz-adv-x="1795" 
d="M416 23q-216 0 -216 215v964q0 106 55 161t161 55h963q106 0 161 -55t55 -161v-964q0 -105 -55 -160t-161 -55h-963zM589 685l453 -273q22 -13 42.5 -4t20.5 32v564q0 22 -21 31.5t-42 -3.5l-453 -275q-22 -13 -22 -36t22 -36z" />
    <glyph glyph-name="uni10006C.small" unicode="&#x25b6;&#x20dd;" 
d="M913 -51q-156 0 -299 61.5t-247 165.5t-165.5 247t-61.5 299q0 208 104 386.5t282 282.5t386 104q156 0 299 -61.5t247 -165.5t165.5 -247t61.5 -299q0 -208 -104 -386.5t-282 -282.5t-386 -104zM913 19q143 0 273 55.5t224 150t149.5 224.5t55.5 273t-55.5 273
t-149.5 224.5t-224.5 150t-273.5 55.5t-273 -55.5t-224 -150t-149.5 -224.5t-55.5 -273t55.5 -273t149.5 -224.5t224.5 -150t273.5 -55.5zM1210 684l-448 -270q-22 -13 -42.5 -4.5t-20.5 31.5v559q0 22 21 31t42 -4l448 -272q21 -13 21.5 -35.5t-21.5 -35.5z" />
    <glyph glyph-name="uni10006D.small" unicode="&#x25b6;&#x20dd;&#x25cf;" 
d="M913 -51q-156 0 -299 61.5t-247 165.5t-165.5 247t-61.5 299q0 208 104 386.5t282 282.5t386 104q156 0 299 -61.5t247 -165.5t165.5 -247t61.5 -299q0 -208 -104 -386.5t-282 -282.5t-386 -104zM1214 684q21 13 21 36t-21 36l-453 275q-21 13 -42.5 4t-21.5 -32v-564
q0 -22 21 -31.5t43 3.5z" />
    <glyph glyph-name="uni1000FC.small" unicode="&#x25b6;&#x20de;" horiz-adv-x="1795" 
d="M416 23q-216 0 -216 215v964q0 106 55 161t161 55h963q106 0 161 -55t55 -161v-964q0 -105 -55 -160t-161 -55h-963zM418 91h959q72 0 111 38.5t39 112.5v957q0 74 -39 112.5t-111 38.5h-959q-74 0 -112 -38.5t-38 -112.5v-957q0 -151 150 -151zM1195 685l-448 -270
q-22 -13 -42.5 -4t-20.5 31v559q0 22 21 31t42 -4l448 -272q21 -13 21.5 -35.5t-21.5 -35.5z" />
    <glyph glyph-name="uni1000FD.small" unicode="&#x25b6;&#x20de;&#x25a0;" horiz-adv-x="1795" 
d="M416 23q-216 0 -216 215v964q0 106 55 161t161 55h963q106 0 161 -55t55 -161v-964q0 -105 -55 -160t-161 -55h-963zM1199 684q21 13 21 36t-21 36l-453 275q-21 13 -42.5 4t-21.5 -32v-564q0 -22 21 -31.5t43 3.5z" />
    <glyph glyph-name="uni100066.small" unicode="&#x25b2;&#x20dd;" 
d="M913 -51q-156 0 -299 61.5t-247 165.5t-165.5 247t-61.5 299q0 208 104 386.5t282 282.5t386 104q156 0 299 -61.5t247 -165.5t165.5 -247t61.5 -299q0 -208 -104 -386.5t-282 -282.5t-386 -104zM913 19q143 0 273 55.5t224 150t149.5 224.5t55.5 273t-55.5 273
t-149.5 224.5t-224.5 150t-273.5 55.5t-273 -55.5t-224 -150t-149.5 -224.5t-55.5 -273t55.5 -273t149.5 -224.5t224.5 -150t273.5 -55.5zM1192 488h-559q-22 0 -31 21t4 42l272 449q13 21 35.5 21t35.5 -21l270 -449q13 -22 4 -42.5t-31 -20.5z" />
    <glyph glyph-name="uni100067.small" unicode="&#x25b2;&#x20dd;&#x25cf;" 
d="M913 -51q-156 0 -299 61.5t-247 165.5t-165.5 247t-61.5 299q0 208 104 386.5t282 282.5t386 104q156 0 299 -61.5t247 -165.5t165.5 -247t61.5 -299q0 -208 -104 -386.5t-282 -282.5t-386 -104zM1195 487q22 0 31 20.5t-4 42.5l-272 454q-14 22 -36.5 21.5t-36.5 -21.5
l-274 -454q-13 -21 -4 -42t31 -21h565z" />
    <glyph glyph-name="uni1000F6.small" unicode="&#x25b2;&#x20de;" horiz-adv-x="1795" 
d="M416 23q-216 0 -216 215v964q0 106 55 161t161 55h963q106 0 161 -55t55 -161v-964q0 -105 -55 -160t-161 -55h-963zM418 91h959q72 0 111 38.5t39 112.5v957q0 74 -39 112.5t-111 38.5h-959q-74 0 -112 -38.5t-38 -112.5v-957q0 -151 150 -151zM1177 490h-559
q-22 0 -31 21t4 41l272 449q13 21 35.5 21.5t35.5 -21.5l270 -449q13 -22 4 -42t-31 -20z" />
    <glyph glyph-name="uni1000F7.small" unicode="&#x25b2;&#x20de;&#x25a0;" horiz-adv-x="1795" 
d="M416 23q-216 0 -216 215v964q0 106 55 161t161 55h963q106 0 161 -55t55 -161v-964q0 -105 -55 -160t-161 -55h-963zM1180 487q22 0 31 20.5t-4 42.5l-272 454q-14 22 -36.5 21.5t-36.5 -21.5l-274 -454q-13 -21 -4 -42t31 -21h565z" />
    <glyph glyph-name="uni100068.small" unicode="&#x25bc;&#x20dd;" 
d="M913 -51q-156 0 -299 61.5t-247 165.5t-165.5 247t-61.5 299q0 208 104 386.5t282 282.5t386 104q156 0 299 -61.5t247 -165.5t165.5 -247t61.5 -299q0 -208 -104 -386.5t-282 -282.5t-386 -104zM913 19q143 0 273 55.5t224 150t149.5 224.5t55.5 273t-55.5 273
t-149.5 224.5t-224.5 150t-273.5 55.5t-273 -55.5t-224 -150t-149.5 -224.5t-55.5 -273t55.5 -273t149.5 -224.5t224.5 -150t273.5 -55.5zM1192 941q22 0 31 -20t-4 -42l-270 -449q-13 -22 -35.5 -21.5t-35.5 21.5l-272 449q-13 20 -4 41t31 21h559z" />
    <glyph glyph-name="uni100069.small" unicode="&#x25bc;&#x20dd;&#x25cf;" 
d="M913 -51q-156 0 -299 61.5t-247 165.5t-165.5 247t-61.5 299q0 208 104 386.5t282 282.5t386 104q156 0 299 -61.5t247 -165.5t165.5 -247t61.5 -299q0 -208 -104 -386.5t-282 -282.5t-386 -104zM1195 946h-565q-22 0 -31 -21.5t3 -42.5l275 -453q13 -21 36 -21.5
t36 21.5l273 453q13 22 4 43t-31 21z" />
    <glyph glyph-name="uni1000F8.small" unicode="&#x25bc;&#x20de;" horiz-adv-x="1795" 
d="M416 23q-216 0 -216 215v964q0 106 55 161t161 55h963q106 0 161 -55t55 -161v-964q0 -105 -55 -160t-161 -55h-963zM418 91h959q72 0 111 38.5t39 112.5v957q0 74 -39 112.5t-111 38.5h-959q-74 0 -112 -38.5t-38 -112.5v-957q0 -151 150 -151zM1177 943q22 0 31 -20.5
t-4 -42.5l-270 -449q-13 -21 -35.5 -21t-35.5 21l-272 449q-13 21 -4 42t31 21h559z" />
    <glyph glyph-name="uni1000F9.small" unicode="&#x25bc;&#x20de;&#x25a0;" horiz-adv-x="1795" 
d="M416 23q-216 0 -216 215v964q0 106 55 161t161 55h963q106 0 161 -55t55 -161v-964q0 -105 -55 -160t-161 -55h-963zM1180 946h-565q-22 0 -31 -21.5t3 -42.5l275 -453q13 -21 36 -21.5t36 21.5l273 453q13 22 4 43t-31 21z" />
    <glyph glyph-name="uni1000C8.small" unicode="&#x30;&#x20de;" horiz-adv-x="1795" 
d="M416 23q-216 0 -216 215v964q0 106 55 161t161 55h963q106 0 161 -55t55 -161v-964q0 -105 -55 -160t-161 -55h-963zM418 91h959q72 0 111 38.5t39 112.5v957q0 74 -39 112.5t-111 38.5h-959q-74 0 -112 -38.5t-38 -112.5v-957q0 -151 150 -151zM897 361
q-113 0 -182.5 100t-69.5 261t69.5 261t182.5 100t183 -100t70 -261t-70 -261t-183 -100zM897 421q83 0 134.5 83.5t51.5 217.5t-51.5 217.5t-134.5 83.5t-134 -83.5t-51 -217.5t51 -217.5t134 -83.5z" />
    <glyph glyph-name="uni1000C9.small" unicode="&#x30;&#x20de;&#x25a0;" horiz-adv-x="1795" 
d="M416 23q-216 0 -216 215v964q0 106 55 161t161 55h963q106 0 161 -55t55 -161v-964q0 -105 -55 -160t-161 -55h-963zM897 357q114 0 185 101t71 264t-71 264t-185 101t-184.5 -101t-70.5 -264t70.5 -264t184.5 -101zM897 418q-83 0 -135 84t-52 220t52 220t135 84
t135 -84t52 -220t-52 -220t-135 -84z" />
    <glyph glyph-name="uni1000CA.small" unicode="&#x31;&#x20de;" horiz-adv-x="1795" 
d="M416 23q-216 0 -216 215v964q0 106 55 161t161 55h963q106 0 161 -55t55 -161v-964q0 -105 -55 -160t-161 -55h-963zM418 91h959q72 0 111 38.5t39 112.5v957q0 74 -39 112.5t-111 38.5h-959q-74 0 -112 -38.5t-38 -112.5v-957q0 -151 150 -151zM931 370
q-15 0 -24.5 10.5t-9.5 26.5v590h-4l-141 -91q-11 -7 -19 -7q-12 0 -20 8.5t-8 20.5q0 17 15 27l160 105q28 18 48 18q17 0 27.5 -10.5t10.5 -28.5v-632q0 -17 -9.5 -27t-25.5 -10z" />
    <glyph glyph-name="uni1000CB.small" unicode="&#x31;&#x20de;&#x25a0;" horiz-adv-x="1795" 
d="M416 23q-216 0 -216 215v964q0 106 55 161t161 55h963q106 0 161 -55t55 -161v-964q0 -105 -55 -160t-161 -55h-963zM932 366q16 0 25.5 10.5t9.5 27.5v638q0 39 -39 39q-23 0 -49 -18l-161 -106q-15 -10 -15 -27q0 -12 8 -20.5t20 -8.5q9 0 19 6l143 92h4v-595
q0 -17 9.5 -27.5t25.5 -10.5z" />
    <glyph glyph-name="uni1000CC.small" unicode="&#x32;&#x20de;" horiz-adv-x="1795" 
d="M416 23q-216 0 -216 215v964q0 106 55 161t161 55h963q106 0 161 -55t55 -161v-964q0 -105 -55 -160t-161 -55h-963zM418 91h959q72 0 111 38.5t39 112.5v957q0 74 -39 112.5t-111 38.5h-959q-74 0 -112 -38.5t-38 -112.5v-957q0 -151 150 -151zM724 374q-34 0 -34 32
q0 14 12 28l266 293q88 94 88 166q0 59 -40.5 95t-108.5 36q-65 0 -108.5 -36.5t-52.5 -90.5q-8 -27 -33 -27q-13 0 -21.5 8.5t-8.5 22.5q0 11 3 25q12 68 75 112.5t145 44.5q97 0 156 -51t59 -136q0 -53 -26.5 -100.5t-87.5 -115.5l-220 -242v-4h335q14 0 22.5 -8.5
t8.5 -21.5t-8.5 -21.5t-22.5 -8.5h-398z" />
    <glyph glyph-name="uni1000CD.small" unicode="&#x32;&#x20de;&#x25a0;" horiz-adv-x="1795" 
d="M416 23q-216 0 -216 215v964q0 106 55 161t161 55h963q106 0 161 -55t55 -161v-964q0 -105 -55 -160t-161 -55h-963zM722 370h403q13 0 22 9t9 22q0 14 -8.5 22t-22.5 8h-339v5l223 244q61 68 87.5 116t26.5 101q0 86 -59.5 138t-157.5 52q-83 0 -146.5 -45t-76.5 -114
q-3 -14 -3 -25q0 -14 9 -23t23 -9q25 0 33 27q9 55 52.5 91.5t109.5 36.5q69 0 109.5 -36t40.5 -95q0 -41 -21.5 -80t-66.5 -88l-269 -295q-13 -14 -13 -29t9.5 -24t25.5 -9z" />
    <glyph glyph-name="uni1000CE.small" unicode="&#x33;&#x20de;" horiz-adv-x="1795" 
d="M416 23q-216 0 -216 215v964q0 106 55 161t161 55h963q106 0 161 -55t55 -161v-964q0 -105 -55 -160t-161 -55h-963zM418 91h959q72 0 111 38.5t39 112.5v957q0 74 -39 112.5t-111 38.5h-959q-74 0 -112 -38.5t-38 -112.5v-957q0 -151 150 -151zM899 361
q-85 0 -148.5 39.5t-80.5 103.5q-4 12 -4 24q0 14 9 23t23 9q25 0 32 -27q13 -50 59 -81.5t111 -31.5q79 0 127.5 40t48.5 105q0 60 -47.5 100t-120.5 40h-68q-13 0 -21 8t-8 21t8 21t21 8h62q64 0 107 39t43 96t-41.5 91.5t-110.5 34.5q-61 0 -103.5 -31t-51.5 -82
q-5 -27 -32 -27q-14 0 -22.5 9t-8.5 23q0 10 3 24q10 63 71 103t145 40q95 0 156.5 -50t61.5 -127q0 -61 -39.5 -109t-99.5 -58v-4q70 -7 117 -56t47 -116q0 -88 -68 -145t-177 -57z" />
    <glyph glyph-name="uni1000CF.small" unicode="&#x33;&#x20de;&#x25a0;" horiz-adv-x="1795" 
d="M416 23q-216 0 -216 215v964q0 106 55 161t161 55h963q106 0 161 -55t55 -161v-964q0 -105 -55 -160t-161 -55h-963zM899 357q110 0 179 57.5t69 146.5q0 67 -47.5 117t-118.5 57v4q60 10 100 58.5t40 110.5q0 78 -62 128.5t-158 50.5q-85 0 -147 -40.5t-72 -103.5
q-2 -20 -2 -25q0 -14 8.5 -23t22.5 -9q27 0 33 27q9 51 51.5 82.5t104.5 31.5q69 0 111 -35t42 -92q0 -58 -43.5 -97t-107.5 -39h-62q-14 0 -22 -8t-8 -22t8 -22t22 -8h68q73 0 121.5 -40t48.5 -101q0 -65 -49 -105.5t-129 -40.5q-66 0 -112.5 32t-58.5 82q-9 27 -33 27
q-14 0 -23 -9t-9 -24q0 -9 3 -24q18 -64 82 -104t150 -40z" />
    <glyph glyph-name="uni1000D0.small" unicode="&#x34;&#x20de;" horiz-adv-x="1795" 
d="M416 23q-216 0 -216 215v964q0 106 55 161t161 55h963q106 0 161 -55t55 -161v-964q0 -105 -55 -160t-161 -55h-963zM418 91h959q72 0 111 38.5t39 112.5v957q0 74 -39 112.5t-111 38.5h-959q-74 0 -112 -38.5t-38 -112.5v-957q0 -151 150 -151zM991 370q-15 0 -24 9.5
t-9 25.5v130h-299q-24 0 -37.5 12.5t-13.5 33.5q0 19 12 39q73 120 281 423q26 40 68 40q25 0 40 -13.5t15 -35.5v-439h85q14 0 22.5 -8.5t8.5 -21.5t-8.5 -21.5t-22.5 -8.5h-85v-130q0 -16 -9 -25.5t-24 -9.5zM958 595v422h-4q-202 -292 -276 -418v-4h280z" />
    <glyph glyph-name="uni1000D1.small" unicode="&#x34;&#x20de;&#x25a0;" horiz-adv-x="1795" 
d="M416 23q-216 0 -216 215v964q0 106 55 161t161 55h963q106 0 161 -55t55 -161v-964q0 -105 -55 -160t-161 -55h-963zM992 366q33 0 33 36v130h87q13 0 21.5 8.5t8.5 22.5t-8.5 22.5t-21.5 8.5h-87v443q0 23 -15 36.5t-40 13.5q-42 0 -70 -41q-189 -274 -283 -426
q-12 -21 -12 -40q0 -22 14 -35t38 -13h301v-130q0 -16 9.5 -26t24.5 -10zM958 594h-282v4q65 110 278 421h4v-425z" />
    <glyph glyph-name="uni1000D2.small" unicode="&#x35;&#x20de;" horiz-adv-x="1795" 
d="M416 23q-216 0 -216 215v964q0 106 55 161t161 55h963q106 0 161 -55t55 -161v-964q0 -105 -55 -160t-161 -55h-963zM418 91h959q72 0 111 38.5t39 112.5v957q0 74 -39 112.5t-111 38.5h-959q-74 0 -112 -38.5t-38 -112.5v-957q0 -151 150 -151zM894 361
q-85 0 -145.5 38.5t-78.5 101.5q-4 8 -4 21t8.5 21t21.5 8q22 0 32 -25q14 -47 61 -76.5t109 -29.5q75 0 125 50.5t50 126.5q0 75 -46.5 122.5t-121.5 47.5q-43 0 -76.5 -16t-70.5 -54q-19 -18 -41 -18q-18 0 -28.5 11.5t-9.5 29.5l25 306q3 44 49 44h334q13 0 20.5 -8
t7.5 -21q0 -12 -8 -20.5t-20 -8.5h-324l-22 -267h4q27 36 72.5 57t94.5 21q100 0 164 -63t64 -162q0 -106 -68 -171.5t-178 -65.5z" />
    <glyph glyph-name="uni1000D3.small" unicode="&#x35;&#x20de;&#x25a0;" horiz-adv-x="1795" 
d="M416 23q-216 0 -216 215v964q0 106 55 161t161 55h963q106 0 161 -55t55 -161v-964q0 -105 -55 -160t-161 -55h-963zM894 357q111 0 180 66t69 174q0 100 -65 164t-166 64q-50 0 -95.5 -21.5t-72.5 -57.5h-4l22 269h327q13 0 21 8t8 21t-8 21.5t-21 8.5h-338
q-22 0 -34.5 -12t-14.5 -33l-25 -308q-2 -19 8.5 -31t29.5 -12q23 0 42 18q36 39 70.5 55t77.5 16q76 0 123 -47.5t47 -124.5q0 -76 -50.5 -127t-126.5 -51q-62 0 -109.5 30t-62.5 78q-9 25 -32 25q-14 0 -22.5 -8.5t-8.5 -21.5q0 -8 4 -22q19 -64 79.5 -102.5t147.5 -38.5z
" />
    <glyph glyph-name="uni1000D4.small" unicode="&#x36;&#x20de;" horiz-adv-x="1795" 
d="M416 23q-216 0 -216 215v964q0 106 55 161t161 55h963q106 0 161 -55t55 -161v-964q0 -105 -55 -160t-161 -55h-963zM418 91h959q72 0 111 38.5t39 112.5v957q0 74 -39 112.5t-111 38.5h-959q-74 0 -112 -38.5t-38 -112.5v-957q0 -151 150 -151zM902 361
q-70 0 -125.5 30.5t-86.5 87.5q-43 76 -43 222q0 182 71.5 282t198.5 100q75 0 131 -36.5t70 -78.5q4 -14 4 -19q0 -28 -28 -28q-19 0 -36 24q-19 35 -57 57t-86 22q-94 0 -149 -85t-55 -233v-9h4q59 124 207 124q96 0 161 -62.5t65 -160.5q0 -108 -68 -172.5t-178 -64.5z
M901 417q81 0 129.5 48t48.5 128q0 77 -49 125t-127 48q-79 0 -129.5 -48.5t-50.5 -123.5q0 -77 50.5 -127t127.5 -50z" />
    <glyph glyph-name="uni1000D5.small" unicode="&#x36;&#x20de;&#x25a0;" horiz-adv-x="1795" 
d="M416 23q-216 0 -216 215v964q0 106 55 161t161 55h963q106 0 161 -55t55 -161v-964q0 -105 -55 -160t-161 -55h-963zM902 357q111 0 180 65.5t69 174.5q0 99 -66 162t-163 63q-149 0 -208 -125h-4v9q0 149 55 234.5t150 85.5q48 0 86.5 -21.5t57.5 -56.5q17 -26 37 -26
q12 0 20 8t8 21q0 11 -4 19q-13 43 -70 80t-133 37q-128 0 -200.5 -100.5t-72.5 -285.5q0 -147 43 -225q33 -58 89.5 -88.5t125.5 -30.5zM901 415q-78 0 -128.5 50.5t-50.5 127.5q0 75 51 124t130 49t128.5 -48.5t49.5 -125.5q0 -80 -49 -128.5t-131 -48.5z" />
    <glyph glyph-name="uni1000D6.small" unicode="&#x37;&#x20de;" horiz-adv-x="1795" 
d="M416 23q-216 0 -216 215v964q0 106 55 161t161 55h963q106 0 161 -55t55 -161v-964q0 -105 -55 -160t-161 -55h-963zM418 91h959q72 0 111 38.5t39 112.5v957q0 74 -39 112.5t-111 38.5h-959q-74 0 -112 -38.5t-38 -112.5v-957q0 -151 150 -151zM793 365q-15 0 -25 9
t-10 23q0 11 6 23l305 587v5h-363q-13 0 -21 8.5t-8 20.5q0 13 8 21t21 8h385q24 0 38.5 -12t14.5 -32q0 -15 -11 -38l-305 -598q-13 -25 -35 -25z" />
    <glyph glyph-name="uni1000D7.small" unicode="&#x37;&#x20de;&#x25a0;" horiz-adv-x="1795" 
d="M416 23q-216 0 -216 215v964q0 106 55 161t161 55h963q106 0 161 -55t55 -161v-964q0 -105 -55 -160t-161 -55h-963zM792 361q22 0 35 25l309 604q11 23 11 38q0 20 -15 33t-39 13h-389q-13 0 -21.5 -8.5t-8.5 -21.5t8.5 -21t21.5 -8h366v-5l-308 -592q-6 -13 -6 -24
q0 -15 10.5 -24t25.5 -9z" />
    <glyph glyph-name="uni1000D8.small" unicode="&#x38;&#x20de;" horiz-adv-x="1795" 
d="M416 23q-216 0 -216 215v964q0 106 55 161t161 55h963q106 0 161 -55t55 -161v-964q0 -105 -55 -160t-161 -55h-963zM418 91h959q72 0 111 38.5t39 112.5v957q0 74 -39 112.5t-111 38.5h-959q-74 0 -112 -38.5t-38 -112.5v-957q0 -151 150 -151zM897 361
q-112 0 -182.5 57t-70.5 147q0 63 42.5 112t108.5 63v4q-56 17 -89.5 59.5t-33.5 96.5q0 80 63.5 131.5t161.5 51.5t161.5 -51.5t63.5 -131.5q0 -54 -34 -97t-89 -59v-4q66 -13 108.5 -62.5t42.5 -111.5q0 -90 -71 -147.5t-182 -57.5zM897 766q70 0 114.5 37t44.5 94
q0 58 -44.5 94.5t-114.5 36.5t-114.5 -36.5t-44.5 -94.5q0 -57 45 -94t114 -37zM898 415q82 0 134.5 43t52.5 109q0 64 -52.5 105.5t-134.5 41.5t-135 -41.5t-53 -105.5q0 -66 53 -109t135 -43z" />
    <glyph glyph-name="uni1000D9.small" unicode="&#x38;&#x20de;&#x25a0;" horiz-adv-x="1795" 
d="M416 23q-216 0 -216 215v964q0 106 55 161t161 55h963q106 0 161 -55t55 -161v-964q0 -105 -55 -160t-161 -55h-963zM897 357q112 0 184 58t72 149q0 64 -43 113t-109 63v4q55 16 89.5 59.5t34.5 97.5q0 82 -64 134t-164 52q-99 0 -163 -52t-64 -134q0 -54 34 -97t90 -60
v-4q-67 -13 -110 -63t-43 -113q0 -92 71.5 -149.5t184.5 -57.5zM897 766q-70 0 -115 37.5t-45 95.5t45 95t115 37q71 0 116 -37t45 -95t-45.5 -95.5t-115.5 -37.5zM898 413q-83 0 -136.5 42.5t-53.5 109.5q0 65 54 107t136 42t135.5 -42t53.5 -107q0 -67 -53.5 -109.5
t-135.5 -42.5z" />
    <glyph glyph-name="uni1000DA.small" unicode="&#x39;&#x20de;" horiz-adv-x="1795" 
d="M416 23q-216 0 -216 215v964q0 106 55 161t161 55h963q106 0 161 -55t55 -161v-964q0 -105 -55 -160t-161 -55h-963zM418 91h959q72 0 111 38.5t39 112.5v957q0 74 -39 112.5t-111 38.5h-959q-74 0 -112 -38.5t-38 -112.5v-957q0 -151 150 -151zM880 361q-77 0 -135 38.5
t-70 80.5q-3 8 -3 17q0 13 8 21.5t21 8.5q18 0 32 -23q48 -84 147 -84q96 0 150.5 85t53.5 242h-4q-25 -60 -78 -93.5t-129 -33.5q-95 0 -160 64t-65 163q0 105 68.5 170.5t176.5 65.5q118 0 186.5 -82.5t68.5 -240.5q0 -198 -69.5 -298.5t-198.5 -100.5zM892 676
q78 0 129 49.5t51 123.5q0 76 -51.5 126.5t-126.5 50.5q-78 0 -128.5 -49t-50.5 -126q0 -75 49.5 -125t127.5 -50z" />
    <glyph glyph-name="uni1000DB.small" unicode="&#x39;&#x20de;&#x25a0;" horiz-adv-x="1795" 
d="M416 23q-216 0 -216 215v964q0 106 55 161t161 55h963q106 0 161 -55t55 -161v-964q0 -105 -55 -160t-161 -55h-963zM879 357q131 0 201.5 101.5t70.5 301.5q0 160 -69 243.5t-189 83.5q-109 0 -178.5 -66.5t-69.5 -172.5q0 -99 66 -164t162 -65q77 0 130.5 34t78.5 94h4
q0 -158 -54.5 -243.5t-151.5 -85.5q-101 0 -148 84q-14 23 -33 23q-13 0 -21.5 -8.5t-8.5 -21.5q0 -9 3 -18q12 -42 71 -81t136 -39zM892 676q-78 0 -128 50t-50 127t50.5 126t129.5 49q76 0 128 -50.5t52 -127.5q0 -74 -52 -124t-130 -50z" />
    <glyph glyph-name=".notdef" horiz-adv-x="2048" 
d="M100 1603v347h1848v-347h-1848zM100 1184v347h1848v-347h-1848zM100 764v347h1848v-347h-1848zM100 345v347h1848v-347h-1848zM100 -74v346h1848v-346h-1848zM100 -494v347h1848v-347h-1848z" />
    <glyph glyph-name=".null" horiz-adv-x="0" 
 />
    <glyph glyph-name="nonmarkingreturn" unicode="&#x2029;" horiz-adv-x="0" 
 />
    <glyph glyph-name="nonmarkingreturn" unicode="&#x2028;" horiz-adv-x="0" 
 />
    <glyph glyph-name="space" unicode=" " horiz-adv-x="520" 
 />
    <glyph glyph-name="exclamationmark" unicode="!" horiz-adv-x="590" 
d="M257 427l-4 1016h84l-4 -1016h-76zM295 -9q-34 0 -55.5 21.5t-21.5 55.5q0 33 21.5 54.5t55.5 21.5q33 0 54.5 -21.5t21.5 -54.5q0 -34 -21.5 -55.5t-54.5 -21.5z" />
    <glyph glyph-name="quotedbl" unicode="&#x22;" horiz-adv-x="841" 
d="M254 960l-8 483h81l-7 -483h-66zM521 960l-7 483h81l-7 -483h-67z" />
    <glyph glyph-name="numbersign" unicode="#" horiz-adv-x="1261" 
d="M268 0h-69l90 440h-266l13 67h267l89 436h-276l13 67h277l90 438h69l-90 -438h404l90 438h70l-90 -438h290l-14 -67h-290l-89 -436h299l-14 -67h-299l-90 -440h-70l90 440h-404zM372 507h404l89 436h-404z" />
    <glyph glyph-name="dollarsign" unicode="$" horiz-adv-x="1261" 
d="M601 -169v191q-201 8 -332.5 112t-138.5 269v2h78v-2q9 -134 115 -218t278 -92v615l-41 10q-197 46 -294.5 132t-97.5 220v2q0 148 124 244.5t309 104.5v173h63v-173q186 -8 310.5 -104t131.5 -243v-2h-78v2q-7 118 -108.5 193t-255.5 83v-580l65 -15
q204 -48 302.5 -135.5t98.5 -230.5v-2q0 -161 -129.5 -259.5t-336.5 -106.5v-190h-63zM575 791l26 -6v565q-155 -8 -255 -84t-100 -191v-2q0 -105 80.5 -174t248.5 -108zM713 682l-49 11v-600q180 6 284.5 85.5t104.5 205.5v2q0 113 -79.5 183.5t-260.5 112.5z" />
    <glyph glyph-name="percent" unicode="%" horiz-adv-x="1766" 
d="M393 733q-122 0 -192 97t-70 264v2q0 167 70 263.5t192 96.5t192 -97t70 -263v-2q0 -168 -70 -264.5t-192 -96.5zM439 0h-77l965 1443h77zM393 789q93 0 145.5 81.5t52.5 223.5v2q0 141 -52.5 222.5t-145.5 81.5t-146 -81.5t-53 -222.5v-2q0 -142 53 -223.5t146 -81.5z
M1373 -13q-122 0 -192 97t-70 264v1q0 167 70 264t192 97t192 -97.5t70 -263.5v-1q0 -168 -70 -264.5t-192 -96.5zM1373 43q93 0 145.5 81.5t52.5 223.5v1q0 142 -52.5 223.5t-145.5 81.5t-146 -82t-53 -223v-1q0 -142 53 -223.5t146 -81.5z" />
    <glyph glyph-name="ampersand" unicode="&#x26;" horiz-adv-x="1492" 
d="M586 -22q-201 0 -328.5 109t-127.5 278v2q0 234 281 381l98 51q-130 138 -174 211.5t-44 157.5v2q0 127 99.5 211.5t245.5 84.5q144 0 240.5 -84.5t96.5 -209.5v-2q0 -106 -80 -197.5t-270 -189.5l454 -473q121 174 121 418v73h76v-72q0 -281 -143 -475l243 -253v-1h-102
l-188 197q-98 -106 -229.5 -162.5t-268.5 -56.5zM368 1165q0 -73 41 -137.5t168 -196.5q171 85 245.5 166.5t74.5 170.5v2q0 95 -75.5 162t-185.5 67t-189 -67.5t-79 -164.5v-2zM209 367q0 -137 106.5 -228t275.5 -91q117 0 235 52.5t206 150.5l-474 497l-104 -55
q-245 -128 -245 -324v-2z" />
    <glyph glyph-name="quotesingle" unicode="'" horiz-adv-x="573" 
d="M254 960l-8 483h81l-7 -483h-66z" />
    <glyph glyph-name="parenleft" unicode="(" horiz-adv-x="710" 
d="M520 -353q-133 173 -203.5 419t-70.5 511q0 263 70.5 509.5t203.5 419.5h73q-122 -160 -195 -420t-73 -509q0 -251 73 -510t195 -420h-73z" />
    <glyph glyph-name="parenright" unicode=")" horiz-adv-x="710" 
d="M190 -353h-73q122 160 195 419.5t73 510.5q0 250 -73 509.5t-195 419.5h73q133 -173 203.5 -419.5t70.5 -509.5q0 -265 -70.5 -511t-203.5 -419z" />
    <glyph glyph-name="asterisk" unicode="*" horiz-adv-x="986" 
d="M463 782l4 280l-252 -143l-30 47l259 137l-259 136l30 47l252 -143l-4 281h61l-5 -280l252 142l30 -47l-259 -136l259 -137l-30 -47l-252 143l5 -280h-61z" />
    <glyph glyph-name="plus" unicode="+" horiz-adv-x="1261" 
d="M114 548v72h481v502h73v-502h480v-72h-480v-502h-73v502h-481z" />
    <glyph glyph-name="comma" unicode="," horiz-adv-x="573" 
d="M148 -326l96 483h93l-127 -483h-62z" />
    <glyph glyph-name="hyphen" unicode="&#x2011;" horiz-adv-x="986" 
d="M163 548v72h660v-72h-660z" />
    <glyph glyph-name="hyphen" unicode="&#x2010;" horiz-adv-x="986" 
d="M163 548v72h660v-72h-660z" />
    <glyph glyph-name="hyphen" unicode="-" horiz-adv-x="986" 
d="M163 548v72h660v-72h-660z" />
    <glyph glyph-name="period" unicode="." horiz-adv-x="573" 
d="M287 -6q-31 0 -52.5 21t-21.5 52t21.5 52.5t52.5 21.5t52.5 -21.5t21.5 -52.5t-21.5 -52t-52.5 -21z" />
    <glyph glyph-name="slash" unicode="/" horiz-adv-x="569" 
d="M569 1506l-494 -1859h-75l494 1859h75z" />
    <glyph glyph-name="zero" unicode="0" horiz-adv-x="1271" 
d="M635 -24q-235 0 -369.5 200t-134.5 544v3q0 345 134.5 544.5t369.5 199.5t370.5 -200.5t135.5 -543.5v-3q0 -345 -135.5 -544.5t-370.5 -199.5zM635 47q199 0 312.5 181t113.5 492v3q0 312 -113 492t-313 180q-198 0 -311.5 -181t-113.5 -491v-3q0 -311 113.5 -492
t311.5 -181z" />
    <glyph glyph-name="one" unicode="1" horiz-adv-x="855" 
d="M509 0v1353h-7l-380 -251v86l387 255h79v-1443h-79z" />
    <glyph glyph-name="two" unicode="2" horiz-adv-x="1203" 
d="M151 0v60l510 539q166 175 223.5 269.5t57.5 196.5v2q0 141 -100.5 235t-254.5 94q-155 0 -256.5 -95.5t-106.5 -244.5v-1h-77v1q4 179 129 295t315 116q184 0 308 -113t124 -282v-2q0 -117 -65.5 -226.5t-249.5 -301.5l-443 -462v-7h808v-73h-922z" />
    <glyph glyph-name="three" unicode="3" horiz-adv-x="1228" 
d="M615 -21q-205 0 -334 105t-150 270l-1 9h77l1 -8q21 -134 129 -219.5t278 -85.5q174 0 288.5 96.5t114.5 243.5v2q0 152 -113.5 237.5t-313.5 85.5h-164v70h161q164 0 268 85.5t104 219.5v2q0 132 -100 216.5t-256 84.5q-153 0 -252 -81.5t-111 -206.5l-1 -10h-77l1 10
q15 157 134.5 258t305.5 101q190 0 312.5 -103.5t122.5 -261.5v-2q0 -132 -83 -223t-226 -119v-4q167 -11 267.5 -108t100.5 -250v-2q0 -178 -137 -295t-346 -117z" />
    <glyph glyph-name="four" unicode="4" horiz-adv-x="1304" 
d="M875 0v361h-753v73q122 193 258.5 387t461.5 627h111v-1015h229v-72h-229v-361h-78zM211 433h664v931h-6q-315 -419 -434.5 -588.5t-223.5 -336.5v-6z" />
    <glyph glyph-name="five" unicode="5" horiz-adv-x="1240" 
d="M618 -24q-184 0 -316.5 105t-149.5 259l-1 9h78l1 -7q17 -124 128 -209t262 -85q178 0 295.5 116t117.5 292v2q0 174 -115.5 291t-287.5 117q-102 0 -189.5 -40.5t-147.5 -116.5q-28 -34 -42 -59h-76l85 793h759v-72h-693l-69 -620h7q58 86 158.5 136.5t215.5 50.5
q203 0 338 -136.5t135 -341.5v-2q0 -209 -140 -345.5t-353 -136.5z" />
    <glyph glyph-name="six" unicode="6" horiz-adv-x="1265" 
d="M657 -24q-114 0 -209 43.5t-166 127t-110.5 215.5t-39.5 300v2q0 376 143 589.5t389 213.5q175 0 295 -96t148 -247l2 -12h-79l-3 11q-26 120 -126 195.5t-238 75.5q-112 0 -199.5 -55t-142 -153t-82.5 -225.5t-30 -279.5v-57h8q37 139 161 230t286 91q204 0 340.5 -137
t136.5 -340v-2q0 -210 -138.5 -350t-345.5 -140zM241 483q0 -119 53 -218.5t148.5 -158t213.5 -58.5q171 0 288.5 120.5t117.5 296.5v2q0 173 -117 290t-290 117q-168 0 -291 -115.5t-123 -273.5v-2z" />
    <glyph glyph-name="seven" unicode="7" horiz-adv-x="1153" 
d="M264 0l692 1364v7h-837v72h920v-76l-685 -1367h-90z" />
    <glyph glyph-name="eight" unicode="8" horiz-adv-x="1276" 
d="M639 -21q-222 0 -362 115.5t-140 297.5v2q0 138 93.5 240.5t241.5 130.5v3q-128 30 -206 116.5t-78 205.5v2q0 163 126.5 267.5t324.5 104.5t324 -104.5t126 -267.5v-2q0 -119 -77.5 -205.5t-206.5 -116.5v-3q149 -28 242.5 -130.5t93.5 -240.5v-2q0 -182 -140 -297.5
t-362 -115.5zM639 799q162 0 266.5 80.5t104.5 205.5v2q0 132 -104 219t-267 87t-267.5 -87t-104.5 -219v-2q0 -125 104.5 -205.5t267.5 -80.5zM639 50q186 0 304 98t118 248v2q0 145 -117.5 236.5t-304.5 91.5t-304.5 -91.5t-117.5 -236.5v-2q0 -150 118 -248t304 -98z" />
    <glyph glyph-name="nine" unicode="9" horiz-adv-x="1265" 
d="M609 1467q113 0 208 -43.5t166 -127t110.5 -215.5t39.5 -300v-2q0 -376 -142.5 -589.5t-388.5 -213.5q-176 0 -296 96t-148 247l-2 12h79l3 -11q26 -120 126 -195.5t238 -75.5q112 0 199.5 55t142 153t82.5 225.5t30 279.5q2 28 0 57h-8q-37 -139 -161 -230t-286 -91
q-204 0 -340.5 137t-136.5 340v2q0 210 138.5 350t346.5 140zM610 569q168 0 291 115.5t123 273.5v2q0 119 -53 218.5t-148.5 158t-213.5 58.5q-171 0 -288.5 -120.5t-117.5 -296.5v-2q0 -173 117 -290t290 -117z" />
    <glyph glyph-name="colon" unicode=":" horiz-adv-x="573" 
d="M287 875q-31 0 -52.5 21.5t-21.5 52.5t21.5 52.5t52.5 21.5t52.5 -21.5t21.5 -52.5t-21.5 -52.5t-52.5 -21.5zM287 -6q-31 0 -52.5 21t-21.5 52t21.5 52.5t52.5 21.5t52.5 -21.5t21.5 -52.5t-21.5 -52t-52.5 -21z" />
    <glyph glyph-name="semicolon" unicode=";" horiz-adv-x="573" 
d="M287 875q-31 0 -52.5 21.5t-21.5 52.5t21.5 52.5t52.5 21.5t52.5 -21.5t21.5 -52.5t-21.5 -52.5t-52.5 -21.5zM148 -326l96 483h93l-127 -483h-62z" />
    <glyph glyph-name="less" unicode="&#x3c;" horiz-adv-x="1261" 
d="M144 545v78l973 444v-74l-901 -407l901 -406v-79z" />
    <glyph glyph-name="equal" unicode="=" horiz-adv-x="1261" 
d="M126 817v73h1009v-73h-1009zM126 279v72h1009v-72h-1009z" />
    <glyph glyph-name="greater" unicode="&#x3e;" horiz-adv-x="1261" 
d="M1117 623v-78l-973 -444v75l901 406l-901 407v78z" />
    <glyph glyph-name="questionmark" unicode="?" horiz-adv-x="979" 
d="M407 408v98q-1 99 42 167t153 144q104 73 146.5 137t42.5 148v2q0 124 -89 204.5t-223 80.5q-130 0 -218.5 -80.5t-100.5 -211.5l-1 -1l-76 -1l1 2q10 157 119.5 260t277.5 103q169 0 280 -101t111 -252v-2q0 -101 -50 -179t-163 -157q-102 -70 -138.5 -126.5
t-36.5 -144.5v-90h-77zM456 -9q-33 0 -55 21.5t-22 55.5q0 33 22 54.5t55 21.5t54.5 -21.5t21.5 -54.5q0 -34 -21.5 -55.5t-54.5 -21.5z" />
    <glyph glyph-name="at" unicode="@" horiz-adv-x="1858" 
d="M951 -230q-241 0 -428 105t-289.5 295t-102.5 436v2q0 237 104.5 425t292 293.5t423.5 105.5q174 0 322.5 -55.5t252.5 -154t163 -238.5t59 -304v-2q0 -239 -84 -373t-234 -134q-97 0 -160 52.5t-74 143.5l-1 8h-7q-37 -97 -107 -148t-165 -51q-155 0 -252.5 116.5
t-97.5 300.5v2q0 184 98 301t252 117q91 0 164.5 -51.5t102.5 -134.5h8v165h71v-560q0 -97 45 -147t131 -50q115 0 178.5 117t63.5 327v2q0 200 -92.5 357t-260 244t-380.5 87t-384 -98t-267.5 -272.5t-96.5 -391.5v-2q0 -226 94.5 -402t265.5 -273t392 -97q214 0 328 38
v-64q-117 -37 -328 -37zM923 243q121 0 194 98t73 260v2q0 159 -72 251.5t-195 92.5q-122 0 -202.5 -100.5t-80.5 -253.5v-2q0 -156 78 -252t205 -96z" />
    <glyph glyph-name="A" unicode="A" horiz-adv-x="1341" 
d="M80 0l550 1443h80l550 -1443h-85l-181 481h-649l-181 -481h-84zM666 1335l-294 -783h596l-294 783h-8z" />
    <glyph glyph-name="B" unicode="B" horiz-adv-x="1284" 
d="M187 0v1443h473q199 0 316.5 -96t117.5 -255v-2q0 -128 -77.5 -220.5t-206.5 -116.5v-6q155 -20 257.5 -116t102.5 -247v-2q0 -179 -129 -280.5t-378 -101.5h-476zM648 1371h-382v-593h369q173 0 276 81.5t103 221.5v2q0 132 -98.5 210t-267.5 78zM649 707h-383v-635h388
q216 0 325.5 82t109.5 230v2q0 149 -119.5 235t-320.5 86z" />
    <glyph glyph-name="C" unicode="C" horiz-adv-x="1441" 
d="M760 -24q-293 0 -463 200t-170 545v2q0 343 170.5 543.5t462.5 200.5q216 0 377.5 -135t186.5 -336l-1 -1l-79 -1v2q-26 169 -165 283t-319 114q-252 0 -402.5 -182.5t-150.5 -487.5v-2q0 -307 150 -489t403 -182q190 0 325.5 104t158.5 267l1 1l79 1v-2
q-23 -198 -179.5 -321.5t-384.5 -123.5z" />
    <glyph glyph-name="D" unicode="D" horiz-adv-x="1451" 
d="M187 0v1443h449q334 0 511 -192t177 -528v-2q0 -337 -176.5 -529t-511.5 -192h-449zM266 73h366q292 0 452 172.5t160 474.5v2q0 303 -160 475.5t-452 172.5h-366v-1297z" />
    <glyph glyph-name="E" unicode="E" horiz-adv-x="1166" 
d="M187 0v1443h841v-73h-762v-594h726v-72h-726v-631h762v-73h-841z" />
    <glyph glyph-name="F" unicode="F" horiz-adv-x="1132" 
d="M187 0v1443h830v-73h-751v-603h691v-72h-691v-695h-79z" />
    <glyph glyph-name="G" unicode="G" horiz-adv-x="1476" 
d="M751 -24q-283 0 -453.5 205t-170.5 547v1q0 337 170 537.5t454 200.5q219 0 372.5 -113.5t196.5 -310.5l2 -9h-79l-2 8q-45 168 -175 259.5t-315 91.5q-249 0 -396.5 -179.5t-147.5 -484.5v-1q0 -309 148.5 -493.5t395.5 -184.5q231 0 370 151.5t139 398.5v28h-502v71
h581v-96q0 -282 -161 -454.5t-427 -172.5z" />
    <glyph glyph-name="H" unicode="H" horiz-adv-x="1445" 
d="M187 0v1443h79v-666h913v666h79v-1443h-79v705h-913v-705h-79z" />
    <glyph glyph-name="I" unicode="I" horiz-adv-x="453" 
d="M187 0v1443h79v-1443h-79z" />
    <glyph glyph-name="J" unicode="J" horiz-adv-x="1070" 
d="M484 -24q-165 0 -270.5 95.5t-112.5 244.5l-1 6h80v-4q8 -116 92 -192t212 -76q151 0 235.5 90.5t84.5 251.5v1051h79v-1062q0 -187 -107.5 -296t-291.5 -109z" />
    <glyph glyph-name="K" unicode="&#x212a;" horiz-adv-x="1260" 
d="M187 0v1443h79v-805h7l750 805h100l-581 -623l647 -820h-102l-601 765l-220 -236v-529h-79z" />
    <glyph glyph-name="K" unicode="K" horiz-adv-x="1260" 
d="M187 0v1443h79v-805h7l750 805h100l-581 -623l647 -820h-102l-601 765l-220 -236v-529h-79z" />
    <glyph glyph-name="L" unicode="L" horiz-adv-x="1106" 
d="M187 0v1443h79v-1370h757v-73h-836z" />
    <glyph glyph-name="M" unicode="M" horiz-adv-x="1724" 
d="M188 0v1443h89l581 -1340h8l581 1340h89v-1443h-76v1276h-7l-553 -1276h-76l-553 1276h-8v-1276h-75z" />
    <glyph glyph-name="N" unicode="N" horiz-adv-x="1460" 
d="M187 0v1443h82l918 -1297h7v1297h79v-1443h-75l-925 1304h-7v-1304h-79z" />
    <glyph glyph-name="O" unicode="O" horiz-adv-x="1537" 
d="M768 -24q-298 0 -469.5 200t-171.5 545v2q0 344 172.5 544t468.5 200q297 0 469.5 -200t172.5 -544v-2q0 -345 -172 -545t-470 -200zM768 50q257 0 409.5 182.5t152.5 488.5v2q0 306 -152.5 488t-409.5 182t-409 -182t-152 -488v-2q0 -306 152 -488.5t409 -182.5z" />
    <glyph glyph-name="P" unicode="P" horiz-adv-x="1234" 
d="M187 0v1443h469q210 0 337 -117t127 -312v-2q0 -195 -127 -312.5t-337 -117.5h-390v-582h-79zM643 1371h-377v-717h377q183 0 289.5 96t106.5 262v2q0 166 -106.5 261.5t-289.5 95.5z" />
    <glyph glyph-name="Q" unicode="Q" horiz-adv-x="1537" 
d="M769 -25q-297 0 -469.5 201.5t-172.5 544.5v2q0 341 173.5 542t467.5 201q296 0 469 -201t173 -542v-2q0 -223 -75.5 -390t-215.5 -258l183 -251h-91l-156 214q-127 -61 -286 -61zM769 49q131 0 239 51l-197 271h91l171 -235q123 83 190 234t67 351v2q0 306 -152 487.5
t-410 181.5q-257 0 -409 -181.5t-152 -487.5v-2q0 -307 152 -489.5t410 -182.5z" />
    <glyph glyph-name="R" unicode="R" horiz-adv-x="1271" 
d="M187 0v1443h471q215 0 339 -110.5t124 -300.5v-2q0 -155 -88.5 -261t-245.5 -138l371 -631h-93l-362 619q-25 -3 -52 -3h-385v-616h-79zM266 689h387q182 0 285 90t103 249v2q0 159 -104 250t-286 91h-385v-682z" />
    <glyph glyph-name="S" unicode="S" horiz-adv-x="1255" 
d="M638 -24q-216 0 -360.5 108t-161.5 279l-1 11h79l1 -11q14 -135 140.5 -224t306.5 -89q182 0 299.5 92.5t117.5 231.5v1q0 114 -88 191.5t-276 121.5l-132 31q-217 51 -314 137t-97 225v2q1 163 135.5 273.5t338.5 110.5q201 0 335 -101t149 -251l1 -10h-79l-2 9
q-15 119 -127 199t-279 80t-279 -89t-112 -220v-2q0 -108 82.5 -176t267.5 -111l133 -31q222 -52 323 -144.5t101 -237.5v-2q0 -177 -140 -290.5t-362 -113.5z" />
    <glyph glyph-name="T" unicode="T" horiz-adv-x="1256" 
d="M589 0v1370h-509v73h1096v-73h-508v-1370h-79z" />
    <glyph glyph-name="U" unicode="U" horiz-adv-x="1451" 
d="M725 -24q-248 0 -393.5 142.5t-145.5 379.5v945h80v-941q0 -208 123.5 -330t335.5 -122q214 0 337 122t123 330v941h80v-945q0 -238 -145.5 -380t-394.5 -142z" />
    <glyph glyph-name="V" unicode="V" horiz-adv-x="1341" 
d="M631 0l-550 1443h84l502 -1335h7l502 1335h85l-550 -1443h-80z" />
    <glyph glyph-name="W" unicode="W" horiz-adv-x="1922" 
d="M505 0l-403 1443h82l354 -1305h7l379 1305h74l379 -1305h6l355 1305h82l-403 -1443h-70l-383 1293h-6l-383 -1293h-70z" />
    <glyph glyph-name="X" unicode="X" horiz-adv-x="1334" 
d="M101 0l515 721v4l-513 718h95l468 -657h5l469 657h92l-516 -720v-4l513 -719h-95l-467 655h-5l-469 -655h-92z" />
    <glyph glyph-name="Y" unicode="Y" horiz-adv-x="1289" 
d="M605 0v629l-524 814h92l468 -731h8l467 731h92l-523 -814v-629h-80z" />
    <glyph glyph-name="Z" unicode="Z" horiz-adv-x="1292" 
d="M131 0v62l923 1301v7h-894v73h997v-62l-921 -1301v-7h925v-73h-1030z" />
    <glyph glyph-name="bracketleft" unicode="[" horiz-adv-x="710" 
d="M262 -353v1859h364v-65h-289v-1728h300v-66h-375z" />
    <glyph glyph-name="backslash" unicode="\" horiz-adv-x="569" 
d="M75 1506l494 -1859h-75l-494 1859h75z" />
    <glyph glyph-name="bracketright" unicode="]" horiz-adv-x="710" 
d="M448 -353h-375v66h300v1728h-289v65h364v-1859z" />
    <glyph glyph-name="asciicircum" unicode="^" horiz-adv-x="1261" 
d="M248 851h-85l432 592h71l432 -592h-85l-382 526z" />
    <glyph glyph-name="underscore" unicode="_" horiz-adv-x="1189" 
d="M0 -173v73h1189v-73h-1189z" />
    <glyph glyph-name="grave" unicode="`" horiz-adv-x="1024" 
d="M586 1231l-222 315h94l202 -315h-74z" />
    <glyph glyph-name="a" unicode="a" horiz-adv-x="1118" 
d="M476 -17q-159 0 -259 85t-100 223v2q0 136 98 214t284 92l371 28v105q0 141 -81 216t-226 75q-129 0 -216 -55t-109 -156v-2h-78v3q22 130 132 205t273 75q179 0 280.5 -94t101.5 -266v-733h-77v220h-8q-44 -109 -148 -173t-238 -64zM195 292q0 -107 81 -173t210 -66
q161 0 272.5 101t111.5 247v160l-359 -27q-156 -12 -236 -73t-80 -167v-2z" />
    <glyph glyph-name="b" unicode="b" horiz-adv-x="1245" 
d="M668 -17q-139 0 -245 77.5t-150 210.5h-8v-271h-77v1506h77v-692h8q45 128 151.5 203.5t243.5 75.5q204 0 329 -152t125 -400v-2q0 -248 -126 -402t-328 -154zM657 54q174 0 280 133.5t106 351.5v2q0 218 -105.5 350t-280.5 132t-284 -134t-109 -348v-2
q0 -216 109.5 -350.5t283.5 -134.5z" />
    <glyph glyph-name="c" unicode="c" horiz-adv-x="1144" 
d="M598 -17q-218 0 -346.5 151t-128.5 407v2q0 252 128.5 401t346.5 149q167 0 284 -88t144 -228l-1 -1l-77 -1l-1 2q-29 111 -123.5 178.5t-225.5 67.5q-181 0 -288.5 -130.5t-107.5 -349.5v-2q0 -222 107.5 -354.5t288.5 -132.5q133 0 226 62.5t121 170.5l2 3l77 1l-1 -5
q-30 -139 -142.5 -221t-282.5 -82z" />
    <glyph glyph-name="d" unicode="d" horiz-adv-x="1252" 
d="M584 -17q-205 0 -333 154.5t-128 399.5v2q0 245 128.5 399.5t332.5 154.5q136 0 243 -76t153 -204h7v693h77v-1506h-77v271h-7q-45 -133 -151 -210.5t-245 -77.5zM595 54q175 0 284 134t109 349v2q0 215 -109 349.5t-284 134.5t-284 -134.5t-109 -349.5v-2
q0 -215 109 -349t284 -134z" />
    <glyph glyph-name="e" unicode="e" horiz-adv-x="1179" 
d="M604 -17q-221 0 -351 149.5t-130 402.5v2q0 255 128.5 405.5t342.5 150.5q211 0 336.5 -146t125.5 -384v-39h-854q2 -217 111.5 -343.5t291.5 -126.5q126 0 220 53t128 136l3 6h79l-3 -8q-39 -113 -154 -185.5t-274 -72.5zM594 1023q-168 0 -275.5 -116t-116.5 -316h777
q-9 202 -113.5 317t-271.5 115z" />
    <glyph glyph-name="f" unicode="f" horiz-adv-x="688" 
d="M251 0v1009h-179v68h179v161q0 135 66.5 206t191.5 71q49 0 92 -6v-66q-33 5 -81 5q-93 0 -142.5 -55t-49.5 -156v-160h262v-68h-262v-1009h-77z" />
    <glyph glyph-name="g" unicode="g" horiz-adv-x="1235" 
d="M605 -370q-170 0 -283.5 69.5t-136.5 184.5l1 1h80l1 -1q23 -83 115 -133t225 -50q170 0 271.5 87t101.5 232v272h-7q-44 -130 -148 -203t-245 -73q-205 0 -331 148.5t-126 387.5v2q0 240 126.5 389.5t331.5 149.5q138 0 244.5 -78.5t147.5 -210.5h7v273h77v-1067
q0 -170 -124.5 -275t-327.5 -105zM591 86q177 0 283.5 127t106.5 334v2q0 209 -108 341.5t-282 132.5q-175 0 -282 -130t-107 -338v-2q0 -208 107 -337.5t282 -129.5z" />
    <glyph glyph-name="h" unicode="h" horiz-adv-x="1199" 
d="M188 0v1506h77v-655h8q47 115 145 178.5t231 63.5q179 0 279.5 -103t100.5 -286v-704h-78v683q0 164 -81.5 252t-234.5 88q-161 0 -265.5 -107.5t-104.5 -273.5v-642h-77z" />
    <glyph glyph-name="i" unicode="i" horiz-adv-x="450" 
d="M225 1320q-28 0 -47.5 19.5t-19.5 47.5t19.5 48t47.5 20t48 -20t20 -48t-20 -47.5t-48 -19.5zM186 0v1077h78v-1077h-78z" />
    <glyph glyph-name="j" unicode="j" horiz-adv-x="450" 
d="M225 1320q-28 0 -48 19.5t-20 47.5t20 48t48 20t47.5 -20t19.5 -48t-19.5 -47.5t-47.5 -19.5zM-3 -363h-18v71h16q99 0 145 47.5t46 152.5v1169h77v-1165q0 -144 -67 -209.5t-199 -65.5z" />
    <glyph glyph-name="k" unicode="k" horiz-adv-x="1065" 
d="M188 0v1506h77v-979h8l602 550h101l-505 -461l515 -616h-100l-473 566l-148 -137v-429h-77z" />
    <glyph glyph-name="l" unicode="l" horiz-adv-x="453" 
d="M188 0v1506h77v-1506h-77z" />
    <glyph glyph-name="m" unicode="m" horiz-adv-x="1760" 
d="M178 0v1077h77v-226h8q34 111 120.5 176.5t200.5 65.5q118 0 201 -64.5t115 -179.5h7q39 112 131.5 178t213.5 66q159 0 248.5 -97t89.5 -269v-727h-78v709q0 149 -72 231.5t-204 82.5q-140 0 -227 -99t-87 -254v-670h-77v707q0 142 -76.5 229t-201.5 87
q-131 0 -221.5 -107.5t-90.5 -264.5v-651h-77z" />
    <glyph glyph-name="n" unicode="n" horiz-adv-x="1189" 
d="M178 0v1077h77v-226h8q47 115 145 178.5t231 63.5q179 0 279.5 -103t100.5 -286v-704h-78v683q0 164 -81 252t-235 88q-161 0 -265.5 -107.5t-104.5 -273.5v-642h-77z" />
    <glyph glyph-name="o" unicode="o" horiz-adv-x="1206" 
d="M603 -17q-220 0 -350 150t-130 404v2q0 255 130 404.5t350 149.5t350 -149.5t130 -404.5v-2q0 -254 -130 -404t-350 -150zM603 54q184 0 292.5 131t108.5 352v2q0 221 -108.5 352.5t-292.5 131.5t-292.5 -131t-108.5 -353v-2q0 -221 108.5 -352t292.5 -131z" />
    <glyph glyph-name="p" unicode="p" horiz-adv-x="1236" 
d="M178 -353v1430h77v-272h8q44 133 150 210.5t245 77.5q205 0 333 -154t128 -399v-2q0 -246 -128.5 -400.5t-332.5 -154.5q-136 0 -243 76t-152 205h-8v-617h-77zM647 54q175 0 284 134t109 349v2q0 215 -109 349.5t-284 134.5t-284 -134.5t-109 -349.5v-2
q0 -215 109.5 -349t283.5 -134z" />
    <glyph glyph-name="q" unicode="q" horiz-adv-x="1235" 
d="M980 -353v614h-7q-46 -128 -152 -203t-244 -75q-202 0 -328 153.5t-126 400.5v2q0 248 125.5 401t328.5 153q138 0 244 -78.5t153 -211.5h6v274h78v-1430h-78zM588 54q174 0 284 134.5t110 348.5v2q0 215 -109.5 349.5t-284.5 134.5q-174 0 -280 -133.5t-106 -350.5v-2
q0 -218 106 -350.5t280 -132.5z" />
    <glyph glyph-name="r" unicode="r" horiz-adv-x="743" 
d="M178 0v1077h77v-201h8q33 102 112 159.5t187 57.5q70 0 120 -15v-77q-60 19 -125 19q-129 0 -215.5 -98t-86.5 -245v-677h-77z" />
    <glyph glyph-name="s" unicode="s" horiz-adv-x="1040" 
d="M530 -17q-172 0 -283.5 75.5t-130.5 205.5h80q22 -99 111.5 -156t224.5 -57q131 0 222.5 65.5t91.5 162.5v2q0 88 -63.5 139t-208.5 85l-126 29q-151 35 -223 98.5t-72 169.5v2q0 124 109 206.5t263 82.5q153 0 257.5 -73t123.5 -194h-76q-18 90 -101.5 144.5
t-203.5 54.5t-206.5 -63t-86.5 -156v-2q0 -78 59.5 -125.5t186.5 -76.5l126 -30q166 -39 243 -105t77 -181v-2q0 -130 -113.5 -215.5t-280.5 -85.5z" />
    <glyph glyph-name="t" unicode="t" horiz-adv-x="696" 
d="M497 -7q-137 0 -197 61t-60 198v757h-177v68h177v280h79v-280h261v-68h-261v-745q0 -106 43 -153t143 -47q31 0 75 4v-68q-47 -7 -83 -7z" />
    <glyph glyph-name="u" unicode="u" horiz-adv-x="1189" 
d="M558 -17q-178 0 -283 106t-105 284v704h78v-683q0 -158 86.5 -249t237.5 -91q162 0 261.5 105.5t99.5 274.5v643h78v-1077h-78v223h-7q-39 -112 -136.5 -176t-231.5 -64z" />
    <glyph glyph-name="v" unicode="v" horiz-adv-x="1035" 
d="M471 0l-406 1077h83l366 -997h7l366 997h83l-406 -1077h-93z" />
    <glyph glyph-name="w" unicode="w" horiz-adv-x="1539" 
d="M374 0l-309 1077h78l275 -985h7l299 985h88l299 -985h7l278 985h78l-313 -1077h-91l-299 974h-7l-298 -974h-92z" />
    <glyph glyph-name="x" unicode="x" horiz-adv-x="1012" 
d="M67 0l395 545l-396 532h95l342 -469h8l341 469h92l-394 -530l396 -547h-94l-344 484h-7l-343 -484h-91z" />
    <glyph glyph-name="y" unicode="y" horiz-adv-x="1036" 
d="M230 -365q-14 0 -36 2v67q10 -1 33 -1q78 0 126.5 39.5t85.5 139.5l38 103l-412 1092h84l365 -997h9l365 997h83l-456 -1207q-49 -130 -112 -182.5t-173 -52.5z" />
    <glyph glyph-name="z" unicode="z" horiz-adv-x="1052" 
d="M124 0v65l710 937v7h-710v68h803v-66l-711 -936v-7h712v-68h-804z" />
    <glyph glyph-name="braceleft" unicode="{" horiz-adv-x="710" 
d="M587 -353q-150 0 -218.5 73t-68.5 237v344q0 125 -48.5 174t-178.5 49v113q131 0 179 49t48 176v340q0 162 68 233t219 71h50v-67h-46q-112 0 -164 -54.5t-52 -186.5v-377q0 -113 -52 -168.5t-174 -61.5v-20q122 -5 174 -60.5t52 -168.5v-378q0 -133 54 -191.5t162 -58.5
h46v-67h-50z" />
    <glyph glyph-name="bar" unicode="|" horiz-adv-x="446" 
d="M187 -353v1796h73v-1796h-73z" />
    <glyph glyph-name="braceright" unicode="}" horiz-adv-x="710" 
d="M123 -353h-50v67h46q108 0 162 58.5t54 191.5v378q0 113 52 168.5t174 60.5v20q-122 6 -174 61.5t-52 168.5v377q0 132 -52 186.5t-164 54.5h-46v67h50q151 0 219 -71t68 -233v-340q0 -127 48 -176t179 -49v-113q-130 0 -178.5 -49t-48.5 -174v-344q0 -164 -68.5 -237
t-218.5 -73z" />
    <glyph glyph-name="asciitilde" unicode="~" horiz-adv-x="1261" 
d="M878 464q-58 0 -129 26t-127 56.5t-124.5 56.5t-123.5 26q-79 0 -137.5 -32t-110.5 -91v75q101 118 257 118q58 0 129 -26t127 -56.5t125 -56.5t123 -26q140 0 248 122v-74q-98 -118 -257 -118z" />
    <glyph glyph-name="nonbreakingspace" unicode="&#xa0;" horiz-adv-x="520" 
 />
    <glyph glyph-name="exclamationmarkinverted" unicode="&#xa1;" horiz-adv-x="590" 
d="M296 1085q33 0 54.5 -21.5t21.5 -54.5q0 -34 -21.5 -55.5t-54.5 -21.5q-34 0 -55 21.5t-21 55.5q0 33 21 54.5t55 21.5zM333 650l5 -1017h-85l5 1017h75z" />
    <glyph glyph-name="centsign" unicode="&#xa2;" horiz-adv-x="1261" 
d="M620 0v176q-207 13 -327.5 158.5t-120.5 386.5v2q0 238 121 384.5t327 158.5v177h62v-177q163 -8 275.5 -101.5t137.5 -229.5l1 -7l-77 -1l-2 7q-24 109 -114 182t-221 80v-950q131 7 220.5 76.5t113.5 177.5l2 7h77l-2 -8q-24 -137 -136 -226.5t-275 -96.5v-176h-62z
M250 721q0 -209 99 -335.5t271 -138.5v949q-172 -13 -271 -139t-99 -334v-2z" />
    <glyph glyph-name="sterlingsign" unicode="&#xa3;" horiz-adv-x="1261" 
d="M108 30v71q143 25 230.5 119.5t87.5 223.5q0 101 -43 239h-242v65h221q-55 171 -55 271q0 193 124 298t353 105q80 0 159 -17t131 -45v-74q-52 29 -129.5 46.5t-158.5 17.5q-190 0 -294 -86t-104 -244q0 -100 56 -272h523v-65h-503q40 -133 40 -237q0 -118 -66.5 -211.5
t-177.5 -127.5v-7h891v-70h-1043z" />
    <glyph glyph-name="currencysign" unicode="&#xa4;" horiz-adv-x="1261" 
d="M1013 722v-1q0 -140 -88 -246l186 -185l-49 -50l-186 186q-106 -87 -245 -87h-1q-139 0 -245 88l-186 -187l-49 50l186 186q-87 104 -87 245v1q0 141 87 245l-186 186l49 49l186 -186q106 88 245 88h1q140 0 246 -88l185 186l49 -49l-185 -186q87 -106 87 -245zM952 723
q0 134 -93 227t-227 93h-3q-134 0 -227 -93t-93 -227v-3q0 -134 93 -227t227 -93h3q134 0 227 93t93 227v3z" />
    <glyph glyph-name="yensign" unicode="&#xa5;" horiz-adv-x="1261" 
d="M246 370v61h346v188h-346v61h311l-475 733h92l455 -711h5l454 711h92l-475 -733h335v-61h-369v-188h369v-61h-369v-340h-79v340h-346z" />
    <glyph glyph-name="brokenbar" unicode="&#xa6;" horiz-adv-x="446" 
d="M260 1444v-712h-73v712h73zM187 -353v711h73v-711h-73z" />
    <glyph glyph-name="section" unicode="&#xa7;" horiz-adv-x="1116" 
d="M563 -187q-151 0 -251.5 71.5t-117.5 189.5l-2 12h78l2 -9q17 -89 97 -142t197 -53q120 0 198 60.5t78 154.5v2q0 80 -57.5 129.5t-182.5 85.5l-104 29q-166 47 -242 114.5t-77 176.5v2q0 103 68 176t185 98v6q-123 43 -177 105.5t-54 156.5v2q0 126 99 206.5t254 80.5
q149 0 248 -70t118 -187l2 -13h-77l-2 10q-16 86 -95 138.5t-196 52.5q-119 0 -196.5 -60.5t-77.5 -153.5v-2q0 -81 56.5 -130.5t180.5 -85.5l104 -30q167 -49 243 -114.5t76 -172.5v-2q0 -105 -68 -179t-185 -99v-5q124 -43 178.5 -104.5t54.5 -155.5v-2
q0 -126 -100 -207.5t-255 -81.5zM514 413l71 -20q125 10 199.5 74.5t74.5 166.5v2q0 86 -61 139t-195 91l-72 20q-125 -10 -199.5 -74.5t-74.5 -166.5v-2q0 -85 61 -138t196 -92z" />
    <glyph glyph-name="dieresis" unicode="&#xa8;" horiz-adv-x="1024" 
d="M314 1327q-26 0 -44 18.5t-18 43.5t18 43.5t44 18.5t44.5 -18t18.5 -44t-18.5 -44t-44.5 -18zM710 1327q-26 0 -44.5 18t-18.5 44t18.5 44t44.5 18t44 -18.5t18 -43.5t-18 -43.5t-44 -18.5z" />
    <glyph glyph-name="copyright" unicode="&#xa9;" horiz-adv-x="1759" 
d="M1632 726v-9q0 -206 -99 -378t-271 -271t-378 -99h-9q-206 0 -378 99t-271 271t-99 378v9q0 206 99 378t271 271t378 99h9q206 0 378 -99t271 -271t99 -378zM1570 726q0 94 -24.5 183.5t-68 164.5t-107 138.5t-138.5 107t-164.5 68t-183.5 24.5h-9q-94 0 -183.5 -24.5
t-164.5 -68t-138.5 -107t-107 -138.5t-68 -164.5t-24.5 -183.5v-9q0 -94 24.5 -183.5t68 -164.5t107 -138.5t138.5 -107t164.5 -68t183.5 -24.5h9q94 0 183.5 24.5t164.5 68t138.5 107t107 138.5t68 164.5t24.5 183.5v9zM894 378q-143 0 -226 92t-83 251v1q0 158 83 250.5
t226 92.5q109 0 188 -63.5t91 -160.5l-1 -1l-61 -1l-1 2q-12 71 -73.5 118t-142.5 47q-112 0 -178 -77t-66 -207v-1q0 -130 66 -207t178 -77q84 0 144.5 43t71.5 111l1 2h62v-2q-11 -95 -88 -154t-191 -59z" />
    <glyph glyph-name="a.sups" unicode="&#xaa;" horiz-adv-x="740" 
d="M309 815q-96 0 -156 49t-60 130v1q0 79 60 124.5t173 53.5l215 14v59q0 73 -46 112.5t-129 39.5q-73 0 -122.5 -28.5t-62.5 -81.5h-62v1q13 76 80.5 120.5t168.5 44.5q111 0 173 -54.5t62 -153.5v-422h-62v118h-6q-27 -59 -87.5 -93t-138.5 -34zM156 995q0 -56 46.5 -91
t118.5 -35q92 0 156 54t64 131v83l-205 -14q-180 -12 -180 -127v-1z" />
    <glyph glyph-name="guillemetleft" unicode="&#xab;" horiz-adv-x="1283" 
d="M564 155l-371 410v5l371 409h94l-365 -407v-9l365 -408h-94zM935 155l-370 410v5l370 409h95l-366 -407v-9l366 -408h-95z" />
    <glyph glyph-name="logicalnot" unicode="&#xac;" horiz-adv-x="1261" 
d="M126 548v72h1009v-574h-73v502h-936z" />
    <glyph glyph-name="registered" unicode="&#xae;" horiz-adv-x="1290" 
d="M1164 952v-7q0 -106 -40.5 -201.5t-109 -164t-164 -109t-201.5 -40.5h-7q-142 0 -260.5 68t-186.5 186.5t-68 260.5v7q0 142 68 260.5t186.5 186.5t260.5 68h7q106 0 201.5 -40.5t164 -109t109 -164t40.5 -201.5zM1102 952q0 190 -131 321.5t-322 131.5h-7
q-191 0 -322.5 -131.5t-131.5 -321.5v-7q0 -191 132 -322.5t322 -131.5h7q190 0 321.5 131.5t131.5 322.5v7zM451 670v557h208q91 0 142.5 -45t51.5 -122q0 -58 -33.5 -99.5t-92.5 -56.5l142 -234h-69l-135 224h-153v-224h-61zM511 944h142q65 0 101.5 30.5t36.5 84.5
q0 53 -37.5 84t-101.5 31h-141v-230z" />
    <glyph glyph-name="macron" unicode="&#xaf;" horiz-adv-x="1024" 
d="M220 1356v66h584v-66h-584z" />
    <glyph glyph-name="degree" unicode="&#xb0;" horiz-adv-x="986" 
d="M493 798q-128 0 -216.5 88.5t-88.5 215.5v2q0 127 88.5 215.5t216.5 88.5t216.5 -88.5t88.5 -215.5v-2q0 -126 -88.5 -215t-216.5 -89zM493 864q98 0 166 70.5t68 167.5v2q0 98 -68.5 167.5t-165.5 69.5q-98 0 -166 -69.5t-68 -167.5v-2q0 -98 68 -168t166 -70z" />
    <glyph glyph-name="plusminus" unicode="&#xb1;" horiz-adv-x="1261" 
d="M596 131v471h-439v73h439v470h71v-470h437v-73h-437v-471h-71zM157 22v63h947v-63h-947z" />
    <glyph glyph-name="two.sups" unicode="&#xb2;" horiz-adv-x="641" 
d="M88 824v48l253 249q83 81 111 124t28 89v1q0 62 -46.5 102.5t-118.5 40.5q-74 0 -121.5 -41.5t-48.5 -107.5v-1h-61v1q2 90 67.5 147.5t166.5 57.5q97 0 161.5 -55t64.5 -139v-1q0 -57 -34.5 -111.5t-128.5 -145.5l-206 -197v-3h391v-58h-478z" />
    <glyph glyph-name="three.sups" unicode="&#xb3;" horiz-adv-x="655" 
d="M327 813q-108 0 -175.5 52.5t-76.5 136.5l-1 4h61l1 -4q9 -58 60.5 -95.5t130.5 -37.5q82 0 135.5 42t53.5 106q0 67 -53 104.5t-147 37.5h-83v53h81q78 0 126.5 37t48.5 96v1q0 58 -46 94.5t-120 36.5q-72 0 -119 -35.5t-53 -91.5v-5h-60v5q8 81 71 132t161 51
q101 0 165 -50.5t64 -128.5v-1q0 -64 -42.5 -107.5t-114.5 -56.5v-2q85 -6 135 -52t50 -119v-1q0 -88 -71.5 -145t-181.5 -57z" />
    <glyph glyph-name="acute" unicode="&#xb4;" horiz-adv-x="1024" 
d="M438 1231h-74l202 315h94z" />
    <glyph glyph-name="mu.grek" unicode="&#x3bc;" horiz-adv-x="1252" 
d="M185 -353v1430h78v-677q0 -165 84 -256t236 -91q156 0 252 106t96 275v643h78v-868q0 -79 26 -114t85 -35q31 0 61 9v-69q-30 -10 -74 -10q-86 0 -127.5 44t-45.5 141v48h-8q-41 -113 -130.5 -176.5t-214.5 -63.5q-118 0 -201.5 53t-109.5 144h-7v-533h-78z" />
    <glyph glyph-name="mu.grek" unicode="&#xb5;" horiz-adv-x="1252" 
d="M185 -353v1430h78v-677q0 -165 84 -256t236 -91q156 0 252 106t96 275v643h78v-868q0 -79 26 -114t85 -35q31 0 61 9v-69q-30 -10 -74 -10q-86 0 -127.5 44t-45.5 141v48h-8q-41 -113 -130.5 -176.5t-214.5 -63.5q-118 0 -201.5 53t-109.5 144h-7v-533h-78z" />
    <glyph glyph-name="paragraph" unicode="&#xb6;" horiz-adv-x="1116" 
d="M606 -162v820h-20q-191 0 -316 110t-126 277v2q0 177 122.5 286.5t320.5 109.5h93v-1605h-74zM856 -162v1605h73v-1605h-73z" />
    <glyph glyph-name="middledot" unicode="&#xb7;" horiz-adv-x="573" 
d="M287 510q-31 0 -52.5 21t-21.5 53t21.5 53t52.5 21t52.5 -21.5t21.5 -52.5t-21.5 -52.5t-52.5 -21.5z" />
    <glyph glyph-name="cedilla" unicode="&#xb8;" horiz-adv-x="1024" 
d="M488 -494q-75 0 -143 22v61q55 -22 134 -22q62 0 105.5 32t43.5 86v2q0 124 -168 124h-43v47l77 160h61v-18l-64 -131q98 0 156 -46.5t58 -132.5v-2q0 -84 -62.5 -133t-154.5 -49z" />
    <glyph glyph-name="one.sups" unicode="&#xb9;" horiz-adv-x="456" 
d="M257 824v628h-4l-191 -120v65l195 124h63v-697h-63z" />
    <glyph glyph-name="o.sups" unicode="&#xba;" horiz-adv-x="798" 
d="M399 814q-134 0 -213.5 86t-79.5 233v1q0 147 79.5 233.5t213.5 86.5t213.5 -86.5t79.5 -233.5v-1q0 -147 -79 -233t-214 -86zM399 870q106 0 167.5 71t61.5 192v1q0 121 -62 192t-167 71q-106 0 -167.5 -71t-61.5 -192v-1q0 -121 61.5 -192t167.5 -71z" />
    <glyph glyph-name="guillemetright" unicode="&#xbb;" horiz-adv-x="1283" 
d="M719 979l371 -409v-5l-371 -410h-94l365 408v9l-365 407h94zM348 979l370 -409v-5l-370 -410h-95l366 408v9l-366 407h95z" />
    <glyph glyph-name="onequarter" unicode="&#xbc;" horiz-adv-x="1461" 
d="M257 746v628h-4l-191 -120v65l195 124h63v-697h-63zM237 0h-77l965 1443h77zM1215 0v161h-376v58q48 75 81.5 124t102 141t165.5 214h88v-479h112v-58h-112v-161h-61zM903 217h312v422h-4q-132 -165 -192 -247t-116 -170v-5z" />
    <glyph glyph-name="onehalf" unicode="&#xbd;" horiz-adv-x="1514" 
d="M257 746v628h-4l-191 -120v65l195 124h63v-697h-63zM237 0h-77l965 1443h77zM961 0v48l253 249q83 81 111 124t28 89v1q0 62 -46.5 102.5t-118.5 40.5q-74 0 -121.5 -42t-48.5 -108h-61q1 91 67 148.5t167 57.5q97 0 161.5 -55t64.5 -139v-1q0 -57 -34.5 -111.5
t-128.5 -145.5l-206 -197v-3h391v-58h-478z" />
    <glyph glyph-name="threequarters" unicode="&#xbe;" horiz-adv-x="1670" 
d="M327 735q-108 0 -175.5 52.5t-76.5 136.5l-1 4h61l1 -4q9 -58 60.5 -95.5t130.5 -37.5q82 0 135.5 42t53.5 106q0 67 -53 104.5t-147 37.5h-83v53h81q78 0 126.5 37t48.5 96v1q0 58 -46 94.5t-120 36.5q-72 0 -119 -35.5t-53 -91.5v-5h-60v5q8 81 71 132t161 51
q101 0 165 -50.5t64 -128.5v-1q0 -64 -42.5 -107.5t-114.5 -56.5v-2q85 -6 135 -52t50 -119v-1q0 -88 -71.5 -145t-181.5 -57zM435 0h-77l965 1443h77zM1424 0v161h-376v58q68 107 138 204.5t210 274.5h89v-479h112v-58h-112v-161h-61zM1112 217h312v422h-5
q-205 -256 -307 -417v-5z" />
    <glyph glyph-name="questionmarkinverted" unicode="&#xbf;" horiz-adv-x="979" 
d="M524 1085q33 0 54.5 -21.5t21.5 -54.5q0 -34 -21.5 -55.5t-54.5 -21.5q-34 0 -55 21.5t-21 55.5q0 33 21 54.5t55 21.5zM573 669v-98q0 -99 -43 -167.5t-153 -143.5q-104 -73 -146.5 -137.5t-42.5 -148.5v-2q0 -123 89 -203.5t223 -80.5q130 0 218.5 80t100.5 211l2 1
l75 1l-1 -2q-9 -156 -119 -259t-278 -103q-169 0 -280 100.5t-111 251.5v2q0 101 50.5 179.5t162.5 156.5q103 71 139 127t36 145v90h78z" />
    <glyph glyph-name="Agrave" unicode="&#xc0;" horiz-adv-x="1341" 
d="M641 1590l-212 300h92l192 -300h-72zM80 0l550 1443h80l550 -1443h-85l-181 481h-649l-181 -481h-84zM666 1335l-294 -783h596l-294 783h-8z" />
    <glyph glyph-name="Aacute" unicode="&#xc1;" horiz-adv-x="1341" 
d="M702 1590h-72l191 300h93zM80 0l550 1443h80l550 -1443h-85l-181 481h-649l-181 -481h-84zM666 1335l-294 -783h596l-294 783h-8z" />
    <glyph glyph-name="Acircumflex" unicode="&#xc2;" horiz-adv-x="1341" 
d="M382 1590l242 300h91l242 -300h-88l-196 245h-7l-196 -245h-88zM80 0l550 1443h80l550 -1443h-85l-181 481h-649l-181 -481h-84zM666 1335l-294 -783h596l-294 783h-8z" />
    <glyph glyph-name="Atilde" unicode="&#xc3;" horiz-adv-x="1341" 
d="M812 1613q-76 0 -152 82l-19 19q-34 37 -58 52t-50 15q-40 0 -64.5 -43.5t-24.5 -113.5v-13h-67v14q0 98 41 158.5t111 60.5q76 0 152 -82l18 -18q35 -37 59 -52.5t50 -15.5q40 0 64 44t24 114v13h67v-15q0 -99 -40.5 -159t-110.5 -60zM80 0l550 1443h80l550 -1443h-85
l-181 481h-649l-181 -481h-84zM666 1335l-294 -783h596l-294 783h-8z" />
    <glyph glyph-name="Adieresis" unicode="&#xc4;" horiz-adv-x="1341" 
d="M481 1680q-25 0 -43 18t-18 43t18 42.5t43 17.5t43 -17.5t18 -42.5t-18 -43t-43 -18zM859 1680q-25 0 -43 18t-18 43t18 42.5t43 17.5t42.5 -17.5t17.5 -42.5t-17.5 -43t-42.5 -18zM80 0l550 1443h80l550 -1443h-85l-181 481h-649l-181 -481h-84zM666 1335l-294 -783h596
l-294 783h-8z" />
    <glyph glyph-name="Aring" unicode="&#x212b;" horiz-adv-x="1341" 
d="M671 1570q-71 0 -121.5 50t-50.5 120t50.5 119.5t121.5 49.5q72 0 122.5 -49.5t50.5 -119.5q0 -71 -50.5 -120.5t-122.5 -49.5zM671 1623q50 0 84.5 33.5t34.5 83.5q0 49 -34.5 82.5t-84.5 33.5t-84.5 -33.5t-34.5 -82.5q0 -50 34.5 -83.5t84.5 -33.5zM80 0l550 1443h80
l550 -1443h-85l-181 481h-649l-181 -481h-84zM666 1335l-294 -783h596l-294 783h-8z" />
    <glyph glyph-name="Aring" unicode="&#xc5;" horiz-adv-x="1341" 
d="M671 1570q-71 0 -121.5 50t-50.5 120t50.5 119.5t121.5 49.5q72 0 122.5 -49.5t50.5 -119.5q0 -71 -50.5 -120.5t-122.5 -49.5zM671 1623q50 0 84.5 33.5t34.5 83.5q0 49 -34.5 82.5t-84.5 33.5t-84.5 -33.5t-34.5 -82.5q0 -50 34.5 -83.5t84.5 -33.5zM80 0l550 1443h80
l550 -1443h-85l-181 481h-649l-181 -481h-84zM666 1335l-294 -783h596l-294 783h-8z" />
    <glyph glyph-name="AE" unicode="&#xc6;" horiz-adv-x="1941" 
d="M81 0l712 1443h1010v-73h-702v-597h666v-72h-666v-628h702v-73h-780v522h-601l-258 -522h-83zM843 1373l-386 -780h566v780h-180z" />
    <glyph glyph-name="Ccedilla" unicode="&#xc7;" horiz-adv-x="1441" 
d="M731 -494q-73 0 -143 22v61q57 -22 135 -22q62 0 105.5 32t43.5 86v2q0 124 -168 124h-44v47l58 119q-275 15 -433 213.5t-158 530.5v2q0 343 170.5 543.5t462.5 200.5q216 0 377.5 -135t186.5 -336l-1 -1l-79 -1v2q-26 169 -165 283t-319 114q-252 0 -402.5 -182.5
t-150.5 -487.5v-2q0 -307 150 -489t403 -182q190 0 325.5 104t158.5 267l1 1l79 1v-2q-22 -192 -170.5 -314t-366.5 -130l-52 -108q98 0 155.5 -46.5t57.5 -132.5v-2q0 -84 -62.5 -133t-154.5 -49z" />
    <glyph glyph-name="Egrave" unicode="&#xc8;" horiz-adv-x="1166" 
d="M579 1590l-212 300h92l192 -300h-72zM187 0v1443h841v-73h-762v-594h726v-72h-726v-631h762v-73h-841z" />
    <glyph glyph-name="Eacute" unicode="&#xc9;" horiz-adv-x="1166" 
d="M640 1590h-72l191 300h93zM187 0v1443h841v-73h-762v-594h726v-72h-726v-631h762v-73h-841z" />
    <glyph glyph-name="Ecircumflex" unicode="&#xca;" horiz-adv-x="1166" 
d="M320 1590l243 300h90l242 -300h-88l-196 245h-7l-196 -245h-88zM187 0v1443h841v-73h-762v-594h726v-72h-726v-631h762v-73h-841z" />
    <glyph glyph-name="Edieresis" unicode="&#xcb;" horiz-adv-x="1166" 
d="M419 1680q-25 0 -42.5 18t-17.5 43t17.5 42.5t42.5 17.5t43 -17.5t18 -42.5t-18 -43t-43 -18zM797 1680q-25 0 -43 18t-18 43t18 42.5t43 17.5t42.5 -17.5t17.5 -42.5t-17.5 -43t-42.5 -18zM187 0v1443h841v-73h-762v-594h726v-72h-726v-631h762v-73h-841z" />
    <glyph glyph-name="Igrave" unicode="&#xcc;" horiz-adv-x="453" 
d="M197 1590l-211 300h92l192 -300h-73zM187 0v1443h79v-1443h-79z" />
    <glyph glyph-name="Iacute" unicode="&#xcd;" horiz-adv-x="453" 
d="M259 1590h-73l192 300h92zM187 0v1443h79v-1443h-79z" />
    <glyph glyph-name="Icircumflex" unicode="&#xce;" horiz-adv-x="453" 
d="M-61 1590l242 300h90l243 -300h-88l-197 245h-6l-197 -245h-87zM187 0v1443h79v-1443h-79z" />
    <glyph glyph-name="Idieresis" unicode="&#xcf;" horiz-adv-x="453" 
d="M38 1680q-25 0 -43 18t-18 43t18 42.5t43 17.5t43 -17.5t18 -42.5t-18 -43t-43 -18zM415 1680q-25 0 -43 18t-18 43t18 42.5t43 17.5t43 -17.5t18 -42.5t-18 -43t-43 -18zM187 0v1443h79v-1443h-79z" />
    <glyph glyph-name="Dstroke" unicode="&#x110;" horiz-adv-x="1512" 
d="M249 0v687h-187v70h187v686h449q334 0 511 -192t177 -528v-2q0 -337 -177 -529t-511 -192h-449zM328 73h366q292 0 451.5 172.5t159.5 474.5v2q0 303 -159.5 475.5t-451.5 172.5h-366v-613h401v-70h-401v-614z" />
    <glyph glyph-name="Dstroke" unicode="&#xd0;" horiz-adv-x="1512" 
d="M249 0v687h-187v70h187v686h449q334 0 511 -192t177 -528v-2q0 -337 -177 -529t-511 -192h-449zM328 73h366q292 0 451.5 172.5t159.5 474.5v2q0 303 -159.5 475.5t-451.5 172.5h-366v-613h401v-70h-401v-614z" />
    <glyph glyph-name="Ntilde" unicode="&#xd1;" horiz-adv-x="1460" 
d="M872 1613q-76 0 -152 82l-19 19q-34 37 -58 52t-50 15q-40 0 -64.5 -43.5t-24.5 -113.5v-13h-67v14q0 98 41 158.5t110 60.5q77 0 153 -82l18 -18q35 -37 59 -52.5t50 -15.5q40 0 64 44t24 114v13h67v-15q0 -99 -40.5 -159t-110.5 -60zM187 0v1443h82l918 -1297h7v1297
h79v-1443h-75l-925 1304h-7v-1304h-79z" />
    <glyph glyph-name="Ograve" unicode="&#xd2;" horiz-adv-x="1537" 
d="M739 1590l-212 300h93l191 -300h-72zM768 -24q-298 0 -469.5 200t-171.5 545v2q0 344 172.5 544t468.5 200q297 0 469.5 -200t172.5 -544v-2q0 -345 -172 -545t-470 -200zM768 50q257 0 409.5 182.5t152.5 488.5v2q0 306 -152.5 488t-409.5 182t-409 -182t-152 -488v-2
q0 -306 152 -488.5t409 -182.5z" />
    <glyph glyph-name="Oacute" unicode="&#xd3;" horiz-adv-x="1537" 
d="M801 1590h-73l192 300h92zM768 -24q-298 0 -469.5 200t-171.5 545v2q0 344 172.5 544t468.5 200q297 0 469.5 -200t172.5 -544v-2q0 -345 -172 -545t-470 -200zM768 50q257 0 409.5 182.5t152.5 488.5v2q0 306 -152.5 488t-409.5 182t-409 -182t-152 -488v-2
q0 -306 152 -488.5t409 -182.5z" />
    <glyph glyph-name="Ocircumflex" unicode="&#xd4;" horiz-adv-x="1537" 
d="M480 1590l243 300h90l243 -300h-88l-197 245h-6l-197 -245h-88zM768 -24q-298 0 -469.5 200t-171.5 545v2q0 344 172.5 544t468.5 200q297 0 469.5 -200t172.5 -544v-2q0 -345 -172 -545t-470 -200zM768 50q257 0 409.5 182.5t152.5 488.5v2q0 306 -152.5 488t-409.5 182
t-409 -182t-152 -488v-2q0 -306 152 -488.5t409 -182.5z" />
    <glyph glyph-name="Otilde" unicode="&#xd5;" horiz-adv-x="1537" 
d="M911 1613q-76 0 -153 82l-18 19q-34 37 -58 52t-50 15q-40 0 -65 -44t-25 -113v-13h-67v14q0 98 41 158.5t111 60.5q43 0 78 -19.5t75 -62.5l18 -18q62 -68 108 -68q41 0 65 44t24 114v13h67v-15q0 -99 -40.5 -159t-110.5 -60zM768 -24q-298 0 -469.5 200t-171.5 545v2
q0 344 172.5 544t468.5 200q297 0 469.5 -200t172.5 -544v-2q0 -345 -172 -545t-470 -200zM768 50q257 0 409.5 182.5t152.5 488.5v2q0 306 -152.5 488t-409.5 182t-409 -182t-152 -488v-2q0 -306 152 -488.5t409 -182.5z" />
    <glyph glyph-name="Odieresis" unicode="&#xd6;" horiz-adv-x="1537" 
d="M579 1680q-25 0 -42.5 18t-17.5 43t17.5 42.5t42.5 17.5q26 0 44 -17.5t18 -42.5t-18.5 -43t-43.5 -18zM957 1680q-25 0 -43 18t-18 43t18 42.5t43 17.5t43 -17.5t18 -42.5t-18 -43t-43 -18zM768 -24q-298 0 -469.5 200t-171.5 545v2q0 344 172.5 544t468.5 200
q297 0 469.5 -200t172.5 -544v-2q0 -345 -172 -545t-470 -200zM768 50q257 0 409.5 182.5t152.5 488.5v2q0 306 -152.5 488t-409.5 182t-409 -182t-152 -488v-2q0 -306 152 -488.5t409 -182.5z" />
    <glyph glyph-name="multiply" unicode="&#xd7;" horiz-adv-x="1261" 
d="M193 990l49 48l389 -405l389 405l49 -48l-390 -407l390 -406l-49 -48l-389 405l-389 -405l-49 48l391 406z" />
    <glyph glyph-name="Ostroke" unicode="&#xd8;" horiz-adv-x="1534" 
d="M768 -24q-266 0 -434 162l-136 -166l-52 42l142 174q-161 198 -161 533v2q0 344 172 544t469 200q264 0 433 -163l137 168l51 -43l-143 -175q162 -199 162 -531v-2q0 -345 -171.5 -545t-468.5 -200zM202 721q0 -290 138 -470l811 993q-149 151 -383 151
q-259 0 -412.5 -182t-153.5 -490v-2zM768 48q258 0 411.5 183t153.5 490v2q0 290 -137 469l-812 -992q149 -152 384 -152z" />
    <glyph glyph-name="Ugrave" unicode="&#xd9;" horiz-adv-x="1451" 
d="M696 1590l-211 300h92l192 -300h-73zM725 -24q-248 0 -393.5 142.5t-145.5 379.5v945h80v-941q0 -208 123.5 -330t335.5 -122q214 0 337 122t123 330v941h80v-945q0 -238 -145.5 -380t-394.5 -142z" />
    <glyph glyph-name="Uacute" unicode="&#xda;" horiz-adv-x="1451" 
d="M758 1590h-73l192 300h92zM725 -24q-248 0 -393.5 142.5t-145.5 379.5v945h80v-941q0 -208 123.5 -330t335.5 -122q214 0 337 122t123 330v941h80v-945q0 -238 -145.5 -380t-394.5 -142z" />
    <glyph glyph-name="Ucircumflex" unicode="&#xdb;" horiz-adv-x="1451" 
d="M438 1590l242 300h90l243 -300h-88l-197 245h-6l-197 -245h-87zM725 -24q-248 0 -393.5 142.5t-145.5 379.5v945h80v-941q0 -208 123.5 -330t335.5 -122q214 0 337 122t123 330v941h80v-945q0 -238 -145.5 -380t-394.5 -142z" />
    <glyph glyph-name="Udieresis" unicode="&#xdc;" horiz-adv-x="1451" 
d="M537 1680q-25 0 -43 18t-18 43t18 42.5t43 17.5t43 -17.5t18 -42.5t-18 -43t-43 -18zM914 1680q-25 0 -43 18t-18 43t18 42.5t43 17.5t43 -17.5t18 -42.5t-18 -43t-43 -18zM725 -24q-248 0 -393.5 142.5t-145.5 379.5v945h80v-941q0 -208 123.5 -330t335.5 -122
q214 0 337 122t123 330v941h80v-945q0 -238 -145.5 -380t-394.5 -142z" />
    <glyph glyph-name="Yacute" unicode="&#xdd;" horiz-adv-x="1289" 
d="M677 1590h-73l192 300h92zM605 0v629l-524 814h92l468 -731h8l467 731h92l-523 -814v-629h-80z" />
    <glyph glyph-name="Thorn" unicode="&#xde;" horiz-adv-x="1257" 
d="M187 0v1443h79v-285h405q197 0 318.5 -108.5t121.5 -294.5v-2q0 -186 -120.5 -293.5t-320.5 -107.5h-404v-352h-79zM657 1085h-391v-661h391q175 0 274.5 88t99.5 241v2q0 153 -100 241.5t-274 88.5z" />
    <glyph glyph-name="germandbls" unicode="&#xdf;" horiz-adv-x="1169" 
d="M628 -17q-93 0 -171 18v71q74 -19 167 -19q167 0 269 98t102 253v2q0 155 -113.5 255t-303.5 100h-98v68h95q126 0 213 93.5t87 230.5v2q0 131 -83 214.5t-218 83.5q-149 0 -227 -90t-78 -249v-1114h-77v1123q0 185 101.5 292.5t278.5 107.5q169 0 275 -103t106 -262v-2
q0 -124 -69.5 -222.5t-172.5 -126.5v-7q155 -15 259 -124t104 -270v-2q0 -182 -123.5 -301.5t-322.5 -119.5z" />
    <glyph glyph-name="agrave" unicode="&#xe0;" horiz-adv-x="1118" 
d="M533 1231l-222 315h94l202 -315h-74zM476 -17q-159 0 -259 85t-100 223v2q0 136 98 214t284 92l371 28v105q0 141 -81 216t-226 75q-129 0 -216 -55t-109 -156v-2h-78v3q22 130 132 205t273 75q179 0 280.5 -94t101.5 -266v-733h-77v220h-8q-44 -109 -148 -173t-238 -64z
M195 292q0 -107 81 -173t210 -66q161 0 272.5 101t111.5 247v160l-359 -27q-156 -12 -236 -73t-80 -167v-2z" />
    <glyph glyph-name="aacute" unicode="&#xe1;" horiz-adv-x="1118" 
d="M597 1231h-74l202 315h94zM476 -17q-159 0 -259 85t-100 223v2q0 136 98 214t284 92l371 28v105q0 141 -81 216t-226 75q-129 0 -216 -55t-109 -156v-2h-78v3q22 130 132 205t273 75q179 0 280.5 -94t101.5 -266v-733h-77v220h-8q-44 -109 -148 -173t-238 -64zM195 292
q0 -107 81 -173t210 -66q161 0 272.5 101t111.5 247v160l-359 -27q-156 -12 -236 -73t-80 -167v-2z" />
    <glyph glyph-name="acircumflex" unicode="&#xe2;" horiz-adv-x="1118" 
d="M264 1231l255 315h92l255 -315h-90l-208 259h-6l-209 -259h-89zM476 -17q-159 0 -259 85t-100 223v2q0 136 98 214t284 92l371 28v105q0 141 -81 216t-226 75q-129 0 -216 -55t-109 -156v-2h-78v3q22 130 132 205t273 75q179 0 280.5 -94t101.5 -266v-733h-77v220h-8
q-44 -109 -148 -173t-238 -64zM195 292q0 -107 81 -173t210 -66q161 0 272.5 101t111.5 247v160l-359 -27q-156 -12 -236 -73t-80 -167v-2z" />
    <glyph glyph-name="atilde" unicode="&#xe3;" horiz-adv-x="1118" 
d="M714 1256q-79 0 -160 86l-19 21q-36 39 -61 55t-54 16q-42 0 -68 -46.5t-26 -120.5v-14h-68v16q0 103 42.5 166t115.5 63q79 0 160 -86l19 -21q37 -39 62 -55t53 -16q42 0 68 46.5t26 120.5v14h68v-16q0 -103 -42.5 -166t-115.5 -63zM476 -17q-159 0 -259 85t-100 223v2
q0 136 98 214t284 92l371 28v105q0 141 -81 216t-226 75q-129 0 -216 -55t-109 -156v-2h-78v3q22 130 132 205t273 75q179 0 280.5 -94t101.5 -266v-733h-77v220h-8q-44 -109 -148 -173t-238 -64zM195 292q0 -107 81 -173t210 -66q161 0 272.5 101t111.5 247v160l-359 -27
q-156 -12 -236 -73t-80 -167v-2z" />
    <glyph glyph-name="adieresis" unicode="&#xe4;" horiz-adv-x="1118" 
d="M367 1327q-26 0 -44 18t-18 44t18 44t44 18t44 -18t18 -44t-18 -44t-44 -18zM762 1327q-26 0 -44 18.5t-18 43.5t18 43.5t44 18.5t44 -18t18 -44t-18 -44t-44 -18zM476 -17q-159 0 -259 85t-100 223v2q0 136 98 214t284 92l371 28v105q0 141 -81 216t-226 75
q-129 0 -216 -55t-109 -156v-2h-78v3q22 130 132 205t273 75q179 0 280.5 -94t101.5 -266v-733h-77v220h-8q-44 -109 -148 -173t-238 -64zM195 292q0 -107 81 -173t210 -66q161 0 272.5 101t111.5 247v160l-359 -27q-156 -12 -236 -73t-80 -167v-2z" />
    <glyph glyph-name="aring" unicode="&#xe5;" horiz-adv-x="1118" 
d="M565 1229q-79 0 -134.5 54.5t-55.5 131.5v1q0 77 55.5 131.5t134.5 54.5t134 -54.5t55 -131.5v-1q0 -77 -55 -131.5t-134 -54.5zM565 1285q56 0 94.5 37.5t38.5 92.5v1q0 55 -38.5 92.5t-94.5 37.5t-94.5 -37.5t-38.5 -92.5v-1q0 -55 38.5 -92.5t94.5 -37.5zM476 -17
q-159 0 -259 85t-100 223v2q0 136 98 214t284 92l371 28v105q0 141 -81 216t-226 75q-129 0 -216 -55t-109 -156v-2h-78v3q22 130 132 205t273 75q179 0 280.5 -94t101.5 -266v-733h-77v220h-8q-44 -109 -148 -173t-238 -64zM195 292q0 -107 81 -173t210 -66
q161 0 272.5 101t111.5 247v160l-359 -27q-156 -12 -236 -73t-80 -167v-2z" />
    <glyph glyph-name="ae" unicode="&#xe6;" horiz-adv-x="1922" 
d="M482 -17q-163 0 -264 83.5t-101 218.5v2q0 132 96.5 207t281.5 87l375 25v118q0 144 -79 221.5t-228 77.5q-129 0 -216.5 -55t-108.5 -157v-1h-78v1q21 131 131 207t274 76q153 0 250 -74.5t111 -204.5h8q45 123 153.5 201t257.5 78q210 0 332 -139t122 -375v-46h-852
v-10q2 -214 112.5 -342.5t294.5 -128.5q122 0 214.5 53t127.5 143h81q-39 -121 -154.5 -193.5t-269.5 -72.5q-157 0 -270.5 79.5t-159.5 225.5h-8q-40 -141 -157 -223t-276 -82zM948 600h771q-1 193 -103.5 308t-272.5 115q-171 0 -278.5 -115t-116.5 -308zM489 53
q160 0 270.5 101.5t110.5 248.5v137l-362 -24q-155 -10 -234 -68t-79 -160v-2q0 -103 82 -168t212 -65z" />
    <glyph glyph-name="ccedilla" unicode="&#xe7;" horiz-adv-x="1144" 
d="M573 -494q-73 0 -143 22v61q55 -22 135 -22q62 0 105 32t43 86v2q0 124 -168 124h-43v47l61 126q-203 13 -321.5 162.5t-118.5 394.5v2q0 252 128.5 401t346.5 149q167 0 284 -88t144 -228l-1 -1l-77 -1l-1 2q-29 111 -123.5 178.5t-225.5 67.5q-181 0 -288.5 -130.5
t-107.5 -349.5v-2q0 -222 107.5 -354.5t288.5 -132.5q133 0 226 62.5t121 170.5l2 3l77 1l-1 -5q-29 -132 -132 -213t-259 -89l-56 -115q98 0 156 -46.5t58 -132.5v-2q0 -84 -62.5 -133t-154.5 -49z" />
    <glyph glyph-name="egrave" unicode="&#xe8;" horiz-adv-x="1179" 
d="M563 1231l-221 315h93l203 -315h-75zM604 -17q-221 0 -351 149.5t-130 402.5v2q0 255 128.5 405.5t342.5 150.5q211 0 336.5 -146t125.5 -384v-39h-854q2 -217 111.5 -343.5t291.5 -126.5q126 0 220 53t128 136l3 6h79l-3 -8q-39 -113 -154 -185.5t-274 -72.5zM594 1023
q-168 0 -275.5 -116t-116.5 -316h777q-9 202 -113.5 317t-271.5 115z" />
    <glyph glyph-name="eacute" unicode="&#xe9;" horiz-adv-x="1179" 
d="M628 1231h-75l203 315h93zM604 -17q-221 0 -351 149.5t-130 402.5v2q0 255 128.5 405.5t342.5 150.5q211 0 336.5 -146t125.5 -384v-39h-854q2 -217 111.5 -343.5t291.5 -126.5q126 0 220 53t128 136l3 6h79l-3 -8q-39 -113 -154 -185.5t-274 -72.5zM594 1023
q-168 0 -275.5 -116t-116.5 -316h777q-9 202 -113.5 317t-271.5 115z" />
    <glyph glyph-name="ecircumflex" unicode="&#xea;" horiz-adv-x="1179" 
d="M295 1231l254 315h92l255 -315h-89l-209 259h-6l-208 -259h-89zM604 -17q-221 0 -351 149.5t-130 402.5v2q0 255 128.5 405.5t342.5 150.5q211 0 336.5 -146t125.5 -384v-39h-854q2 -217 111.5 -343.5t291.5 -126.5q126 0 220 53t128 136l3 6h79l-3 -8
q-39 -113 -154 -185.5t-274 -72.5zM594 1023q-168 0 -275.5 -116t-116.5 -316h777q-9 202 -113.5 317t-271.5 115z" />
    <glyph glyph-name="edieresis" unicode="&#xeb;" horiz-adv-x="1179" 
d="M397 1327q-25 0 -43.5 18.5t-18.5 43.5t18.5 43.5t43.5 18.5q26 0 44.5 -18t18.5 -44t-18.5 -44t-44.5 -18zM793 1327q-26 0 -44 18t-18 44t18 44t44 18q25 0 43.5 -18.5t18.5 -43.5t-18.5 -43.5t-43.5 -18.5zM604 -17q-221 0 -351 149.5t-130 402.5v2q0 255 128.5 405.5
t342.5 150.5q211 0 336.5 -146t125.5 -384v-39h-854q2 -217 111.5 -343.5t291.5 -126.5q126 0 220 53t128 136l3 6h79l-3 -8q-39 -113 -154 -185.5t-274 -72.5zM594 1023q-168 0 -275.5 -116t-116.5 -316h777q-9 202 -113.5 317t-271.5 115z" />
    <glyph glyph-name="igrave" unicode="&#xec;" horiz-adv-x="450" 
d="M193 1231l-222 315h94l202 -315h-74zM186 0v1077h78v-1077h-78z" />
    <glyph glyph-name="iacute" unicode="&#xed;" horiz-adv-x="450" 
d="M257 1231h-74l202 315h94zM186 0v1077h78v-1077h-78z" />
    <glyph glyph-name="icircumflex" unicode="&#xee;" horiz-adv-x="450" 
d="M-76 1231l255 315h92l255 -315h-90l-208 259h-6l-208 -259h-90zM186 0v1077h78v-1077h-78z" />
    <glyph glyph-name="idieresis" unicode="&#xef;" horiz-adv-x="450" 
d="M27 1327q-25 0 -43.5 18.5t-18.5 43.5t18.5 43.5t43.5 18.5q26 0 44.5 -18t18.5 -44t-18.5 -44t-44.5 -18zM423 1327q-26 0 -44.5 18t-18.5 44t18.5 44t44.5 18q25 0 43.5 -18.5t18.5 -43.5t-18.5 -43.5t-43.5 -18.5zM186 0v1077h78v-1077h-78z" />
    <glyph glyph-name="eth" unicode="&#xf0;" horiz-adv-x="1183" 
d="M597 -17q-214 0 -342 146t-128 386v2q0 231 129.5 377t328.5 146q108 0 204.5 -55t155.5 -163h9l-7 17q-108 281 -359 463l-257 -167l-34 42l243 159q-111 73 -261 142l26 48q162 -67 291 -154l235 154l35 -42l-222 -145q416 -305 416 -807v-2q0 -156 -53 -278.5
t-159.5 -195.5t-250.5 -73zM597 53q169 0 277 126.5t108 327.5v2q0 206 -106.5 334t-279.5 128q-170 0 -280 -126t-110 -327v-2q0 -207 107 -335t284 -128z" />
    <glyph glyph-name="ntilde" unicode="&#xf1;" horiz-adv-x="1189" 
d="M748 1256q-79 0 -160 86l-19 21q-36 39 -61.5 55t-53.5 16q-42 0 -68 -46.5t-26 -120.5v-14h-68v16q0 103 42.5 166t115.5 63q79 0 160 -86l19 -21q37 -39 62 -55t53 -16q42 0 68 46.5t26 120.5v14h68v-16q0 -103 -42.5 -166t-115.5 -63zM178 0v1077h77v-226h8
q47 115 145 178.5t231 63.5q179 0 279.5 -103t100.5 -286v-704h-78v683q0 164 -81 252t-235 88q-161 0 -265.5 -107.5t-104.5 -273.5v-642h-77z" />
    <glyph glyph-name="ograve" unicode="&#xf2;" horiz-adv-x="1206" 
d="M571 1231l-222 315h94l202 -315h-74zM603 -17q-220 0 -350 150t-130 404v2q0 255 130 404.5t350 149.5t350 -149.5t130 -404.5v-2q0 -254 -130 -404t-350 -150zM603 54q184 0 292.5 131t108.5 352v2q0 221 -108.5 352.5t-292.5 131.5t-292.5 -131t-108.5 -353v-2
q0 -221 108.5 -352t292.5 -131z" />
    <glyph glyph-name="oacute" unicode="&#xf3;" horiz-adv-x="1206" 
d="M635 1231h-74l202 315h94zM603 -17q-220 0 -350 150t-130 404v2q0 255 130 404.5t350 149.5t350 -149.5t130 -404.5v-2q0 -254 -130 -404t-350 -150zM603 54q184 0 292.5 131t108.5 352v2q0 221 -108.5 352.5t-292.5 131.5t-292.5 -131t-108.5 -353v-2q0 -221 108.5 -352
t292.5 -131z" />
    <glyph glyph-name="ocircumflex" unicode="&#xf4;" horiz-adv-x="1206" 
d="M302 1231l255 315h92l255 -315h-90l-208 259h-6l-208 -259h-90zM603 -17q-220 0 -350 150t-130 404v2q0 255 130 404.5t350 149.5t350 -149.5t130 -404.5v-2q0 -254 -130 -404t-350 -150zM603 54q184 0 292.5 131t108.5 352v2q0 221 -108.5 352.5t-292.5 131.5
t-292.5 -131t-108.5 -353v-2q0 -221 108.5 -352t292.5 -131z" />
    <glyph glyph-name="otilde" unicode="&#xf5;" horiz-adv-x="1206" 
d="M752 1256q-79 0 -160 86l-19 21q-36 39 -61 55t-53 16q-42 0 -68.5 -47t-26.5 -120v-14h-68v16q0 103 42.5 166t115.5 63q44 0 81 -21t79 -65l19 -21q37 -39 62 -55t53 -16q43 0 68.5 46.5t25.5 120.5v14h68v-16q0 -103 -42.5 -166t-115.5 -63zM603 -17q-220 0 -350 150
t-130 404v2q0 255 130 404.5t350 149.5t350 -149.5t130 -404.5v-2q0 -254 -130 -404t-350 -150zM603 54q184 0 292.5 131t108.5 352v2q0 221 -108.5 352.5t-292.5 131.5t-292.5 -131t-108.5 -353v-2q0 -221 108.5 -352t292.5 -131z" />
    <glyph glyph-name="odieresis" unicode="&#xf6;" horiz-adv-x="1206" 
d="M405 1327q-25 0 -43.5 18.5t-18.5 43.5t18.5 43.5t43.5 18.5q26 0 44 -18t18 -44t-18 -44t-44 -18zM801 1327q-26 0 -44.5 18t-18.5 44t18.5 44t44.5 18q25 0 43.5 -18.5t18.5 -43.5t-18.5 -43.5t-43.5 -18.5zM603 -17q-220 0 -350 150t-130 404v2q0 255 130 404.5
t350 149.5t350 -149.5t130 -404.5v-2q0 -254 -130 -404t-350 -150zM603 54q184 0 292.5 131t108.5 352v2q0 221 -108.5 352.5t-292.5 131.5t-292.5 -131t-108.5 -353v-2q0 -221 108.5 -352t292.5 -131z" />
    <glyph glyph-name="divide" unicode="&#xf7;" horiz-adv-x="1261" 
d="M632 907q-28 0 -47.5 19t-19.5 47q0 29 19.5 48t47.5 19t47 -19.5t19 -47.5t-19 -47t-47 -19zM95 548v72h1072v-72h-1072zM631 128q-28 0 -47 19.5t-19 47.5t19 47t47 19t47.5 -19t19.5 -47q0 -29 -19 -48t-48 -19z" />
    <glyph glyph-name="ostroke" unicode="&#xf8;" horiz-adv-x="1206" 
d="M603 -17q-194 0 -318 118l-108 -131l-48 39l113 138q-118 151 -118 390v2q0 255 130 404.5t349 149.5q192 0 318 -117l108 131l47 -40l-113 -138q118 -147 118 -390v-2q0 -254 -129.5 -404t-348.5 -150zM200 537q0 -204 91 -330l582 710q-106 106 -270 106
q-185 0 -294 -131t-109 -354v-1zM603 52q184 0 293.5 132t109.5 353v1q0 202 -92 331l-582 -711q106 -106 271 -106z" />
    <glyph glyph-name="ugrave" unicode="&#xf9;" horiz-adv-x="1189" 
d="M558 1231l-221 315h93l203 -315h-75zM558 -17q-178 0 -283 106t-105 284v704h78v-683q0 -158 86.5 -249t237.5 -91q162 0 261.5 105.5t99.5 274.5v643h78v-1077h-78v223h-7q-39 -112 -136.5 -176t-231.5 -64z" />
    <glyph glyph-name="uacute" unicode="&#xfa;" horiz-adv-x="1189" 
d="M623 1231h-75l203 315h93zM558 -17q-178 0 -283 106t-105 284v704h78v-683q0 -158 86.5 -249t237.5 -91q162 0 261.5 105.5t99.5 274.5v643h78v-1077h-78v223h-7q-39 -112 -136.5 -176t-231.5 -64z" />
    <glyph glyph-name="ucircumflex" unicode="&#xfb;" horiz-adv-x="1189" 
d="M290 1231l255 315h92l254 -315h-89l-208 259h-6l-209 -259h-89zM558 -17q-178 0 -283 106t-105 284v704h78v-683q0 -158 86.5 -249t237.5 -91q162 0 261.5 105.5t99.5 274.5v643h78v-1077h-78v223h-7q-39 -112 -136.5 -176t-231.5 -64z" />
    <glyph glyph-name="udieresis" unicode="&#xfc;" horiz-adv-x="1189" 
d="M393 1327q-26 0 -44 18t-18 44t18 44t44 18q25 0 43.5 -18.5t18.5 -43.5t-18.5 -43.5t-43.5 -18.5zM788 1327q-26 0 -44 18t-18 44t18 44t44 18t44 -18t18 -44t-18 -44t-44 -18zM558 -17q-178 0 -283 106t-105 284v704h78v-683q0 -158 86.5 -249t237.5 -91
q162 0 261.5 105.5t99.5 274.5v643h78v-1077h-78v223h-7q-39 -112 -136.5 -176t-231.5 -64z" />
    <glyph glyph-name="yacute" unicode="&#xfd;" horiz-adv-x="1036" 
d="M549 1231h-75l203 315h93zM230 -365q-14 0 -36 2v67q10 -1 33 -1q78 0 126.5 39.5t85.5 139.5l38 103l-412 1092h84l365 -997h9l365 997h83l-456 -1207q-49 -130 -112 -182.5t-173 -52.5z" />
    <glyph glyph-name="thorn" unicode="&#xfe;" horiz-adv-x="1236" 
d="M178 -353v1859h77v-701h8q44 133 150 210.5t245 77.5q205 0 333 -154t128 -399v-2q0 -246 -128.5 -400.5t-332.5 -154.5q-136 0 -243 76t-152 205h-8v-617h-77zM647 54q175 0 284 134t109 349v2q0 215 -109 349.5t-284 134.5t-284 -134.5t-109 -349.5v-2
q0 -215 109.5 -349t283.5 -134z" />
    <glyph glyph-name="ydieresis" unicode="&#xff;" horiz-adv-x="1036" 
d="M318 1327q-26 0 -44 18.5t-18 43.5t18 43.5t44 18.5t44.5 -18t18.5 -44t-18.5 -44t-44.5 -18zM714 1327q-26 0 -44 18t-18 44t18 44t44 18t44 -18.5t18 -43.5t-18 -43.5t-44 -18.5zM230 -365q-14 0 -36 2v67q10 -1 33 -1q78 0 126.5 39.5t85.5 139.5l38 103l-412 1092h84
l365 -997h9l365 997h83l-456 -1207q-49 -130 -112 -182.5t-173 -52.5z" />
    <glyph glyph-name="Amacron" unicode="&#x100;" horiz-adv-x="1341" 
d="M391 1708v65h557v-65h-557zM80 0l550 1443h80l550 -1443h-85l-181 481h-649l-181 -481h-84zM666 1335l-294 -783h596l-294 783h-8z" />
    <glyph glyph-name="amacron" unicode="&#x101;" horiz-adv-x="1118" 
d="M272 1356v66h585v-66h-585zM476 -17q-159 0 -259 85t-100 223v2q0 136 98 214t284 92l371 28v105q0 141 -81 216t-226 75q-129 0 -216 -55t-109 -156v-2h-78v3q22 130 132 205t273 75q179 0 280.5 -94t101.5 -266v-733h-77v220h-8q-44 -109 -148 -173t-238 -64zM195 292
q0 -107 81 -173t210 -66q161 0 272.5 101t111.5 247v160l-359 -27q-156 -12 -236 -73t-80 -167v-2z" />
    <glyph glyph-name="Abreve" unicode="&#x102;" horiz-adv-x="1341" 
d="M670 1588q-134 0 -211 77t-77 209v2h69v-2q0 -104 58 -163t161 -59t160.5 59t57.5 163v2h69v-2q0 -132 -76.5 -209t-210.5 -77zM80 0l550 1443h80l550 -1443h-85l-181 481h-649l-181 -481h-84zM666 1335l-294 -783h596l-294 783h-8z" />
    <glyph glyph-name="abreve" unicode="&#x103;" horiz-adv-x="1118" 
d="M565 1229q-141 0 -221 81t-80 219v2h70v-1q0 -111 61 -173t170 -62t170 62t61 173v1h69v-2q0 -138 -79.5 -219t-220.5 -81zM476 -17q-159 0 -259 85t-100 223v2q0 136 98 214t284 92l371 28v105q0 141 -81 216t-226 75q-129 0 -216 -55t-109 -156v-2h-78v3
q22 130 132 205t273 75q179 0 280.5 -94t101.5 -266v-733h-77v220h-8q-44 -109 -148 -173t-238 -64zM195 292q0 -107 81 -173t210 -66q161 0 272.5 101t111.5 247v160l-359 -27q-156 -12 -236 -73t-80 -167v-2z" />
    <glyph glyph-name="Aogonek" unicode="&#x104;" horiz-adv-x="1341" 
d="M80 0l550 1443h80l550 -1443q-210 -131 -210 -287v-2q0 -73 37.5 -107.5t92.5 -34.5q50 0 88 16v-60q-41 -19 -104 -19q-79 0 -135.5 49t-56.5 144v2q0 165 201 304l-179 476h-649l-181 -481h-84zM666 1335l-294 -783h596l-294 783h-8z" />
    <glyph glyph-name="aogonek" unicode="&#x105;" horiz-adv-x="1118" 
d="M476 -17q-159 0 -259 85t-100 223v2q0 136 98 214t284 92l371 28v105q0 141 -81 216t-226 75q-129 0 -216 -55t-109 -156v-2h-78v3q22 130 132 205t273 75q179 0 280.5 -94t101.5 -266v-733q-210 -132 -210 -287v-2q0 -73 37.5 -107.5t93.5 -34.5q48 0 88 16v-60
q-42 -19 -105 -19q-79 0 -135 49t-56 144v2q0 170 210 310v209h-8q-44 -109 -148 -173t-238 -64zM195 292q0 -107 81 -173t210 -66q161 0 272.5 101t111.5 247v160l-359 -27q-156 -12 -236 -73t-80 -167v-2z" />
    <glyph glyph-name="Cacute" unicode="&#x106;" horiz-adv-x="1441" 
d="M792 1590h-73l192 300h92zM760 -24q-293 0 -463 200t-170 545v2q0 343 170.5 543.5t462.5 200.5q216 0 377.5 -135t186.5 -336l-1 -1l-79 -1v2q-26 169 -165 283t-319 114q-252 0 -402.5 -182.5t-150.5 -487.5v-2q0 -307 150 -489t403 -182q190 0 325.5 104t158.5 267
l1 1l79 1v-2q-23 -198 -179.5 -321.5t-384.5 -123.5z" />
    <glyph glyph-name="cacute" unicode="&#x107;" horiz-adv-x="1144" 
d="M629 1231h-75l203 315h93zM598 -17q-218 0 -346.5 151t-128.5 407v2q0 252 128.5 401t346.5 149q167 0 284 -88t144 -228l-1 -1l-77 -1l-1 2q-29 111 -123.5 178.5t-225.5 67.5q-181 0 -288.5 -130.5t-107.5 -349.5v-2q0 -222 107.5 -354.5t288.5 -132.5q133 0 226 62.5
t121 170.5l2 3l77 1l-1 -5q-30 -139 -142.5 -221t-282.5 -82z" />
    <glyph glyph-name="Ccircumflex" unicode="&#x108;" horiz-adv-x="1441" 
d="M471 1590l243 300h90l243 -300h-88l-197 245h-6l-197 -245h-88zM760 -24q-293 0 -463 200t-170 545v2q0 343 170.5 543.5t462.5 200.5q216 0 377.5 -135t186.5 -336l-1 -1l-79 -1v2q-26 169 -165 283t-319 114q-252 0 -402.5 -182.5t-150.5 -487.5v-2q0 -307 150 -489
t403 -182q190 0 325.5 104t158.5 267l1 1l79 1v-2q-23 -198 -179.5 -321.5t-384.5 -123.5z" />
    <glyph glyph-name="ccircumflex" unicode="&#x109;" horiz-adv-x="1144" 
d="M295 1231l255 315h92l255 -315h-89l-209 259h-6l-208 -259h-90zM598 -17q-218 0 -346.5 151t-128.5 407v2q0 252 128.5 401t346.5 149q167 0 284 -88t144 -228l-1 -1l-77 -1l-1 2q-29 111 -123.5 178.5t-225.5 67.5q-181 0 -288.5 -130.5t-107.5 -349.5v-2
q0 -222 107.5 -354.5t288.5 -132.5q133 0 226 62.5t121 170.5l2 3l77 1l-1 -5q-30 -139 -142.5 -221t-282.5 -82z" />
    <glyph glyph-name="Cdotabove" unicode="&#x10a;" horiz-adv-x="1441" 
d="M759 1674q-26 0 -45 19t-19 45t19 45t45 19t45 -19t19 -45t-19 -45t-45 -19zM760 -24q-293 0 -463 200t-170 545v2q0 343 170.5 543.5t462.5 200.5q216 0 377.5 -135t186.5 -336l-1 -1l-79 -1v2q-26 169 -165 283t-319 114q-252 0 -402.5 -182.5t-150.5 -487.5v-2
q0 -307 150 -489t403 -182q190 0 325.5 104t158.5 267l1 1l79 1v-2q-23 -198 -179.5 -321.5t-384.5 -123.5z" />
    <glyph glyph-name="cdotabove" unicode="&#x10b;" horiz-adv-x="1144" 
d="M596 1320q-28 0 -47.5 19.5t-19.5 47.5t19.5 48t47.5 20t48 -20t20 -48t-20 -47.5t-48 -19.5zM598 -17q-218 0 -346.5 151t-128.5 407v2q0 252 128.5 401t346.5 149q167 0 284 -88t144 -228l-1 -1l-77 -1l-1 2q-29 111 -123.5 178.5t-225.5 67.5q-181 0 -288.5 -130.5
t-107.5 -349.5v-2q0 -222 107.5 -354.5t288.5 -132.5q133 0 226 62.5t121 170.5l2 3l77 1l-1 -5q-30 -139 -142.5 -221t-282.5 -82z" />
    <glyph glyph-name="Ccaron" unicode="&#x10c;" horiz-adv-x="1441" 
d="M1047 1890l-243 -300h-90l-243 300h88l197 -245h6l197 245h88zM760 -24q-293 0 -463 200t-170 545v2q0 343 170.5 543.5t462.5 200.5q216 0 377.5 -135t186.5 -336l-1 -1l-79 -1v2q-26 169 -165 283t-319 114q-252 0 -402.5 -182.5t-150.5 -487.5v-2q0 -307 150 -489
t403 -182q190 0 325.5 104t158.5 267l1 1l79 1v-2q-23 -198 -179.5 -321.5t-384.5 -123.5z" />
    <glyph glyph-name="ccaron" unicode="&#x10d;" horiz-adv-x="1144" 
d="M897 1546l-255 -315h-92l-255 315h90l208 -258h6l209 258h89zM598 -17q-218 0 -346.5 151t-128.5 407v2q0 252 128.5 401t346.5 149q167 0 284 -88t144 -228l-1 -1l-77 -1l-1 2q-29 111 -123.5 178.5t-225.5 67.5q-181 0 -288.5 -130.5t-107.5 -349.5v-2
q0 -222 107.5 -354.5t288.5 -132.5q133 0 226 62.5t121 170.5l2 3l77 1l-1 -5q-30 -139 -142.5 -221t-282.5 -82z" />
    <glyph glyph-name="Dcaron" unicode="&#x10e;" horiz-adv-x="1451" 
d="M971 1890l-242 -300h-90l-243 300h88l196 -245h7l196 245h88zM187 0v1443h449q334 0 511 -192t177 -528v-2q0 -337 -176.5 -529t-511.5 -192h-449zM266 73h366q292 0 452 172.5t160 474.5v2q0 303 -160 475.5t-452 172.5h-366v-1297z" />
    <glyph glyph-name="dcaron" unicode="&#x10f;" horiz-adv-x="1347" 
d="M1179 1231l86 315h82l-114 -315h-54zM584 -17q-205 0 -333 154.5t-128 399.5v2q0 245 128.5 399.5t332.5 154.5q136 0 243 -76t153 -204h7v693h77v-1506h-77v271h-7q-45 -133 -151 -210.5t-245 -77.5zM595 54q175 0 284 134t109 349v2q0 215 -109 349.5t-284 134.5
t-284 -134.5t-109 -349.5v-2q0 -215 109 -349t284 -134z" />
    <glyph glyph-name="dstroke" unicode="&#x111;" horiz-adv-x="1314" 
d="M584 -17q-205 0 -333 154.5t-128 399.5v2q0 245 128.5 399.5t332.5 154.5q136 0 243 -76t153 -204h7v456h-300v62h300v175h77v-175h188v-62h-188v-1269h-77v271h-7q-45 -133 -151 -210.5t-245 -77.5zM595 54q175 0 284 134t109 349v2q0 215 -109 349.5t-284 134.5
t-284 -134.5t-109 -349.5v-2q0 -215 109 -349t284 -134z" />
    <glyph glyph-name="Emacron" unicode="&#x112;" horiz-adv-x="1166" 
d="M329 1708v65h557v-65h-557zM187 0v1443h841v-73h-762v-594h726v-72h-726v-631h762v-73h-841z" />
    <glyph glyph-name="emacron" unicode="&#x113;" horiz-adv-x="1179" 
d="M303 1356v66h585v-66h-585zM604 -17q-221 0 -351 149.5t-130 402.5v2q0 255 128.5 405.5t342.5 150.5q211 0 336.5 -146t125.5 -384v-39h-854q2 -217 111.5 -343.5t291.5 -126.5q126 0 220 53t128 136l3 6h79l-3 -8q-39 -113 -154 -185.5t-274 -72.5zM594 1023
q-168 0 -275.5 -116t-116.5 -316h777q-9 202 -113.5 317t-271.5 115z" />
    <glyph glyph-name="Ebreve" unicode="&#x114;" horiz-adv-x="1166" 
d="M608 1588q-134 0 -211 77t-77 209v2h69v-2q0 -104 58 -163t161 -59t160.5 59t57.5 163v2h69v-2q0 -132 -76.5 -209t-210.5 -77zM187 0v1443h841v-73h-762v-594h726v-72h-726v-631h762v-73h-841z" />
    <glyph glyph-name="ebreve" unicode="&#x115;" horiz-adv-x="1179" 
d="M595 1229q-140 0 -220 81t-80 219v2h69v-1q0 -111 61.5 -173t169.5 -62q109 0 170.5 62t61.5 173v1h69v-2q0 -138 -80 -219t-221 -81zM604 -17q-221 0 -351 149.5t-130 402.5v2q0 255 128.5 405.5t342.5 150.5q211 0 336.5 -146t125.5 -384v-39h-854q2 -217 111.5 -343.5
t291.5 -126.5q126 0 220 53t128 136l3 6h79l-3 -8q-39 -113 -154 -185.5t-274 -72.5zM594 1023q-168 0 -275.5 -116t-116.5 -316h777q-9 202 -113.5 317t-271.5 115z" />
    <glyph glyph-name="Edotabove" unicode="&#x116;" horiz-adv-x="1166" 
d="M607 1674q-26 0 -44.5 19t-18.5 45t18.5 45t44.5 19q27 0 46 -19t19 -45t-19 -45t-46 -19zM187 0v1443h841v-73h-762v-594h726v-72h-726v-631h762v-73h-841z" />
    <glyph glyph-name="edotabove" unicode="&#x117;" horiz-adv-x="1179" 
d="M595 1320q-28 0 -47.5 19.5t-19.5 47.5t19.5 48t47.5 20t48 -20t20 -48t-20 -47.5t-48 -19.5zM604 -17q-221 0 -351 149.5t-130 402.5v2q0 255 128.5 405.5t342.5 150.5q211 0 336.5 -146t125.5 -384v-39h-854q2 -217 111.5 -343.5t291.5 -126.5q126 0 220 53t128 136
l3 6h79l-3 -8q-39 -113 -154 -185.5t-274 -72.5zM594 1023q-168 0 -275.5 -116t-116.5 -316h777q-9 202 -113.5 317t-271.5 115z" />
    <glyph glyph-name="Eogonek" unicode="&#x118;" horiz-adv-x="1166" 
d="M187 0v1443h841v-73h-762v-594h726v-72h-726v-631h762v-73q-210 -132 -210 -287v-2q0 -73 37.5 -107.5t93.5 -34.5q48 0 88 16v-60q-42 -19 -105 -19q-79 0 -135 49t-56 144v2q0 165 194 299h-748z" />
    <glyph glyph-name="eogonek" unicode="&#x119;" horiz-adv-x="1179" 
d="M602 -17q-220 0 -349.5 149.5t-129.5 403.5v2q0 254 129 405t347 151q211 0 334 -141t123 -383v-46h-854v-3q0 -213 110 -340.5t291 -127.5q128 0 222 52.5t129 143.5h80q-19 -60 -59.5 -119t-83 -104t-83 -92.5t-66 -103.5t-25.5 -118v-2q0 -73 37 -107.5t91 -34.5
q52 0 91 15v-58q-44 -19 -107 -19q-78 0 -133.5 49t-55.5 144v2q0 80 44 156t135 168q-98 -42 -217 -42zM598 1024q-171 0 -278.5 -118t-116.5 -315h773q-1 197 -104 315t-274 118z" />
    <glyph glyph-name="Ecaron" unicode="&#x11a;" horiz-adv-x="1166" 
d="M895 1890l-242 -300h-90l-243 300h88l196 -245h7l196 245h88zM187 0v1443h841v-73h-762v-594h726v-72h-726v-631h762v-73h-841z" />
    <glyph glyph-name="ecaron" unicode="&#x11b;" horiz-adv-x="1179" 
d="M896 1546l-255 -315h-92l-254 315h89l208 -258h6l209 258h89zM604 -17q-221 0 -351 149.5t-130 402.5v2q0 255 128.5 405.5t342.5 150.5q211 0 336.5 -146t125.5 -384v-39h-854q2 -217 111.5 -343.5t291.5 -126.5q126 0 220 53t128 136l3 6h79l-3 -8
q-39 -113 -154 -185.5t-274 -72.5zM594 1023q-168 0 -275.5 -116t-116.5 -316h777q-9 202 -113.5 317t-271.5 115z" />
    <glyph glyph-name="Gcircumflex" unicode="&#x11c;" horiz-adv-x="1476" 
d="M470 1590l243 300h90l242 -300h-88l-196 245h-7l-196 -245h-88zM751 -24q-283 0 -453.5 205t-170.5 547v1q0 337 170 537.5t454 200.5q219 0 372.5 -113.5t196.5 -310.5l2 -9h-79l-2 8q-45 168 -175 259.5t-315 91.5q-249 0 -396.5 -179.5t-147.5 -484.5v-1
q0 -309 148.5 -493.5t395.5 -184.5q231 0 370 151.5t139 398.5v28h-502v71h581v-96q0 -282 -161 -454.5t-427 -172.5z" />
    <glyph glyph-name="gcircumflex" unicode="&#x11d;" horiz-adv-x="1235" 
d="M323 1231l255 315h92l255 -315h-90l-208 259h-6l-208 -259h-90zM605 -370q-170 0 -283.5 69.5t-136.5 184.5l1 1h80l1 -1q23 -83 115 -133t225 -50q170 0 271.5 87t101.5 232v272h-7q-44 -130 -148 -203t-245 -73q-205 0 -331 148.5t-126 387.5v2q0 240 126.5 389.5
t331.5 149.5q138 0 244.5 -78.5t147.5 -210.5h7v273h77v-1067q0 -170 -124.5 -275t-327.5 -105zM591 86q177 0 283.5 127t106.5 334v2q0 209 -108 341.5t-282 132.5q-175 0 -282 -130t-107 -338v-2q0 -208 107 -337.5t282 -129.5z" />
    <glyph glyph-name="Gbreve" unicode="&#x11e;" horiz-adv-x="1476" 
d="M758 1588q-134 0 -211 77t-77 209v2h69v-2q0 -104 58 -163t161 -59t160.5 59t57.5 163v2h69v-2q0 -132 -76.5 -209t-210.5 -77zM751 -24q-283 0 -453.5 205t-170.5 547v1q0 337 170 537.5t454 200.5q219 0 372.5 -113.5t196.5 -310.5l2 -9h-79l-2 8q-45 168 -175 259.5
t-315 91.5q-249 0 -396.5 -179.5t-147.5 -484.5v-1q0 -309 148.5 -493.5t395.5 -184.5q231 0 370 151.5t139 398.5v28h-502v71h581v-96q0 -282 -161 -454.5t-427 -172.5z" />
    <glyph glyph-name="gbreve" unicode="&#x11f;" horiz-adv-x="1235" 
d="M624 1229q-141 0 -221 81t-80 219v2h70v-1q0 -111 61 -173t170 -62t170 62t61 173v1h70v-2q0 -138 -80 -219t-221 -81zM605 -370q-170 0 -283.5 69.5t-136.5 184.5l1 1h80l1 -1q23 -83 115 -133t225 -50q170 0 271.5 87t101.5 232v272h-7q-44 -130 -148 -203t-245 -73
q-205 0 -331 148.5t-126 387.5v2q0 240 126.5 389.5t331.5 149.5q138 0 244.5 -78.5t147.5 -210.5h7v273h77v-1067q0 -170 -124.5 -275t-327.5 -105zM591 86q177 0 283.5 127t106.5 334v2q0 209 -108 341.5t-282 132.5q-175 0 -282 -130t-107 -338v-2q0 -208 107 -337.5
t282 -129.5z" />
    <glyph glyph-name="Gdotabove" unicode="&#x120;" horiz-adv-x="1476" 
d="M757 1674q-26 0 -44.5 19t-18.5 45t18.5 45t44.5 19q27 0 46 -19t19 -45t-19 -45t-46 -19zM751 -24q-283 0 -453.5 205t-170.5 547v1q0 337 170 537.5t454 200.5q219 0 372.5 -113.5t196.5 -310.5l2 -9h-79l-2 8q-45 168 -175 259.5t-315 91.5q-249 0 -396.5 -179.5
t-147.5 -484.5v-1q0 -309 148.5 -493.5t395.5 -184.5q231 0 370 151.5t139 398.5v28h-502v71h581v-96q0 -282 -161 -454.5t-427 -172.5z" />
    <glyph glyph-name="gdotabove" unicode="&#x121;" horiz-adv-x="1235" 
d="M624 1320q-28 0 -47.5 19.5t-19.5 47.5t19.5 48t47.5 20t48 -20t20 -48t-20 -47.5t-48 -19.5zM605 -370q-170 0 -283.5 69.5t-136.5 184.5l1 1h80l1 -1q23 -83 115 -133t225 -50q170 0 271.5 87t101.5 232v272h-7q-44 -130 -148 -203t-245 -73q-205 0 -331 148.5
t-126 387.5v2q0 240 126.5 389.5t331.5 149.5q138 0 244.5 -78.5t147.5 -210.5h7v273h77v-1067q0 -170 -124.5 -275t-327.5 -105zM591 86q177 0 283.5 127t106.5 334v2q0 209 -108 341.5t-282 132.5q-175 0 -282 -130t-107 -338v-2q0 -208 107 -337.5t282 -129.5z" />
    <glyph glyph-name="Gcommaaccent" unicode="&#x122;" horiz-adv-x="1476" 
d="M751 -24q-283 0 -453.5 205t-170.5 547v1q0 337 170 537.5t454 200.5q219 0 372.5 -113.5t196.5 -310.5l2 -9h-79l-2 8q-45 168 -175 259.5t-315 91.5q-249 0 -396.5 -179.5t-147.5 -484.5v-1q0 -309 148.5 -493.5t395.5 -184.5q231 0 370 151.5t139 398.5v28h-502v71
h581v-96q0 -282 -161 -454.5t-427 -172.5zM619 -494l96 339h87l-126 -339h-57z" />
    <glyph glyph-name="gcommaaccent" unicode="&#x123;" horiz-adv-x="1235" 
d="M763 1570l-96 -339h-87l126 339h57zM605 -370q-170 0 -283.5 69.5t-136.5 184.5l1 1h80l1 -1q23 -83 115 -133t225 -50q170 0 271.5 87t101.5 232v272h-7q-44 -130 -148 -203t-245 -73q-205 0 -331 148.5t-126 387.5v2q0 240 126.5 389.5t331.5 149.5q138 0 244.5 -78.5
t147.5 -210.5h7v273h77v-1067q0 -170 -124.5 -275t-327.5 -105zM591 86q177 0 283.5 127t106.5 334v2q0 209 -108 341.5t-282 132.5q-175 0 -282 -130t-107 -338v-2q0 -208 107 -337.5t282 -129.5z" />
    <glyph glyph-name="Hcircumflex" unicode="&#x124;" horiz-adv-x="1445" 
d="M435 1590l242 300h90l243 -300h-88l-196 245h-7l-197 -245h-87zM187 0v1443h79v-666h913v666h79v-1443h-79v705h-913v-705h-79z" />
    <glyph glyph-name="hcircumflex" unicode="&#x125;" horiz-adv-x="1199" 
d="M-59 1653l241 298h89l241 -298h-87l-195 243h-7l-195 -243h-87zM188 0v1506h77v-655h8q47 115 145 178.5t231 63.5q179 0 279.5 -103t100.5 -286v-704h-78v683q0 164 -81.5 252t-234.5 88q-161 0 -265.5 -107.5t-104.5 -273.5v-642h-77z" />
    <glyph glyph-name="Hstroke" unicode="&#x126;" horiz-adv-x="1568" 
d="M249 0v1105h-187v70h187v268h79v-268h913v268h79v-268h187v-70h-187v-1105h-79v705h-913v-705h-79zM328 777h913v328h-913v-328z" />
    <glyph glyph-name="hstroke" unicode="&#x127;" horiz-adv-x="1261" 
d="M250 0v1269h-188v62h188v175h77v-175h300v-62h-300v-418h8q47 115 145 178.5t231 63.5q179 0 279.5 -103t100.5 -286v-704h-78v683q0 164 -81.5 252t-234.5 88q-161 0 -265.5 -107.5t-104.5 -273.5v-642h-77z" />
    <glyph glyph-name="Itilde" unicode="&#x128;" horiz-adv-x="453" 
d="M369 1613q-76 0 -153 82l-18 19q-34 37 -58 52t-50 15q-40 0 -65 -44t-25 -113v-13h-66v14q0 99 40.5 159t110.5 60q43 0 78 -19.5t75 -62.5l18 -18q62 -68 108 -68q41 0 65 44t24 114v13h67v-15q0 -99 -40.5 -159t-110.5 -60zM187 0v1443h79v-1443h-79z" />
    <glyph glyph-name="itilde" unicode="&#x129;" horiz-adv-x="450" 
d="M375 1256q-44 0 -81 21t-80 65l-19 21q-36 39 -61 55t-53 16q-42 0 -68.5 -47t-26.5 -120v-14h-68v16q0 103 42.5 166t115.5 63q44 0 81 -20.5t80 -65.5l19 -21q36 -39 61.5 -55t52.5 -16q43 0 68.5 46.5t25.5 120.5v14h68v-16q0 -103 -42 -166t-115 -63zM186 0v1077h78
v-1077h-78z" />
    <glyph glyph-name="Imacron" unicode="&#x12a;" horiz-adv-x="453" 
d="M-53 1708v65h558v-65h-558zM187 0v1443h79v-1443h-79z" />
    <glyph glyph-name="imacron" unicode="&#x12b;" horiz-adv-x="450" 
d="M5 1356v66h441v-66h-441zM186 0v1077h78v-1077h-78z" />
    <glyph glyph-name="Ibreve" unicode="&#x12c;" horiz-adv-x="453" 
d="M226 1588q-134 0 -210.5 77t-76.5 209v2h69v-2q0 -104 57.5 -163t160.5 -59t161 59t58 163v2h69v-2q0 -132 -77 -209t-211 -77zM187 0v1443h79v-1443h-79z" />
    <glyph glyph-name="ibreve" unicode="&#x12d;" horiz-adv-x="450" 
d="M225 1229q-141 0 -221 81t-80 219v2h70v-1q0 -111 61 -173t170 -62t170 62t61 173v1h70v-2q0 -138 -80 -219t-221 -81zM186 0v1077h78v-1077h-78z" />
    <glyph glyph-name="Iogonek" unicode="&#x12e;" horiz-adv-x="453" 
d="M170 -494q-79 0 -135 49t-56 144v2q0 169 208 309v1433h79v-1443q-210 -132 -210 -287v-2q0 -73 37.5 -107.5t92.5 -34.5q49 0 89 16v-60q-42 -19 -105 -19z" />
    <glyph glyph-name="iogonek" unicode="&#x12f;" horiz-adv-x="450" 
d="M225 1320q-28 0 -47.5 19.5t-19.5 47.5t19.5 48t47.5 20t48 -20t20 -48t-20 -47.5t-48 -19.5zM167 -494q-78 0 -134.5 49t-56.5 144v2q0 170 210 310v1066h78v-1077q-210 -131 -210 -287v-2q0 -73 37 -107.5t93 -34.5q50 0 88 16v-60q-42 -19 -105 -19z" />
    <glyph glyph-name="Idotabove" unicode="&#x130;" horiz-adv-x="453" 
d="M226 1674q-26 0 -45 19t-19 45t19 45t45 19t45 -19t19 -45t-19 -45t-45 -19zM187 0v1443h79v-1443h-79z" />
    <glyph glyph-name="dotlessi" unicode="&#x131;" horiz-adv-x="450" 
d="M186 0v1077h78v-1077h-78z" />
    <glyph glyph-name="IJdigraph" unicode="&#x132;" horiz-adv-x="1523" 
d="M187 0v1443h79v-1443h-79zM937 -24q-165 0 -270.5 95.5t-112.5 244.5l-1 6h80v-4q8 -116 92 -192t212 -76q151 0 235 90.5t84 251.5v1051h80v-1062q0 -187 -107.5 -296t-291.5 -109z" />
    <glyph glyph-name="ijdigraph" unicode="&#x133;" horiz-adv-x="899" 
d="M225 1320q-28 0 -47.5 19.5t-19.5 47.5t19.5 48t47.5 20t48 -20t20 -48t-20 -47.5t-48 -19.5zM674 1320q-28 0 -47.5 19.5t-19.5 47.5t19.5 48t47.5 20t48 -20t20 -48t-20 -47.5t-48 -19.5zM186 0v1077h78v-1077h-78zM447 -363h-18v71h15q99 0 145.5 47.5t46.5 152.5
v1169h77v-1165q0 -144 -67 -209.5t-199 -65.5z" />
    <glyph glyph-name="Jcircumflex" unicode="&#x134;" horiz-adv-x="1070" 
d="M555 1590l243 300h90l242 -300h-88l-196 245h-7l-196 -245h-88zM484 -24q-165 0 -270.5 95.5t-112.5 244.5l-1 6h80v-4q8 -116 92 -192t212 -76q151 0 235.5 90.5t84.5 251.5v1051h79v-1062q0 -187 -107.5 -296t-291.5 -109z" />
    <glyph glyph-name="jcircumflex" unicode="&#x135;" horiz-adv-x="450" 
d="M-76 1231l255 315h92l255 -315h-90l-208 259h-6l-209 -259h-89zM-3 -363h-18v71h16q99 0 145 47.5t46 152.5v1169h77v-1165q0 -144 -67 -209.5t-199 -65.5z" />
    <glyph glyph-name="Kcommaaccent" unicode="&#x136;" horiz-adv-x="1260" 
d="M187 0v1443h79v-805h7l750 805h100l-581 -623l647 -820h-102l-601 765l-220 -236v-529h-79zM473 -494l96 339h87l-126 -339h-57z" />
    <glyph glyph-name="kcommaaccent" unicode="&#x137;" horiz-adv-x="1065" 
d="M188 0v1506h77v-979h8l602 550h101l-505 -461l515 -616h-100l-473 566l-148 -137v-429h-77zM416 -494l96 339h87l-126 -339h-57z" />
    <glyph glyph-name="ka.cyrl" unicode="&#x43a;" horiz-adv-x="1071" 
d="M316 512h-51v-512h-77v1077h77v-501h51l532 501h100l-564 -529l593 -548h-106z" />
    <glyph glyph-name="ka.cyrl" unicode="&#x138;" horiz-adv-x="1071" 
d="M316 512h-51v-512h-77v1077h77v-501h51l532 501h100l-564 -529l593 -548h-106z" />
    <glyph glyph-name="Lacute" unicode="&#x139;" horiz-adv-x="1106" 
d="M305 1590h-73l192 300h92zM187 0v1443h79v-1370h757v-73h-836z" />
    <glyph glyph-name="lacute" unicode="&#x13a;" horiz-adv-x="453" 
d="M258 1652h-72l191 298h91zM188 0v1506h77v-1506h-77z" />
    <glyph glyph-name="Lcommaaccent" unicode="&#x13b;" horiz-adv-x="1106" 
d="M187 0v1443h79v-1370h757v-73h-836zM466 -494l97 339h86l-125 -339h-58z" />
    <glyph glyph-name="lcommaaccent" unicode="&#x13c;" horiz-adv-x="453" 
d="M188 0v1506h77v-1506h-77zM87 -494l96 339h87l-126 -339h-57z" />
    <glyph glyph-name="Lcaron" unicode="&#x13d;" horiz-adv-x="1106" 
d="M187 0v1443h79v-1370h757v-73h-836zM557 1036l80 406h85l-109 -406h-56z" />
    <glyph glyph-name="lcaron" unicode="&#x13e;" horiz-adv-x="548" 
d="M380 1231l86 315h82l-114 -315h-54zM188 0v1506h77v-1506h-77z" />
    <glyph glyph-name="Ldot.CAT" unicode="&#x13f;" horiz-adv-x="1106" 
d="M187 0v1443h79v-1370h757v-73h-836zM853 690v-2q0 -31 -21 -52t-52 -21h-2q-31 0 -51.5 21t-20.5 52v2q0 31 20.5 52t51.5 21h2q31 0 52 -21t21 -52z" />
    <glyph glyph-name="ldot.CAT" unicode="&#x140;" horiz-adv-x="586" 
d="M188 0v1506h77v-1506h-77zM586 701v-2q0 -28 -18.5 -47t-46.5 -19h-2q-28 0 -47 19t-19 47v2q0 27 19 46t47 19h2q28 0 46.5 -19t18.5 -46z" />
    <glyph glyph-name="Lstroke" unicode="&#x141;" horiz-adv-x="1107" 
d="M188 0v630l-126 -63v75l126 63v738h79v-699l442 221v-74l-442 -221v-597h757v-73h-836z" />
    <glyph glyph-name="lstroke" unicode="&#x142;" horiz-adv-x="596" 
d="M259 0v707l-196 -98v72l196 98v727h78v-688l197 99v-72l-197 -99v-746h-78z" />
    <glyph glyph-name="Nacute" unicode="&#x143;" horiz-adv-x="1460" 
d="M762 1590h-72l191 300h93zM187 0v1443h82l918 -1297h7v1297h79v-1443h-75l-925 1304h-7v-1304h-79z" />
    <glyph glyph-name="nacute" unicode="&#x144;" horiz-adv-x="1189" 
d="M631 1231h-74l202 315h93zM178 0v1077h77v-226h8q47 115 145 178.5t231 63.5q179 0 279.5 -103t100.5 -286v-704h-78v683q0 164 -81 252t-235 88q-161 0 -265.5 -107.5t-104.5 -273.5v-642h-77z" />
    <glyph glyph-name="Ncommaaccent" unicode="&#x145;" horiz-adv-x="1460" 
d="M187 0v1443h82l918 -1297h7v1297h79v-1443h-75l-925 1304h-7v-1304h-79zM591 -494l96 339h87l-126 -339h-57z" />
    <glyph glyph-name="ncommaaccent" unicode="&#x146;" horiz-adv-x="1189" 
d="M178 0v1077h77v-226h8q47 115 145 178.5t231 63.5q179 0 279.5 -103t100.5 -286v-704h-78v683q0 164 -81 252t-235 88q-161 0 -265.5 -107.5t-104.5 -273.5v-642h-77zM459 -494l97 339h86l-125 -339h-58z" />
    <glyph glyph-name="Ncaron" unicode="&#x147;" horiz-adv-x="1460" 
d="M1017 1890l-243 -300h-90l-242 300h88l196 -245h7l196 245h88zM187 0v1443h82l918 -1297h7v1297h79v-1443h-75l-925 1304h-7v-1304h-79z" />
    <glyph glyph-name="ncaron" unicode="&#x148;" horiz-adv-x="1189" 
d="M900 1546l-255 -315h-92l-255 315h89l209 -258h6l208 258h90zM178 0v1077h77v-226h8q47 115 145 178.5t231 63.5q179 0 279.5 -103t100.5 -286v-704h-78v683q0 164 -81 252t-235 88q-161 0 -265.5 -107.5t-104.5 -273.5v-642h-77z" />
    <glyph glyph-name="Eng" unicode="&#x14a;" horiz-adv-x="1460" 
d="M266 0h-79v1443h82l918 -1297h7v1297h79v-1537q0 -139 -64.5 -204t-190.5 -65q-23 0 -31 1v67h22q94 0 139 47.5t45 149.5v104l-920 1298h-7v-1304z" />
    <glyph glyph-name="eng" unicode="&#x14b;" horiz-adv-x="1189" 
d="M178 0v1077h77v-226h8q47 115 145 178.5t231 63.5q179 0 279.5 -103t100.5 -286v-798q0 -139 -65 -204t-191 -65q-26 0 -31 1v67h23q94 0 140 47.5t46 149.5v781q0 164 -81 252t-235 88q-161 0 -265.5 -107.5t-104.5 -273.5v-642h-77z" />
    <glyph glyph-name="Omacron" unicode="&#x14c;" horiz-adv-x="1537" 
d="M489 1708v65h558v-65h-558zM768 -24q-298 0 -469.5 200t-171.5 545v2q0 344 172.5 544t468.5 200q297 0 469.5 -200t172.5 -544v-2q0 -345 -172 -545t-470 -200zM768 50q257 0 409.5 182.5t152.5 488.5v2q0 306 -152.5 488t-409.5 182t-409 -182t-152 -488v-2
q0 -306 152 -488.5t409 -182.5z" />
    <glyph glyph-name="omacron" unicode="&#x14d;" horiz-adv-x="1206" 
d="M310 1356v66h585v-66h-585zM603 -17q-220 0 -350 150t-130 404v2q0 255 130 404.5t350 149.5t350 -149.5t130 -404.5v-2q0 -254 -130 -404t-350 -150zM603 54q184 0 292.5 131t108.5 352v2q0 221 -108.5 352.5t-292.5 131.5t-292.5 -131t-108.5 -353v-2
q0 -221 108.5 -352t292.5 -131z" />
    <glyph glyph-name="Obreve" unicode="&#x14e;" horiz-adv-x="1537" 
d="M768 1588q-134 0 -210.5 77t-76.5 209v2h69v-2q0 -104 57.5 -163t160.5 -59t161 59t58 163v2h69v-2q0 -132 -77 -209t-211 -77zM768 -24q-298 0 -469.5 200t-171.5 545v2q0 344 172.5 544t468.5 200q297 0 469.5 -200t172.5 -544v-2q0 -345 -172 -545t-470 -200zM768 50
q257 0 409.5 182.5t152.5 488.5v2q0 306 -152.5 488t-409.5 182t-409 -182t-152 -488v-2q0 -306 152 -488.5t409 -182.5z" />
    <glyph glyph-name="obreve" unicode="&#x14f;" horiz-adv-x="1206" 
d="M603 1229q-141 0 -221 81t-80 219v2h70v-1q0 -111 61 -173t170 -62t170 62t61 173v1h70v-2q0 -138 -80 -219t-221 -81zM603 -17q-220 0 -350 150t-130 404v2q0 255 130 404.5t350 149.5t350 -149.5t130 -404.5v-2q0 -254 -130 -404t-350 -150zM603 54q184 0 292.5 131
t108.5 352v2q0 221 -108.5 352.5t-292.5 131.5t-292.5 -131t-108.5 -353v-2q0 -221 108.5 -352t292.5 -131z" />
    <glyph glyph-name="Odblacute" unicode="&#x150;" horiz-adv-x="1537" 
d="M634 1590h-72l171 300h92zM958 1590h-72l191 300h93zM768 -24q-298 0 -469.5 200t-171.5 545v2q0 344 172.5 544t468.5 200q297 0 469.5 -200t172.5 -544v-2q0 -345 -172 -545t-470 -200zM768 50q257 0 409.5 182.5t152.5 488.5v2q0 306 -152.5 488t-409.5 182t-409 -182
t-152 -488v-2q0 -306 152 -488.5t409 -182.5z" />
    <glyph glyph-name="odblacute" unicode="&#x151;" horiz-adv-x="1206" 
d="M459 1231h-74l180 315h94zM799 1231h-74l202 315h94zM603 -17q-220 0 -350 150t-130 404v2q0 255 130 404.5t350 149.5t350 -149.5t130 -404.5v-2q0 -254 -130 -404t-350 -150zM603 54q184 0 292.5 131t108.5 352v2q0 221 -108.5 352.5t-292.5 131.5t-292.5 -131
t-108.5 -353v-2q0 -221 108.5 -352t292.5 -131z" />
    <glyph glyph-name="OE" unicode="&#x152;" horiz-adv-x="2315" 
d="M766 -24q-296 0 -467.5 200t-171.5 545v2q0 343 172 543.5t467 200.5q201 0 349.5 -104t212.5 -292h8v372h841v-73h-767v-594h731v-72h-731v-631h767v-73h-841v375h-8q-64 -190 -211.5 -294.5t-350.5 -104.5zM771 50q256 0 407 182t151 489v2q0 307 -151 488.5
t-407 181.5q-258 0 -411 -181.5t-153 -488.5v-2q0 -307 153 -489t411 -182z" />
    <glyph glyph-name="oe" unicode="&#x153;" horiz-adv-x="2059" 
d="M602 -17q-220 0 -349.5 150t-129.5 404v2q0 254 129.5 404.5t349.5 150.5q165 0 285.5 -98t151.5 -256h7q31 157 149.5 255t280.5 98q208 0 334 -143t126 -380v-45h-854l1 -6q2 -210 112.5 -338t290.5 -128q125 0 218.5 52.5t128.5 143.5h82q-40 -122 -156.5 -194
t-273.5 -72q-168 0 -289 97t-150 254h-7q-26 -157 -147 -254t-290 -97zM602 53q184 0 292.5 130t108.5 351v2q0 222 -109 354.5t-292 132.5q-184 0 -292 -131t-108 -353v-2q0 -222 108 -353t292 -131zM1083 591h773q-1 192 -106 311.5t-271 119.5q-171 0 -279 -117.5
t-117 -313.5z" />
    <glyph glyph-name="Racute" unicode="&#x154;" horiz-adv-x="1271" 
d="M629 1590h-72l191 300h93zM187 0v1443h471q215 0 339 -110.5t124 -300.5v-2q0 -155 -88.5 -261t-245.5 -138l371 -631h-93l-362 619q-25 -3 -52 -3h-385v-616h-79zM266 689h387q182 0 285 90t103 249v2q0 159 -104 250t-286 91h-385v-682z" />
    <glyph glyph-name="racute" unicode="&#x155;" horiz-adv-x="743" 
d="M402 1231h-75l202 315h94zM178 0v1077h77v-201h8q33 102 112 159.5t187 57.5q70 0 120 -15v-77q-60 19 -125 19q-129 0 -215.5 -98t-86.5 -245v-677h-77z" />
    <glyph glyph-name="Rcommaaccent" unicode="&#x156;" horiz-adv-x="1271" 
d="M187 0v1443h471q215 0 339 -110.5t124 -300.5v-2q0 -155 -88.5 -261t-245.5 -138l371 -631h-93l-362 619q-25 -3 -52 -3h-385v-616h-79zM266 689h387q182 0 285 90t103 249v2q0 159 -104 250t-286 91h-385v-682zM483 -494l97 339h86l-125 -339h-58z" />
    <glyph glyph-name="rcommaaccent" unicode="&#x157;" horiz-adv-x="743" 
d="M178 0v1077h77v-201h8q33 102 112 159.5t187 57.5q70 0 120 -15v-77q-60 19 -125 19q-129 0 -215.5 -98t-86.5 -245v-677h-77zM77 -494l96 339h87l-126 -339h-57z" />
    <glyph glyph-name="Rcaron" unicode="&#x158;" horiz-adv-x="1271" 
d="M884 1890l-243 -300h-90l-242 300h88l196 -245h7l196 245h88zM187 0v1443h471q215 0 339 -110.5t124 -300.5v-2q0 -155 -88.5 -261t-245.5 -138l371 -631h-93l-362 619q-25 -3 -52 -3h-385v-616h-79zM266 689h387q182 0 285 90t103 249v2q0 159 -104 250t-286 91h-385
v-682z" />
    <glyph glyph-name="rcaron" unicode="&#x159;" horiz-adv-x="743" 
d="M670 1546l-255 -315h-92l-255 315h90l208 -258h6l209 258h89zM178 0v1077h77v-201h8q33 102 112 159.5t187 57.5q70 0 120 -15v-77q-60 19 -125 19q-129 0 -215.5 -98t-86.5 -245v-677h-77z" />
    <glyph glyph-name="Sacute" unicode="&#x15a;" horiz-adv-x="1255" 
d="M672 1587h-72l192 300h92zM638 -24q-216 0 -360.5 108t-161.5 279l-1 11h79l1 -11q14 -135 140.5 -224t306.5 -89q182 0 299.5 92.5t117.5 231.5v1q0 114 -88 191.5t-276 121.5l-132 31q-217 51 -314 137t-97 225v2q1 163 135.5 273.5t338.5 110.5q201 0 335 -101
t149 -251l1 -10h-79l-2 9q-15 119 -127 199t-279 80t-279 -89t-112 -220v-2q0 -108 82.5 -176t267.5 -111l133 -31q222 -52 323 -144.5t101 -237.5v-2q0 -177 -140 -290.5t-362 -113.5z" />
    <glyph glyph-name="sacute" unicode="&#x15b;" horiz-adv-x="1040" 
d="M551 1231h-74l202 315h94zM530 -17q-172 0 -283.5 75.5t-130.5 205.5h80q22 -99 111.5 -156t224.5 -57q131 0 222.5 65.5t91.5 162.5v2q0 88 -63.5 139t-208.5 85l-126 29q-151 35 -223 98.5t-72 169.5v2q0 124 109 206.5t263 82.5q153 0 257.5 -73t123.5 -194h-76
q-18 90 -101.5 144.5t-203.5 54.5t-206.5 -63t-86.5 -156v-2q0 -78 59.5 -125.5t186.5 -76.5l126 -30q166 -39 243 -105t77 -181v-2q0 -130 -113.5 -215.5t-280.5 -85.5z" />
    <glyph glyph-name="Scircumflex" unicode="&#x15c;" horiz-adv-x="1255" 
d="M352 1587l243 300h90l242 -300h-88l-196 245h-7l-196 -245h-88zM638 -24q-216 0 -360.5 108t-161.5 279l-1 11h79l1 -11q14 -135 140.5 -224t306.5 -89q182 0 299.5 92.5t117.5 231.5v1q0 114 -88 191.5t-276 121.5l-132 31q-217 51 -314 137t-97 225v2
q1 163 135.5 273.5t338.5 110.5q201 0 335 -101t149 -251l1 -10h-79l-2 9q-15 119 -127 199t-279 80t-279 -89t-112 -220v-2q0 -108 82.5 -176t267.5 -111l133 -31q222 -52 323 -144.5t101 -237.5v-2q0 -177 -140 -290.5t-362 -113.5z" />
    <glyph glyph-name="scircumflex" unicode="&#x15d;" horiz-adv-x="1040" 
d="M218 1231l255 315h92l255 -315h-90l-208 259h-6l-208 -259h-90zM530 -17q-172 0 -283.5 75.5t-130.5 205.5h80q22 -99 111.5 -156t224.5 -57q131 0 222.5 65.5t91.5 162.5v2q0 88 -63.5 139t-208.5 85l-126 29q-151 35 -223 98.5t-72 169.5v2q0 124 109 206.5t263 82.5
q153 0 257.5 -73t123.5 -194h-76q-18 90 -101.5 144.5t-203.5 54.5t-206.5 -63t-86.5 -156v-2q0 -78 59.5 -125.5t186.5 -76.5l126 -30q166 -39 243 -105t77 -181v-2q0 -130 -113.5 -215.5t-280.5 -85.5z" />
    </font>
</defs>
</svg>
