<?xml version="1.0" standalone="no"?>
<!DOCTYPE svg PUBLIC "-//W3C//DTD SVG 1.1//EN" "http://www.w3.org/Graphics/SVG/1.1/DTD/svg11.dtd" >
<svg xmlns="http://www.w3.org/2000/svg" xmlns:xlink="http://www.w3.org/1999/xlink" version="1.1">
<metadata>
Created by FontForge 20170731 at Tue Nov  3 20:25:25 2020
 By Aleksey,,,
(c) 2015-2020 Apple Inc. All rights reserved.
</metadata>
<defs>
<font id="SFProText-Regular" horiz-adv-x="1895" >
  <font-face 
    font-family="SF Pro Text"
    font-weight="400"
    font-stretch="normal"
    units-per-em="2048"
    panose-1="0 0 0 0 0 0 0 0 0 0"
    ascent="1638"
    descent="-410"
    x-height="1078"
    cap-height="1443"
    bbox="-897 -1140.53 5299 2559"
    underline-thickness="120"
    underline-position="-430"
    unicode-range="U+0020-100D86"
  />
<missing-glyph horiz-adv-x="2048" 
d="M100 1678v272h1848v-272h-1848zM100 1244v272h1848v-272h-1848zM100 809v272h1848v-272h-1848zM100 375v272h1848v-272h-1848zM100 -60v272h1848v-272h-1848zM100 -494v272h1848v-272h-1848z" />
    <glyph glyph-name="uni10004C.small" unicode="&#x2b;&#x20dd;" 
d="M947 -85q-162 0 -311 64.5t-258 173t-173.5 258t-64.5 311.5t64.5 311.5t173 258t257.5 173t311 64.5t312 -64.5t258.5 -173t173.5 -258t65 -311.5t-64.5 -311.5t-173.5 -258t-258.5 -173t-311.5 -64.5zM947 67q134 0 255.5 51.5t209 139t139 209t51.5 255.5t-52 255.5
t-139.5 209t-209 139t-255.5 51.5t-254.5 -51.5t-208 -139t-138.5 -209t-51 -255.5t51.5 -255.5t138.5 -209t208 -139t255 -51.5zM655 647q-34 0 -55.5 20.5t-21.5 53.5q0 34 21.5 55t55.5 21h216v216q0 34 20.5 55.5t53.5 21.5q34 0 55 -21t21 -56v-216h218q34 0 55 -21
t21 -55q0 -33 -21 -53.5t-55 -20.5h-218v-217q0 -34 -21 -55t-55 -21q-33 0 -53.5 21t-20.5 55v217h-216z" />
    <glyph glyph-name="uni10004E.small" unicode="&#x2212;&#x20dd;" 
d="M947 -85q-162 0 -311 64.5t-258 173t-173.5 258t-64.5 311.5t64.5 311.5t173 258t257.5 173t311 64.5t312 -64.5t258.5 -173t173.5 -258t65 -311.5t-64.5 -311.5t-173.5 -258t-258.5 -173t-311.5 -64.5zM947 67q134 0 255.5 51.5t209 139t139 209t51.5 255.5t-52 255.5
t-139.5 209t-209 139t-255.5 51.5t-254.5 -51.5t-208 -139t-138.5 -209t-51 -255.5t51.5 -255.5t138.5 -209t208 -139t255 -51.5zM653 646q-39 0 -62.5 19.5t-23.5 54.5q0 36 23 56t63 20h588q40 0 62.5 -20t22.5 -56q0 -35 -23.5 -54.5t-61.5 -19.5h-588z" />
    <glyph glyph-name="uni100050.small" unicode="&#xd7;&#x20dd;" 
d="M947 -85q-162 0 -311 64.5t-258 173t-173.5 258t-64.5 311.5t64.5 311.5t173 258t257.5 173t311 64.5t312 -64.5t258.5 -173t173.5 -258t65 -311.5t-64.5 -311.5t-173.5 -258t-258.5 -173t-311.5 -64.5zM947 67q134 0 255.5 51.5t209 139t139 209t51.5 255.5t-52 255.5
t-139.5 209t-209 139t-255.5 51.5t-254.5 -51.5t-208 -139t-138.5 -209t-51 -255.5t51.5 -255.5t138.5 -209t208 -139t255 -51.5zM683 385q-29 0 -50 21.5t-21 51.5q0 28 21 49l213 214l-213 214q-21 21 -21 49q0 30 20.5 50t50.5 20t49 -20l214 -214l217 215q21 21 49 21
q29 0 50 -20.5t21 -50.5q0 -28 -21 -49l-214 -215l213 -213q21 -23 21 -50q0 -30 -21 -51.5t-50 -21.5t-51 22l-214 214l-213 -214q-19 -22 -50 -22z" />
    <glyph glyph-name="uni100054.small" unicode="&#x3d;&#x20dd;" 
d="M947 -85q-162 0 -311 64.5t-258 173t-173.5 258t-64.5 311.5t64.5 311.5t173 258t257.5 173t311 64.5t312 -64.5t258.5 -173t173.5 -258t65 -311.5t-64.5 -311.5t-173.5 -258t-258.5 -173t-311.5 -64.5zM947 67q134 0 255.5 51.5t209 139t139 209t51.5 255.5t-52 255.5
t-139.5 209t-209 139t-255.5 51.5t-254.5 -51.5t-208 -139t-138.5 -209t-51 -255.5t51.5 -255.5t138.5 -209t208 -139t255 -51.5zM659 799q-36 0 -57 17t-21 50q0 70 78 70h574q78 0 78 -70q0 -33 -21 -50t-57 -17h-574zM659 506q-36 0 -57 17t-21 50q0 70 78 70h574
q78 0 78 -70q0 -33 -21 -50t-57 -17h-574z" />
    <glyph glyph-name="uni10003A.small" unicode="&#x31;&#x20dd;" 
d="M947 -85q-162 0 -311 64.5t-258 173t-173.5 258t-64.5 311.5t64.5 311.5t173 258t257.5 173t311 64.5t312 -64.5t258.5 -173t173.5 -258t65 -311.5t-64.5 -311.5t-173.5 -258t-258.5 -173t-311.5 -64.5zM947 67q134 0 255.5 51.5t209 139t139 209t51.5 255.5t-52 255.5
t-139.5 209t-209 139t-255.5 51.5t-254.5 -51.5t-208 -139t-138.5 -209t-51 -255.5t51.5 -255.5t138.5 -209t208 -139t255 -51.5zM989 364q-33 0 -51.5 21.5t-18.5 59.5v481h-6l-89 -59q-24 -16 -44 -16q-21 0 -35.5 15.5t-14.5 36.5q0 31 27 49l135 93q51 35 94 35
q36 0 55.5 -21t19.5 -60v-554q0 -38 -19 -59.5t-53 -21.5z" />
    <glyph glyph-name="uni10003C.small" unicode="&#x32;&#x20dd;" 
d="M947 -85q-162 0 -311 64.5t-258 173t-173.5 258t-64.5 311.5t64.5 311.5t173 258t257.5 173t311 64.5t312 -64.5t258.5 -173t173.5 -258t65 -311.5t-64.5 -311.5t-173.5 -258t-258.5 -173t-311.5 -64.5zM947 67q134 0 255.5 51.5t209 139t139 209t51.5 255.5t-52 255.5
t-139.5 209t-209 139t-255.5 51.5t-254.5 -51.5t-208 -139t-138.5 -209t-51 -255.5t51.5 -255.5t138.5 -209t208 -139t255 -51.5zM767 365q-29 0 -45.5 15.5t-16.5 41.5t23 52l246 261q2 2 18 18.5t20.5 21.5t17 19.5t17 22.5t11.5 20.5t9.5 24t2.5 23.5q0 46 -32 74t-84 28
q-49 0 -78.5 -24.5t-53.5 -64.5q-14 -22 -27.5 -33t-34.5 -11q-26 0 -41.5 15.5t-15.5 40.5q0 18 4 34q22 66 89.5 110.5t150.5 44.5q112 0 180 -55.5t68 -146.5q0 -63 -29.5 -112.5t-89.5 -113.5l-175 -185v-6h270q26 0 42.5 -15.5t16.5 -42.5q0 -26 -16.5 -41.5
t-42.5 -15.5h-404z" />
    <glyph glyph-name="uni10003E.small" unicode="&#x33;&#x20dd;" 
d="M947 -85q-162 0 -311 64.5t-258 173t-173.5 258t-64.5 311.5t64.5 311.5t173 258t257.5 173t311 64.5t312 -64.5t258.5 -173t173.5 -258t65 -311.5t-64.5 -311.5t-173.5 -258t-258.5 -173t-311.5 -64.5zM947 67q134 0 255.5 51.5t209 139t139 209t51.5 255.5t-52 255.5
t-139.5 209t-209 139t-255.5 51.5t-254.5 -51.5t-208 -139t-138.5 -209t-51 -255.5t51.5 -255.5t138.5 -209t208 -139t255 -51.5zM939 345q-99 0 -171 43t-90 112q-3 18 -3 32q0 26 17 42.5t43 16.5q44 0 61 -44q36 -90 146 -90q65 0 105 30t40 79q0 51 -39 82t-104 31h-49
q-24 0 -39.5 15.5t-15.5 38.5q0 24 15.5 39t39.5 15h45q54 0 88.5 29.5t34.5 75.5q0 45 -31 70t-87 25q-103 0 -135 -90q-15 -45 -60 -45q-26 0 -43 16.5t-17 41.5q0 16 3 34q18 71 86.5 113t168.5 42q108 0 177 -54t69 -137q0 -62 -40.5 -110t-98.5 -56v-6
q71 -7 117.5 -56.5t46.5 -119.5q0 -95 -75.5 -155t-204.5 -60z" />
    <glyph glyph-name="uni100040.small" unicode="&#x34;&#x20dd;" 
d="M947 -85q-162 0 -311 64.5t-258 173t-173.5 258t-64.5 311.5t64.5 311.5t173 258t257.5 173t311 64.5t312 -64.5t258.5 -173t173.5 -258t65 -311.5t-64.5 -311.5t-173.5 -258t-258.5 -173t-311.5 -64.5zM947 67q134 0 255.5 51.5t209 139t139 209t51.5 255.5t-52 255.5
t-139.5 209t-209 139t-255.5 51.5t-254.5 -51.5t-208 -139t-138.5 -209t-51 -255.5t51.5 -255.5t138.5 -209t208 -139t255 -51.5zM1052 364q-31 0 -48 20t-17 55v64h-276q-41 0 -66 24t-25 63q0 38 24 77q37 60 232 356q26 41 57.5 58.5t78.5 17.5t76.5 -26t29.5 -67v-387
h52q26 0 42 -16t16 -42t-16 -42t-42 -16h-52v-64q0 -36 -17 -55.5t-49 -19.5zM987 619v367h-6q-184 -281 -231 -362v-5h237z" />
    <glyph glyph-name="uni100042.small" unicode="&#x35;&#x20dd;" 
d="M947 -85q-162 0 -311 64.5t-258 173t-173.5 258t-64.5 311.5t64.5 311.5t173 258t257.5 173t311 64.5t312 -64.5t258.5 -173t173.5 -258t65 -311.5t-64.5 -311.5t-173.5 -258t-258.5 -173t-311.5 -64.5zM947 67q134 0 255.5 51.5t209 139t139 209t51.5 255.5t-52 255.5
t-139.5 209t-209 139t-255.5 51.5t-254.5 -51.5t-208 -139t-138.5 -209t-51 -255.5t51.5 -255.5t138.5 -209t208 -139t255 -51.5zM941 345q-95 0 -162 33.5t-92 93.5q-10 23 -10 43q0 26 16.5 42t43.5 16q38 0 63 -41q44 -77 137 -77q62 0 103.5 41t41.5 102t-35.5 98
t-93.5 37q-50 0 -96 -35q-47 -34 -89 -34q-37 0 -57.5 23.5t-17.5 61.5l20 247q3 38 30 60.5t71 22.5h321q23 0 37.5 -15t14.5 -39t-14.5 -39t-37.5 -15h-310l-17 -197h6q19 28 63.5 46t91.5 18q110 0 178.5 -66t68.5 -172q0 -115 -76 -185t-199 -70z" />
    <glyph glyph-name="uni100044.small" unicode="&#x36;&#x20dd;" 
d="M947 -85q-162 0 -311 64.5t-258 173t-173.5 258t-64.5 311.5t64.5 311.5t173 258t257.5 173t311 64.5t312 -64.5t258.5 -173t173.5 -258t65 -311.5t-64.5 -311.5t-173.5 -258t-258.5 -173t-311.5 -64.5zM947 67q134 0 255.5 51.5t209 139t139 209t51.5 255.5t-52 255.5
t-139.5 209t-209 139t-255.5 51.5t-254.5 -51.5t-208 -139t-138.5 -209t-51 -255.5t51.5 -255.5t138.5 -209t208 -139t255 -51.5zM953 345q-160 0 -233 116q-55 86 -55 245q0 195 81.5 294t227.5 99q73 0 133 -31t81 -77q8 -16 8 -38q0 -23 -15.5 -38t-37.5 -15
q-21 0 -36 9.5t-41 33.5q-14 14 -24 22t-29.5 15t-43.5 7q-77 0 -125 -68.5t-48 -179.5v-8h7q19 45 66 75.5t120 30.5q99 0 169.5 -62.5t70.5 -171.5q0 -122 -76 -190t-200 -68zM947 451q65 0 103.5 39.5t38.5 106.5q0 62 -39.5 101t-102.5 39t-102.5 -39t-39.5 -100
q0 -64 40 -105.5t102 -41.5z" />
    <glyph glyph-name="uni100046.small" unicode="&#x37;&#x20dd;" 
d="M947 -85q-162 0 -311 64.5t-258 173t-173.5 258t-64.5 311.5t64.5 311.5t173 258t257.5 173t311 64.5t312 -64.5t258.5 -173t173.5 -258t65 -311.5t-64.5 -311.5t-173.5 -258t-258.5 -173t-311.5 -64.5zM947 67q134 0 255.5 51.5t209 139t139 209t51.5 255.5t-52 255.5
t-139.5 209t-209 139t-255.5 51.5t-254.5 -51.5t-208 -139t-138.5 -209t-51 -255.5t51.5 -255.5t138.5 -209t208 -139t255 -51.5zM841 345q-30 0 -50.5 18t-20.5 46q0 23 13 45l282 510v7h-323q-23 0 -37.5 15t-14.5 39t14.5 39t37.5 15h383q42 0 68 -24t26 -61
q0 -32 -21 -68l-287 -532q-25 -49 -70 -49z" />
    <glyph glyph-name="uni100048.small" unicode="&#x38;&#x20dd;" 
d="M947 -85q-162 0 -311 64.5t-258 173t-173.5 258t-64.5 311.5t64.5 311.5t173 258t257.5 173t311 64.5t312 -64.5t258.5 -173t173.5 -258t65 -311.5t-64.5 -311.5t-173.5 -258t-258.5 -173t-311.5 -64.5zM947 67q134 0 255.5 51.5t209 139t139 209t51.5 255.5t-52 255.5
t-139.5 209t-209 139t-255.5 51.5t-254.5 -51.5t-208 -139t-138.5 -209t-51 -255.5t51.5 -255.5t138.5 -209t208 -139t255 -51.5zM945 345q-129 0 -207 58.5t-78 154.5q0 67 43.5 117t115.5 64v5q-60 19 -94 62t-34 100q0 85 71 139t184 54t184.5 -54t71.5 -139
q0 -57 -34.5 -101t-93.5 -61v-5q71 -14 115 -63.5t44 -116.5q0 -96 -79.5 -155t-208.5 -59zM946 784q55 0 90.5 31t35.5 79q0 47 -35.5 77.5t-90.5 30.5t-90 -30.5t-35 -77.5q0 -48 35 -79t90 -31zM947 441q65 0 108 35.5t43 90.5q0 54 -42.5 89.5t-108.5 35.5
q-64 0 -107.5 -36t-43.5 -89q0 -55 43 -90.5t108 -35.5z" />
    <glyph glyph-name="uni10004A.small" unicode="&#x39;&#x20dd;" 
d="M947 -85q-162 0 -311 64.5t-258 173t-173.5 258t-64.5 311.5t64.5 311.5t173 258t257.5 173t311 64.5t312 -64.5t258.5 -173t173.5 -258t65 -311.5t-64.5 -311.5t-173.5 -258t-258.5 -173t-311.5 -64.5zM947 67q134 0 255.5 51.5t209 139t139 209t51.5 255.5t-52 255.5
t-139.5 209t-209 139t-255.5 51.5t-254.5 -51.5t-208 -139t-138.5 -209t-51 -255.5t51.5 -255.5t138.5 -209t208 -139t255 -51.5zM927 345q-96 0 -155 36t-76 84q-5 18 -5 30q0 25 16.5 41.5t41.5 16.5q34 0 60 -34q50 -62 116 -62q78 0 125.5 70t46.5 189h-7
q-19 -44 -66 -74t-119 -30q-97 0 -167 62t-70 170q0 117 73.5 186t199.5 69q137 0 211 -92.5t74 -263.5q0 -195 -76.5 -296.5t-222.5 -101.5zM947 710q62 0 101.5 39.5t39.5 99.5q0 63 -40 104t-101 41q-64 0 -103 -39.5t-39 -104.5q0 -61 39.5 -100.5t102.5 -39.5z" />
    <glyph glyph-name="uni100004.small" unicode="A&#x20dd;" 
d="M947 -85q-162 0 -311 64.5t-258 173t-173.5 258t-64.5 311.5t64.5 311.5t173 258t257.5 173t311 64.5t312 -64.5t258.5 -173t173.5 -258t65 -311.5t-64.5 -311.5t-173.5 -258t-258.5 -173t-311.5 -64.5zM947 67q134 0 255.5 51.5t209 139t139 209t51.5 255.5t-52 255.5
t-139.5 209t-209 139t-255.5 51.5t-254.5 -51.5t-208 -139t-138.5 -209t-51 -255.5t51.5 -255.5t138.5 -209t208 -139t255 -51.5zM688 351q-29 0 -47 17t-18 45q0 17 9 46l214 580q27 70 99 70q75 0 101 -70l214 -580q10 -27 10 -46q0 -28 -18 -45t-48 -17q-50 0 -68 57
l-53 157h-274l-52 -157q-19 -57 -69 -57zM844 671h204l-97 290h-10z" />
    <glyph glyph-name="uni100006.small" unicode="B&#x20dd;" 
d="M947 -85q-162 0 -311 64.5t-258 173t-173.5 258t-64.5 311.5t64.5 311.5t173 258t257.5 173t311 64.5t312 -64.5t258.5 -173t173.5 -258t65 -311.5t-64.5 -311.5t-173.5 -258t-258.5 -173t-311.5 -64.5zM947 67q134 0 255.5 51.5t209 139t139 209t51.5 255.5t-52 255.5
t-139.5 209t-209 139t-255.5 51.5t-254.5 -51.5t-208 -139t-138.5 -209t-51 -255.5t51.5 -255.5t138.5 -209t208 -139t255 -51.5zM764 371q-38 0 -59 21.5t-21 58.5v560q0 38 21 59t59 21h231q104 0 165 -48t61 -130q0 -59 -34 -101t-94 -57v-5q79 -10 125 -57t46 -119
q0 -93 -74 -148t-198 -55h-228zM822 790h103q160 0 160 101q0 45 -31.5 70.5t-87.5 25.5h-144v-197zM822 474h115q96 0 141 26t45 81q0 54 -38.5 83.5t-108.5 29.5h-154v-220z" />
    <glyph glyph-name="uni100008.small" unicode="C&#x20dd;" 
d="M947 -85q-162 0 -311 64.5t-258 173t-173.5 258t-64.5 311.5t64.5 311.5t173 258t257.5 173t311 64.5t312 -64.5t258.5 -173t173.5 -258t65 -311.5t-64.5 -311.5t-173.5 -258t-258.5 -173t-311.5 -64.5zM947 67q134 0 255.5 51.5t209 139t139 209t51.5 255.5t-52 255.5
t-139.5 209t-209 139t-255.5 51.5t-254.5 -51.5t-208 -139t-138.5 -209t-51 -255.5t51.5 -255.5t138.5 -209t208 -139t255 -51.5zM946 352q-157 0 -248.5 102t-91.5 276q0 175 92 277.5t248 102.5q105 0 183 -44.5t109 -123.5q8 -19 8 -39q0 -28 -16.5 -44t-44.5 -16
q-36 0 -59 42q-53 108 -178 108q-89 0 -143.5 -72t-54.5 -191q0 -118 54.5 -190t143.5 -72q125 0 178 109q23 42 59 42q28 0 44.5 -16t16.5 -44q0 -20 -8 -39q-31 -79 -109 -123.5t-183 -44.5z" />
    <glyph glyph-name="uni10000A.small" unicode="D&#x20dd;" 
d="M947 -85q-162 0 -311 64.5t-258 173t-173.5 258t-64.5 311.5t64.5 311.5t173 258t257.5 173t311 64.5t312 -64.5t258.5 -173t173.5 -258t65 -311.5t-64.5 -311.5t-173.5 -258t-258.5 -173t-311.5 -64.5zM947 67q134 0 255.5 51.5t209 139t139 209t51.5 255.5t-52 255.5
t-139.5 209t-209 139t-255.5 51.5t-254.5 -51.5t-208 -139t-138.5 -209t-51 -255.5t51.5 -255.5t138.5 -209t208 -139t255 -51.5zM745 371q-34 0 -52 22t-18 59v558q0 37 18 59t52 22h199q172 0 263 -92t91 -267t-91.5 -268t-262.5 -93h-199zM813 480h114q229 0 229 250
q0 124 -58 187.5t-171 63.5h-114v-501z" />
    <glyph glyph-name="uni10000C.small" unicode="E&#x20dd;" 
d="M947 -85q-162 0 -311 64.5t-258 173t-173.5 258t-64.5 311.5t64.5 311.5t173 258t257.5 173t311 64.5t312 -64.5t258.5 -173t173.5 -258t65 -311.5t-64.5 -311.5t-173.5 -258t-258.5 -173t-311.5 -64.5zM947 67q134 0 255.5 51.5t209 139t139 209t51.5 255.5t-52 255.5
t-139.5 209t-209 139t-255.5 51.5t-254.5 -51.5t-208 -139t-138.5 -209t-51 -255.5t51.5 -255.5t138.5 -209t208 -139t255 -51.5zM769 371q-34 0 -52.5 22t-18.5 59v558q0 37 18.5 59t52.5 22h367q26 0 42.5 -15.5t16.5 -42.5t-16.5 -42.5t-42.5 -15.5h-295v-184h275
q26 0 42 -15t16 -41t-16 -40t-42 -14h-275v-194h295q26 0 42.5 -15.5t16.5 -42.5t-16.5 -42.5t-42.5 -15.5h-367z" />
    <glyph glyph-name="uni10000E.small" unicode="F&#x20dd;" 
d="M947 -85q-162 0 -311 64.5t-258 173t-173.5 258t-64.5 311.5t64.5 311.5t173 258t257.5 173t311 64.5t312 -64.5t258.5 -173t173.5 -258t65 -311.5t-64.5 -311.5t-173.5 -258t-258.5 -173t-311.5 -64.5zM947 67q134 0 255.5 51.5t209 139t139 209t51.5 255.5t-52 255.5
t-139.5 209t-209 139t-255.5 51.5t-254.5 -51.5t-208 -139t-138.5 -209t-51 -255.5t51.5 -255.5t138.5 -209t208 -139t255 -51.5zM774 361q-34 0 -52 22t-18 59v568q0 37 18 59t52 22h377q26 0 42.5 -15.5t16.5 -42.5t-16.5 -42.5t-42.5 -15.5h-305v-194h274q26 0 42.5 -15
t16.5 -41t-16.5 -40t-42.5 -14h-274v-229q0 -38 -18.5 -59.5t-53.5 -21.5z" />
    <glyph glyph-name="uni100010.small" unicode="G&#x20dd;" 
d="M947 -85q-162 0 -311 64.5t-258 173t-173.5 258t-64.5 311.5t64.5 311.5t173 258t257.5 173t311 64.5t312 -64.5t258.5 -173t173.5 -258t65 -311.5t-64.5 -311.5t-173.5 -258t-258.5 -173t-311.5 -64.5zM947 67q134 0 255.5 51.5t209 139t139 209t51.5 255.5t-52 255.5
t-139.5 209t-209 139t-255.5 51.5t-254.5 -51.5t-208 -139t-138.5 -209t-51 -255.5t51.5 -255.5t138.5 -209t208 -139t255 -51.5zM949 352q-158 0 -250.5 101.5t-92.5 276.5t92 277.5t248 102.5q106 0 183 -45t109 -123q8 -19 8 -39q0 -28 -16.5 -44t-44.5 -16q-36 0 -59 42
q-53 108 -178 108q-89 0 -143.5 -72t-54.5 -191q0 -118 55 -190t146 -72q82 0 126 37t44 99v54h-128q-23 0 -37 15t-14 35q0 23 13.5 37t37.5 14h193q36 0 56 -20.5t20 -56.5v-58q0 -122 -83.5 -197t-229.5 -75z" />
    <glyph glyph-name="uni100012.small" unicode="H&#x20dd;" 
d="M947 -85q-162 0 -311 64.5t-258 173t-173.5 258t-64.5 311.5t64.5 311.5t173 258t257.5 173t311 64.5t312 -64.5t258.5 -173t173.5 -258t65 -311.5t-64.5 -311.5t-173.5 -258t-258.5 -173t-311.5 -64.5zM947 67q134 0 255.5 51.5t209 139t139 209t51.5 255.5t-52 255.5
t-139.5 209t-209 139t-255.5 51.5t-254.5 -51.5t-208 -139t-138.5 -209t-51 -255.5t51.5 -255.5t138.5 -209t208 -139t255 -51.5zM697 361q-33 0 -51.5 21t-18.5 59v580q0 37 18.5 58t51.5 21q34 0 53 -20.5t19 -58.5v-225h354v225q0 37 18.5 58t51.5 21q34 0 53 -20.5
t19 -58.5v-580q0 -38 -19 -59t-53 -21q-33 0 -51.5 21t-18.5 59v246h-354v-246q0 -38 -19 -59t-53 -21z" />
    <glyph glyph-name="uni100014.small" unicode="I&#x20dd;" 
d="M947 -85q-162 0 -311 64.5t-258 173t-173.5 258t-64.5 311.5t64.5 311.5t173 258t257.5 173t311 64.5t312 -64.5t258.5 -173t173.5 -258t65 -311.5t-64.5 -311.5t-173.5 -258t-258.5 -173t-311.5 -64.5zM947 67q134 0 255.5 51.5t209 139t139 209t51.5 255.5t-52 255.5
t-139.5 209t-209 139t-255.5 51.5t-254.5 -51.5t-208 -139t-138.5 -209t-51 -255.5t51.5 -255.5t138.5 -209t208 -139t255 -51.5zM945 361q-34 0 -52 22t-18 59v578q0 37 18 58.5t52 21.5q36 0 54.5 -21t18.5 -59v-578q0 -38 -19 -59.5t-54 -21.5z" />
    <glyph glyph-name="uni100016.small" unicode="J&#x20dd;" 
d="M947 -85q-162 0 -311 64.5t-258 173t-173.5 258t-64.5 311.5t64.5 311.5t173 258t257.5 173t311 64.5t312 -64.5t258.5 -173t173.5 -258t65 -311.5t-64.5 -311.5t-173.5 -258t-258.5 -173t-311.5 -64.5zM947 67q134 0 255.5 51.5t209 139t139 209t51.5 255.5t-52 255.5
t-139.5 209t-209 139t-255.5 51.5t-254.5 -51.5t-208 -139t-138.5 -209t-51 -255.5t51.5 -255.5t138.5 -209t208 -139t255 -51.5zM906 352q-82 0 -143 36t-83 97q-7 18 -7 40q0 29 18.5 47.5t47.5 18.5q42 0 65 -47q34 -71 110 -71q45 0 71 31.5t26 87.5v428q0 37 18.5 58.5
t52.5 21.5q35 0 53.5 -21t18.5 -59v-430q0 -117 -63 -177.5t-185 -60.5z" />
    <glyph glyph-name="uni100018.small" unicode="&#x212a;&#x20dd;" 
d="M947 -85q-162 0 -311 64.5t-258 173t-173.5 258t-64.5 311.5t64.5 311.5t173 258t257.5 173t311 64.5t312 -64.5t258.5 -173t173.5 -258t65 -311.5t-64.5 -311.5t-173.5 -258t-258.5 -173t-311.5 -64.5zM947 67q134 0 255.5 51.5t209 139t139 209t51.5 255.5t-52 255.5
t-139.5 209t-209 139t-255.5 51.5t-254.5 -51.5t-208 -139t-138.5 -209t-51 -255.5t51.5 -255.5t138.5 -209t208 -139t255 -51.5zM742 361q-33 0 -51.5 21.5t-18.5 59.5v578q0 38 18.5 59t51.5 21q35 0 54 -21t19 -59v-252h4l298 304q25 28 57 28q28 0 47 -17.5t19 -42.5
q0 -28 -23 -51l-205 -212l224 -295q19 -27 19 -54q0 -29 -19 -48t-49 -19q-36 0 -61 34l-218 291l-93 -98v-146q0 -38 -19 -59.5t-54 -21.5z" />
    <glyph glyph-name="uni10001A.small" unicode="L&#x20dd;" 
d="M947 -85q-162 0 -311 64.5t-258 173t-173.5 258t-64.5 311.5t64.5 311.5t173 258t257.5 173t311 64.5t312 -64.5t258.5 -173t173.5 -258t65 -311.5t-64.5 -311.5t-173.5 -258t-258.5 -173t-311.5 -64.5zM947 67q134 0 255.5 51.5t209 139t139 209t51.5 255.5t-52 255.5
t-139.5 209t-209 139t-255.5 51.5t-254.5 -51.5t-208 -139t-138.5 -209t-51 -255.5t51.5 -255.5t138.5 -209t208 -139t255 -51.5zM805 371q-34 0 -52 22t-18 59v568q0 37 18 58.5t52 21.5q35 0 53.5 -21t18.5 -59v-533h286q26 0 42.5 -15.5t16.5 -42.5t-16.5 -42.5
t-42.5 -15.5h-358z" />
    <glyph glyph-name="uni10001C.small" unicode="M&#x20dd;" 
d="M947 -85q-162 0 -311 64.5t-258 173t-173.5 258t-64.5 311.5t64.5 311.5t173 258t257.5 173t311 64.5t312 -64.5t258.5 -173t173.5 -258t65 -311.5t-64.5 -311.5t-173.5 -258t-258.5 -173t-311.5 -64.5zM947 67q134 0 255.5 51.5t209 139t139 209t51.5 255.5t-52 255.5
t-139.5 209t-209 139t-255.5 51.5t-254.5 -51.5t-208 -139t-138.5 -209t-51 -255.5t51.5 -255.5t138.5 -209t208 -139t255 -51.5zM640 356q-30 0 -47 19.5t-17 53.5v591q0 35 23 57.5t60 22.5q61 0 84 -54l202 -503h4l201 503q21 54 84 54q36 0 59 -22.5t23 -57.5v-591
q0 -35 -17 -54t-48 -19q-30 0 -47 19.5t-17 53.5v418h-7l-169 -418q-18 -46 -66 -46q-46 0 -65 46l-168 418h-7v-418q0 -35 -17 -54t-48 -19z" />
    <glyph glyph-name="uni10001E.small" unicode="N&#x20dd;" 
d="M947 -85q-162 0 -311 64.5t-258 173t-173.5 258t-64.5 311.5t64.5 311.5t173 258t257.5 173t311 64.5t312 -64.5t258.5 -173t173.5 -258t65 -311.5t-64.5 -311.5t-173.5 -258t-258.5 -173t-311.5 -64.5zM947 67q134 0 255.5 51.5t209 139t139 209t51.5 255.5t-52 255.5
t-139.5 209t-209 139t-255.5 51.5t-254.5 -51.5t-208 -139t-138.5 -209t-51 -255.5t51.5 -255.5t138.5 -209t208 -139t255 -51.5zM710 361q-31 0 -48 19.5t-17 52.5v595q0 33 17.5 52.5t48.5 19.5q41 0 70 -41l328 -462h6v432q0 33 17.5 52t47.5 19q32 0 50 -18.5t18 -52.5
v-596q0 -34 -18 -53t-50 -19q-39 0 -68 41l-329 453h-5v-422q0 -34 -18 -53t-50 -19z" />
    <glyph glyph-name="uni100020.small" unicode="O&#x20dd;" 
d="M947 -85q-162 0 -311 64.5t-258 173t-173.5 258t-64.5 311.5t64.5 311.5t173 258t257.5 173t311 64.5t312 -64.5t258.5 -173t173.5 -258t65 -311.5t-64.5 -311.5t-173.5 -258t-258.5 -173t-311.5 -64.5zM947 67q134 0 255.5 51.5t209 139t139 209t51.5 255.5t-52 255.5
t-139.5 209t-209 139t-255.5 51.5t-254.5 -51.5t-208 -139t-138.5 -209t-51 -255.5t51.5 -255.5t138.5 -209t208 -139t255 -51.5zM947 352q-152 0 -248.5 105.5t-96.5 272.5q0 168 96.5 274t248.5 106t248.5 -106t96.5 -274q0 -167 -96.5 -272.5t-248.5 -105.5zM947 463
q92 0 147 72.5t55 194.5q0 123 -55 196t-147 73t-147.5 -73t-55.5 -196q0 -121 55.5 -194t147.5 -73z" />
    <glyph glyph-name="uni100022.small" unicode="P&#x20dd;" 
d="M947 -85q-162 0 -311 64.5t-258 173t-173.5 258t-64.5 311.5t64.5 311.5t173 258t257.5 173t311 64.5t312 -64.5t258.5 -173t173.5 -258t65 -311.5t-64.5 -311.5t-173.5 -258t-258.5 -173t-311.5 -64.5zM947 67q134 0 255.5 51.5t209 139t139 209t51.5 255.5t-52 255.5
t-139.5 209t-209 139t-255.5 51.5t-254.5 -51.5t-208 -139t-138.5 -209t-51 -255.5t51.5 -255.5t138.5 -209t208 -139t255 -51.5zM778 361q-34 0 -52 22t-18 59v568q0 37 18 59t52 22h219q118 0 191 -68.5t73 -179.5q0 -112 -72.5 -179.5t-192.5 -67.5h-145v-154
q0 -38 -19 -59.5t-54 -21.5zM851 703h124q69 0 107.5 37t38.5 103t-39 103t-107 37h-124v-280z" />
    <glyph glyph-name="uni100024.small" unicode="Q&#x20dd;" 
d="M947 -85q-162 0 -311 64.5t-258 173t-173.5 258t-64.5 311.5t64.5 311.5t173 258t257.5 173t311 64.5t312 -64.5t258.5 -173t173.5 -258t65 -311.5t-64.5 -311.5t-173.5 -258t-258.5 -173t-311.5 -64.5zM947 67q134 0 255.5 51.5t209 139t139 209t51.5 255.5t-52 255.5
t-139.5 209t-209 139t-255.5 51.5t-254.5 -51.5t-208 -139t-138.5 -209t-51 -255.5t51.5 -255.5t138.5 -209t208 -139t255 -51.5zM947 352q-153 0 -249 105.5t-96 272.5q0 168 96 274t249 106q152 0 248.5 -106t96.5 -274q0 -94 -33 -171.5t-93 -128.5l42 -56q22 -28 22 -49
q0 -23 -15 -37.5t-38 -14.5q-32 0 -56 31l-51 69q-56 -21 -123 -21zM947 463q30 0 52 7l-31 41q-16 25 -16 45q0 21 15.5 35.5t37.5 14.5q29 0 47 -25l38 -50q59 73 59 199q0 123 -55 196t-147 73t-147.5 -73t-55.5 -196q0 -121 55.5 -194t147.5 -73z" />
    <glyph glyph-name="uni100026.small" unicode="R&#x20dd;" 
d="M947 -85q-162 0 -311 64.5t-258 173t-173.5 258t-64.5 311.5t64.5 311.5t173 258t257.5 173t311 64.5t312 -64.5t258.5 -173t173.5 -258t65 -311.5t-64.5 -311.5t-173.5 -258t-258.5 -173t-311.5 -64.5zM947 67q134 0 255.5 51.5t209 139t139 209t51.5 255.5t-52 255.5
t-139.5 209t-209 139t-255.5 51.5t-254.5 -51.5t-208 -139t-138.5 -209t-51 -255.5t51.5 -255.5t138.5 -209t208 -139t255 -51.5zM745 361q-34 0 -52 21.5t-18 58.5v569q0 37 18 59t52 22h227q125 0 198 -64t73 -173q0 -72 -41 -130t-109 -83l110 -169q16 -23 16 -50
t-18.5 -44t-47.5 -17q-23 0 -38.5 10.5t-31.5 36.5l-131 211h-135v-178q0 -38 -18.5 -59t-53.5 -21zM817 722h132q72 0 112 33t40 95q0 63 -40 98t-108 35h-136v-261z" />
    <glyph glyph-name="uni100028.small" unicode="S&#x20dd;" 
d="M947 -85q-162 0 -311 64.5t-258 173t-173.5 258t-64.5 311.5t64.5 311.5t173 258t257.5 173t311 64.5t312 -64.5t258.5 -173t173.5 -258t65 -311.5t-64.5 -311.5t-173.5 -258t-258.5 -173t-311.5 -64.5zM947 67q134 0 255.5 51.5t209 139t139 209t51.5 255.5t-52 255.5
t-139.5 209t-209 139t-255.5 51.5t-254.5 -51.5t-208 -139t-138.5 -209t-51 -255.5t51.5 -255.5t138.5 -209t208 -139t255 -51.5zM938 352q-103 0 -174.5 41.5t-96.5 99.5q-9 23 -9 42q0 29 17 46t46 17q44 0 67 -45q43 -86 158 -86q64 0 103 25t39 73q0 38 -25 58.5
t-92 40.5l-115 32q-95 27 -143 73.5t-48 120.5q0 96 78.5 157.5t202.5 61.5q99 0 168.5 -40t93.5 -103q9 -24 9 -40q0 -30 -17.5 -45.5t-45.5 -15.5q-45 0 -66 44q-22 46 -57 67t-91 21q-59 0 -92.5 -26t-33.5 -72q0 -34 23.5 -55.5t76.5 -35.5l104 -28q109 -29 163.5 -77
t54.5 -126q0 -103 -81 -164t-217 -61z" />
    <glyph glyph-name="uni10002A.small" unicode="T&#x20dd;" 
d="M947 -85q-162 0 -311 64.5t-258 173t-173.5 258t-64.5 311.5t64.5 311.5t173 258t257.5 173t311 64.5t312 -64.5t258.5 -173t173.5 -258t65 -311.5t-64.5 -311.5t-173.5 -258t-258.5 -173t-311.5 -64.5zM947 67q134 0 255.5 51.5t209 139t139 209t51.5 255.5t-52 255.5
t-139.5 209t-209 139t-255.5 51.5t-254.5 -51.5t-208 -139t-138.5 -209t-51 -255.5t51.5 -255.5t138.5 -209t208 -139t255 -51.5zM945 358q-34 0 -52.5 21.5t-18.5 58.5v533h-187q-26 0 -42.5 15.5t-16.5 42.5t16.5 42.5t42.5 15.5h518q26 0 42.5 -15.5t16.5 -42.5
t-16.5 -42.5t-42.5 -15.5h-188v-533q0 -38 -18.5 -59t-53.5 -21z" />
    <glyph glyph-name="uni10002C.small" unicode="U&#x20dd;" 
d="M947 -85q-162 0 -311 64.5t-258 173t-173.5 258t-64.5 311.5t64.5 311.5t173 258t257.5 173t311 64.5t312 -64.5t258.5 -173t173.5 -258t65 -311.5t-64.5 -311.5t-173.5 -258t-258.5 -173t-311.5 -64.5zM947 67q134 0 255.5 51.5t209 139t139 209t51.5 255.5t-52 255.5
t-139.5 209t-209 139t-255.5 51.5t-254.5 -51.5t-208 -139t-138.5 -209t-51 -255.5t51.5 -255.5t138.5 -209t208 -139t255 -51.5zM946 352q-143 0 -229.5 75.5t-86.5 200.5v392q0 38 18.5 59t52.5 21t53 -21t19 -59v-378q0 -80 46.5 -127t126.5 -47t127 47t47 127v378
q0 38 18.5 59t51.5 21q34 0 53 -21t19 -59v-392q0 -125 -86.5 -200.5t-229.5 -75.5z" />
    <glyph glyph-name="uni10002E.small" unicode="V&#x20dd;" 
d="M947 -85q-162 0 -311 64.5t-258 173t-173.5 258t-64.5 311.5t64.5 311.5t173 258t257.5 173t311 64.5t312 -64.5t258.5 -173t173.5 -258t65 -311.5t-64.5 -311.5t-173.5 -258t-258.5 -173t-311.5 -64.5zM947 67q134 0 255.5 51.5t209 139t139 209t51.5 255.5t-52 255.5
t-139.5 209t-209 139t-255.5 51.5t-254.5 -51.5t-208 -139t-138.5 -209t-51 -255.5t51.5 -255.5t138.5 -209t208 -139t255 -51.5zM947 352q-40 0 -64 19t-41 65l-215 558q-6 22 -6 38q0 29 20.5 48t51.5 19q55 0 76 -60l174 -517h6l175 517q20 60 76 60q31 0 51.5 -19
t20.5 -48q0 -17 -7 -38l-214 -557q-17 -44 -41.5 -64.5t-62.5 -20.5z" />
    <glyph glyph-name="uni100030.small" unicode="W&#x20dd;" 
d="M947 -85q-162 0 -311 64.5t-258 173t-173.5 258t-64.5 311.5t64.5 311.5t173 258t257.5 173t311 64.5t312 -64.5t258.5 -173t173.5 -258t65 -311.5t-64.5 -311.5t-173.5 -258t-258.5 -173t-311.5 -64.5zM947 67q134 0 255.5 51.5t209 139t139 209t51.5 255.5t-52 255.5
t-139.5 209t-209 139t-255.5 51.5t-254.5 -51.5t-208 -139t-138.5 -209t-51 -255.5t51.5 -255.5t138.5 -209t208 -139t255 -51.5zM734 352q-70 0 -87 69l-154 584q-4 13 -4 27q0 30 19 48.5t50 18.5t47.5 -16t25.5 -55l108 -472h6l124 485q13 58 77 58q62 0 77 -58l124 -485
h6l109 472q9 39 25.5 55t47.5 16t49.5 -18.5t18.5 -48.5q0 -12 -3 -27l-155 -584q-17 -69 -87 -69q-72 0 -89 67l-120 473h-6l-120 -473q-17 -67 -89 -67z" />
    <glyph glyph-name="uni100032.small" unicode="X&#x20dd;" 
d="M947 -85q-162 0 -311 64.5t-258 173t-173.5 258t-64.5 311.5t64.5 311.5t173 258t257.5 173t311 64.5t312 -64.5t258.5 -173t173.5 -258t65 -311.5t-64.5 -311.5t-173.5 -258t-258.5 -173t-311.5 -64.5zM947 67q134 0 255.5 51.5t209 139t139 209t51.5 255.5t-52 255.5
t-139.5 209t-209 139t-255.5 51.5t-254.5 -51.5t-208 -139t-138.5 -209t-51 -255.5t51.5 -255.5t138.5 -209t208 -139t255 -51.5zM711 361q-28 0 -47 18t-19 44q0 25 16 46l197 267l-184 247q-19 26 -19 52t21 45.5t49 19.5q41 0 67 -38l161 -230h4l156 229q26 39 65 39
q29 0 48.5 -18t19.5 -44q0 -25 -18 -47l-195 -260l194 -258q17 -21 17 -47q0 -28 -20 -46.5t-50 -18.5q-21 0 -35.5 9t-31.5 33l-163 228h-3l-163 -228q-17 -24 -31 -33t-36 -9z" />
    <glyph glyph-name="uni100034.small" unicode="Y&#x20dd;" 
d="M947 -85q-162 0 -311 64.5t-258 173t-173.5 258t-64.5 311.5t64.5 311.5t173 258t257.5 173t311 64.5t312 -64.5t258.5 -173t173.5 -258t65 -311.5t-64.5 -311.5t-173.5 -258t-258.5 -173t-311.5 -64.5zM947 67q134 0 255.5 51.5t209 139t139 209t51.5 255.5t-52 255.5
t-139.5 209t-209 139t-255.5 51.5t-254.5 -51.5t-208 -139t-138.5 -209t-51 -255.5t51.5 -255.5t138.5 -209t208 -139t255 -51.5zM947 361q-34 0 -52.5 22t-18.5 59v185l-216 370q-11 24 -11 42q0 25 19 43t46 18q25 0 39.5 -9.5t28.5 -35.5l163 -294h5l164 294
q14 26 28.5 35.5t37.5 9.5q28 0 46 -18t18 -45q0 -20 -11 -40l-214 -368v-187q0 -38 -18.5 -59.5t-53.5 -21.5z" />
    <glyph glyph-name="uni100036.small" unicode="Z&#x20dd;" 
d="M947 -85q-162 0 -311 64.5t-258 173t-173.5 258t-64.5 311.5t64.5 311.5t173 258t257.5 173t311 64.5t312 -64.5t258.5 -173t173.5 -258t65 -311.5t-64.5 -311.5t-173.5 -258t-258.5 -173t-311.5 -64.5zM947 67q134 0 255.5 51.5t209 139t139 209t51.5 255.5t-52 255.5
t-139.5 209t-209 139t-255.5 51.5t-254.5 -51.5t-208 -139t-138.5 -209t-51 -255.5t51.5 -255.5t138.5 -209t208 -139t255 -51.5zM720 371q-27 0 -44.5 16.5t-17.5 42.5q0 24 24 57l345 481v7h-313q-26 0 -42.5 15.5t-16.5 42.5q0 26 16.5 42t42.5 16h435q28 0 45.5 -17.5
t17.5 -44.5q0 -26 -21 -53l-345 -482v-7h334q26 0 42.5 -15.5t16.5 -42.5t-16.5 -42.5t-42.5 -15.5h-460z" />
    <glyph glyph-name="uni100038.small" unicode="&#x30;&#x20dd;" 
d="M947 -85q-162 0 -311 64.5t-258 173t-173.5 258t-64.5 311.5t64.5 311.5t173 258t257.5 173t311 64.5t312 -64.5t258.5 -173t173.5 -258t65 -311.5t-64.5 -311.5t-173.5 -258t-258.5 -173t-311.5 -64.5zM947 67q134 0 255.5 51.5t209 139t139 209t51.5 255.5t-52 255.5
t-139.5 209t-209 139t-255.5 51.5t-254.5 -51.5t-208 -139t-138.5 -209t-51 -255.5t51.5 -255.5t138.5 -209t208 -139t255 -51.5zM946 345q-128 0 -206 104t-78 273t78 273t206 104t206.5 -103.5t78.5 -273.5t-78.5 -273.5t-206.5 -103.5zM946 458q67 0 107.5 72.5
t40.5 191.5t-40.5 191.5t-107.5 72.5q-66 0 -106.5 -72.5t-40.5 -191.5t40.5 -191.5t106.5 -72.5z" />
    <glyph glyph-name="uni100039.small" unicode="&#x30;&#x20dd;&#x25cf;" 
d="M947 -85q-162 0 -311 64.5t-258 173t-173.5 258t-64.5 311.5t64.5 311.5t173 258t257.5 173t311 64.5t312 -64.5t258.5 -173t173.5 -258t65 -311.5t-64.5 -311.5t-173.5 -258t-258.5 -173t-311.5 -64.5zM946 331q133 0 214 107.5t81 283.5t-81 283.5t-214 107.5
t-214 -107.5t-81 -283.5t81 -283.5t214 -107.5zM946 449q-68 0 -110.5 75t-42.5 198t42.5 198t110.5 75q69 0 111.5 -75t42.5 -198t-42.5 -198t-111.5 -75z" />
    <glyph glyph-name="uni1000F2.small" unicode="&#x2713;&#x20de;" horiz-adv-x="1857" 
d="M455 -8q-255 0 -255 252v954q0 252 255 252h947q255 0 255 -252v-954q0 -252 -255 -252h-947zM457 137h943q113 0 113 114v940q0 56 -29.5 85t-83.5 29h-943q-54 0 -83.5 -29t-29.5 -85v-940q0 -114 113 -114zM843 350q-45 0 -77 42l-180 225q-20 28 -20 55q0 30 20 50.5
t49 20.5q40 0 66 -36l138 -186l308 498q24 40 61 40q30 0 51.5 -18t21.5 -47q0 -22 -22 -58l-344 -544q-25 -42 -72 -42z" />
    <glyph glyph-name="uni1000F0.small" unicode="&#x2717;&#x20de;" horiz-adv-x="1857" 
d="M455 -8q-255 0 -255 252v954q0 252 255 252h947q255 0 255 -252v-954q0 -252 -255 -252h-947zM457 137h943q113 0 113 114v940q0 56 -29.5 85t-83.5 29h-943q-54 0 -83.5 -29t-29.5 -85v-940q0 -114 113 -114zM665 386q-29 0 -50 21t-21 51q0 28 21 49l213 214l-213 214
q-21 21 -21 49q0 30 21 50.5t50 20.5t49 -21l215 -214l216 215q21 21 49 21q29 0 50 -20.5t21 -50.5q0 -28 -21 -49l-214 -215l213 -213q21 -23 21 -50q0 -30 -21 -51t-50 -21q-31 0 -50 21l-214 214l-213 -214q-20 -21 -51 -21z" />
    <glyph glyph-name="uni10003B.small" unicode="&#x31;&#x20dd;&#x25cf;" 
d="M947 -85q-162 0 -311 64.5t-258 173t-173.5 258t-64.5 311.5t64.5 311.5t173 258t257.5 173t311 64.5t312 -64.5t258.5 -173t173.5 -258t65 -311.5t-64.5 -311.5t-173.5 -258t-258.5 -173t-311.5 -64.5zM991 351q36 0 55.5 22t19.5 62v574q0 40 -20 62t-58 22
q-46 0 -98 -36l-140 -96q-28 -20 -28 -51q0 -22 15 -38.5t36 -16.5t46 18l93 61h6v-499q0 -40 19 -62t54 -22z" />
    <glyph glyph-name="uni10003D.small" unicode="&#x32;&#x20dd;&#x25cf;" 
d="M947 -85q-162 0 -311 64.5t-258 173t-173.5 258t-64.5 311.5t64.5 311.5t173 258t257.5 173t311 64.5t312 -64.5t258.5 -173t173.5 -258t65 -311.5t-64.5 -311.5t-173.5 -258t-258.5 -173t-311.5 -64.5zM760 350h420q27 0 44.5 17t17.5 44q0 28 -17 44t-45 16h-280v6
l181 192q62 66 93 118t31 117q0 94 -71 151.5t-187 57.5q-86 0 -156 -46.5t-92 -114.5q-6 -16 -6 -35q0 -26 16.5 -42t43.5 -16q22 0 36 11.5t29 34.5q16 26 30 43t42.5 32.5t63.5 15.5q54 0 87.5 -29t33.5 -76q0 -12 -2.5 -24t-10 -25.5t-12 -21.5t-18 -23.5t-17.5 -19.5
t-21 -22t-19 -20l-255 -270q-24 -27 -24 -55q0 -27 17 -43.5t47 -16.5z" />
    <glyph glyph-name="uni10003F.small" unicode="&#x33;&#x20dd;&#x25cf;" 
d="M947 -85q-162 0 -311 64.5t-258 173t-173.5 258t-64.5 311.5t64.5 311.5t173 258t257.5 173t311 64.5t312 -64.5t258.5 -173t173.5 -258t65 -311.5t-64.5 -311.5t-173.5 -258t-258.5 -173t-311.5 -64.5zM939 331q135 0 213 62t78 162q0 71 -48.5 123t-123.5 59v6
q61 8 103.5 58t42.5 113q0 88 -71.5 143.5t-184.5 55.5q-104 0 -175 -43.5t-89 -117.5q-4 -16 -4 -34q0 -28 17.5 -44.5t45.5 -16.5q45 0 62 47q32 92 140 92q58 0 90.5 -25.5t32.5 -71.5q0 -48 -36 -78.5t-92 -30.5h-47q-25 0 -41 -16t-16 -41q0 -24 16 -40t41 -16h51
q67 0 108 -32.5t41 -84.5q0 -51 -41.5 -81.5t-109.5 -30.5q-115 0 -152 92q-18 47 -62 47q-28 0 -46 -17.5t-18 -45.5q0 -16 4 -32q18 -72 93 -116.5t178 -44.5z" />
    <glyph glyph-name="uni100041.small" unicode="&#x34;&#x20dd;&#x25cf;" 
d="M947 -85q-162 0 -311 64.5t-258 173t-173.5 258t-64.5 311.5t64.5 311.5t173 258t257.5 173t311 64.5t312 -64.5t258.5 -173t173.5 -258t65 -311.5t-64.5 -311.5t-173.5 -258t-258.5 -173t-311.5 -64.5zM1055 350q34 0 52 20t18 58v67h53q27 0 44 16.5t17 43.5
t-16.5 43.5t-44.5 16.5h-53v402q0 42 -31 69t-80 27q-48 0 -81 -18t-60 -60q-192 -291 -240 -369q-25 -42 -25 -81q0 -41 25.5 -65.5t68.5 -24.5h286v-67q0 -37 17.5 -57.5t49.5 -20.5zM988 615h-246v5q48 83 240 376h6v-381z" />
    <glyph glyph-name="uni100043.small" unicode="&#x35;&#x20dd;&#x25cf;" 
d="M947 -85q-162 0 -311 64.5t-258 173t-173.5 258t-64.5 311.5t64.5 311.5t173 258t257.5 173t311 64.5t312 -64.5t258.5 -173t173.5 -258t65 -311.5t-64.5 -311.5t-173.5 -258t-258.5 -173t-311.5 -64.5zM941 331q128 0 207 72.5t79 192.5q0 110 -71.5 178.5t-185.5 68.5
q-49 0 -95 -19t-66 -47h-6l18 204h321q23 0 38.5 15.5t15.5 40.5t-15 41t-39 16h-333q-45 0 -73 -23.5t-31 -63.5l-21 -256q-3 -40 18.5 -64.5t59.5 -24.5q43 0 92 35q48 37 99 37q60 0 96.5 -38.5t36.5 -102.5q0 -63 -42.5 -105t-106.5 -42q-46 0 -83.5 21t-59.5 59
q-25 43 -65 43q-28 0 -45 -17t-17 -44q0 -22 10 -45q26 -62 96 -97t168 -35z" />
    <glyph glyph-name="uni100045.small" unicode="&#x36;&#x20dd;&#x25cf;" 
d="M947 -85q-162 0 -311 64.5t-258 173t-173.5 258t-64.5 311.5t64.5 311.5t173 258t257.5 173t311 64.5t312 -64.5t258.5 -173t173.5 -258t65 -311.5t-64.5 -311.5t-173.5 -258t-258.5 -173t-311.5 -64.5zM953 331q129 0 207.5 70.5t78.5 196.5q0 114 -73 179t-175 65
q-76 0 -125 -32t-69 -79h-7v9q0 115 50 185.5t130 70.5q36 0 57.5 -11.5t43.5 -32.5q19 -18 28 -25t23 -13.5t29 -6.5q23 0 39 15t16 39q0 20 -9 41q-21 47 -83.5 79t-138.5 32q-152 0 -236.5 -103t-84.5 -305q0 -164 57 -253q76 -121 242 -121zM947 441q-64 0 -106 43
t-42 109q0 63 41.5 104t106.5 41t106.5 -41t41.5 -105q0 -68 -40.5 -109.5t-107.5 -41.5z" />
    <glyph glyph-name="uni100047.small" unicode="&#x37;&#x20dd;&#x25cf;" 
d="M947 -85q-162 0 -311 64.5t-258 173t-173.5 258t-64.5 311.5t64.5 311.5t173 258t257.5 173t311 64.5t312 -64.5t258.5 -173t173.5 -258t65 -311.5t-64.5 -311.5t-173.5 -258t-258.5 -173t-311.5 -64.5zM837 331q46 0 72 50l299 552q22 42 22 72q0 38 -27.5 63.5
t-71.5 25.5h-397q-24 0 -39 -16t-15 -41t15.5 -40.5t38.5 -15.5h335v-7l-293 -529q-12 -21 -12 -47q0 -30 21 -48.5t52 -18.5z" />
    <glyph glyph-name="uni100049.small" unicode="&#x38;&#x20dd;&#x25cf;" 
d="M947 -85q-162 0 -311 64.5t-258 173t-173.5 258t-64.5 311.5t64.5 311.5t173 258t257.5 173t311 64.5t312 -64.5t258.5 -173t173.5 -258t65 -311.5t-64.5 -311.5t-173.5 -258t-258.5 -173t-311.5 -64.5zM945 331q134 0 216.5 61t82.5 161q0 69 -46 120.5t-120 66.5v5
q62 18 98 63.5t36 104.5q0 89 -74 144.5t-192 55.5q-117 0 -191 -56t-74 -144q0 -60 35.5 -104.5t98.5 -63.5v-5q-75 -15 -120.5 -67t-45.5 -121q0 -100 81 -160.5t215 -60.5zM946 786q-57 0 -93.5 32.5t-36.5 82.5q0 49 36.5 80t93.5 31q58 0 94.5 -31t36.5 -80
q0 -50 -36.5 -82.5t-94.5 -32.5zM947 431q-68 0 -112.5 36.5t-44.5 93.5q0 55 45 92.5t112 37.5q69 0 113 -36.5t44 -93.5t-44.5 -93.5t-112.5 -36.5z" />
    <glyph glyph-name="uni10004B.small" unicode="&#x39;&#x20dd;&#x25cf;" 
d="M947 -85q-162 0 -311 64.5t-258 173t-173.5 258t-64.5 311.5t64.5 311.5t173 258t257.5 173t311 64.5t312 -64.5t258.5 -173t173.5 -258t65 -311.5t-64.5 -311.5t-173.5 -258t-258.5 -173t-311.5 -64.5zM926 331q152 0 231.5 105t79.5 308q0 178 -77 273.5t-219 95.5
q-130 0 -207 -71.5t-77 -192.5q0 -112 72.5 -176.5t173.5 -64.5q75 0 124 31t69 77h7q1 -123 -48.5 -195.5t-130.5 -72.5q-69 0 -119 63q-28 35 -63 35q-27 0 -44 -16.5t-17 -42.5q0 -16 6 -31q18 -51 79 -88t160 -37zM947 710q-64 0 -105.5 41t-41.5 104q0 68 40 109
t107 41q63 0 105 -43t42 -108q0 -62 -41.5 -103t-105.5 -41z" />
    <glyph glyph-name="dblemdash" unicode="&#x2014;&#x2014;" horiz-adv-x="3580" 
d="M81 500v162h3418v-162h-3418z" />
    <glyph glyph-name="trplemdash" unicode="&#x2014;&#x2014;&#x2014;" horiz-adv-x="5370" 
d="M81 500v162h5208v-162h-5208z" />
    <glyph glyph-name="uni10009D.small" unicode="E&#x20de;&#x25a0;" horiz-adv-x="1857" 
d="M455 -8q-255 0 -255 252v954q0 252 255 252h947q255 0 255 -252v-954q0 -252 -255 -252h-947zM744 358h382q27 0 44 16.5t17 43.5q0 28 -17 44t-44 16h-307v201h285q27 0 44 14.5t17 41.5q0 28 -17 43t-44 15h-285v191h307q27 0 44 16.5t17 43.5q0 28 -17 44t-44 16h-382
q-35 0 -54 -23t-19 -61v-578q0 -38 19 -61t54 -23z" />
    <glyph glyph-name="uni100094.small" unicode="A&#x20de;" horiz-adv-x="1857" 
d="M455 -8q-255 0 -255 252v954q0 252 255 252h947q255 0 255 -252v-954q0 -252 -255 -252h-947zM457 137h943q113 0 113 114v940q0 56 -29.5 85t-83.5 29h-943q-54 0 -83.5 -29t-29.5 -85v-940q0 -114 113 -114zM671 352q-30 0 -48 17t-18 44q0 19 10 46l213 580
q27 70 99 70q75 0 101 -70l214 -580q10 -27 10 -46q0 -27 -18 -44t-48 -17q-50 0 -68 56l-53 157h-274l-52 -157q-19 -56 -68 -56zM826 671h204l-97 290h-9z" />
    <glyph glyph-name="uni100096.small" unicode="B&#x20de;" horiz-adv-x="1857" 
d="M455 -8q-255 0 -255 252v954q0 252 255 252h947q255 0 255 -252v-954q0 -252 -255 -252h-947zM457 137h943q113 0 113 114v940q0 56 -29.5 85t-83.5 29h-943q-54 0 -83.5 -29t-29.5 -85v-940q0 -114 113 -114zM746 371q-38 0 -59 21.5t-21 58.5v560q0 38 21 59t59 21h231
q104 0 165.5 -48t61.5 -130q0 -59 -34 -101t-95 -57v-5q80 -10 125.5 -57t45.5 -119q0 -92 -74 -147.5t-198 -55.5h-228zM804 790h103q161 0 161 101q0 45 -32 70.5t-88 25.5h-144v-197zM804 474h115q96 0 141 26t45 81q0 54 -38.5 83.5t-108.5 29.5h-154v-220z" />
    <glyph glyph-name="uni100098.small" unicode="C&#x20de;" horiz-adv-x="1857" 
d="M455 -8q-255 0 -255 252v954q0 252 255 252h947q255 0 255 -252v-954q0 -252 -255 -252h-947zM457 137h943q113 0 113 114v940q0 56 -29.5 85t-83.5 29h-943q-54 0 -83.5 -29t-29.5 -85v-940q0 -114 113 -114zM928 352q-157 0 -248.5 102t-91.5 276q0 175 92 277.5
t248 102.5q105 0 183 -44.5t109 -123.5q8 -19 8 -39q0 -28 -16.5 -44t-44.5 -16q-36 0 -59 42q-52 108 -178 108q-89 0 -143 -72t-54 -191q0 -118 54 -189.5t143 -71.5q126 0 178 108q23 42 59 42q28 0 44.5 -16t16.5 -44q0 -20 -8 -39q-32 -79 -109 -123.5t-183 -44.5z" />
    <glyph glyph-name="uni10009A.small" unicode="D&#x20de;" horiz-adv-x="1857" 
d="M455 -8q-255 0 -255 252v954q0 252 255 252h947q255 0 255 -252v-954q0 -252 -255 -252h-947zM457 137h943q113 0 113 114v940q0 56 -29.5 85t-83.5 29h-943q-54 0 -83.5 -29t-29.5 -85v-940q0 -114 113 -114zM727 371q-34 0 -52 22t-18 59v558q0 37 18 59t52 22h199
q172 0 263 -92t91 -266q0 -175 -91.5 -268.5t-262.5 -93.5h-199zM795 480h115q228 0 228 251q0 123 -58 186.5t-170 63.5h-115v-501z" />
    <glyph glyph-name="uni10009C.small" unicode="E&#x20de;" horiz-adv-x="1857" 
d="M455 -8q-255 0 -255 252v954q0 252 255 252h947q255 0 255 -252v-954q0 -252 -255 -252h-947zM457 137h943q113 0 113 114v940q0 56 -29.5 85t-83.5 29h-943q-54 0 -83.5 -29t-29.5 -85v-940q0 -114 113 -114zM751 371q-34 0 -52 22t-18 59v558q0 37 18 59t52 22h368
q26 0 42.5 -15.5t16.5 -42.5t-16.5 -42.5t-42.5 -15.5h-296v-184h275q26 0 42.5 -15t16.5 -41t-16.5 -40t-42.5 -14h-275v-194h296q26 0 42.5 -15.5t16.5 -42.5q0 -26 -16.5 -42t-42.5 -16h-368z" />
    <glyph glyph-name="uni10009E.small" unicode="F&#x20de;" horiz-adv-x="1857" 
d="M455 -8q-255 0 -255 252v954q0 252 255 252h947q255 0 255 -252v-954q0 -252 -255 -252h-947zM457 137h943q113 0 113 114v940q0 56 -29.5 85t-83.5 29h-943q-54 0 -83.5 -29t-29.5 -85v-940q0 -114 113 -114zM757 362q-34 0 -52.5 21.5t-18.5 58.5v568q0 37 18 59t52 22
h377q26 0 42.5 -15.5t16.5 -42.5t-16.5 -42.5t-42.5 -15.5h-304v-194h274q26 0 42 -15t16 -41t-16 -40t-42 -14h-274v-229q0 -38 -18.5 -59t-53.5 -21z" />
    <glyph glyph-name="uni1000A0.small" unicode="G&#x20de;" horiz-adv-x="1857" 
d="M455 -8q-255 0 -255 252v954q0 252 255 252h947q255 0 255 -252v-954q0 -252 -255 -252h-947zM457 137h943q113 0 113 114v940q0 56 -29.5 85t-83.5 29h-943q-54 0 -83.5 -29t-29.5 -85v-940q0 -114 113 -114zM931 352q-158 0 -250.5 101.5t-92.5 276.5t92 277.5
t248 102.5q106 0 183 -45t109 -123q8 -19 8 -39q0 -28 -16.5 -44t-44.5 -16q-36 0 -58 42q-54 108 -179 108q-89 0 -143 -72t-54 -191q0 -118 54.5 -189.5t145.5 -71.5q83 0 126.5 36.5t43.5 98.5v54h-127q-23 0 -37.5 15t-14.5 36q0 22 14 36t38 14h192q36 0 56 -20.5
t20 -56.5v-58q0 -122 -83.5 -197t-229.5 -75z" />
    <glyph glyph-name="uni1000A2.small" unicode="H&#x20de;" horiz-adv-x="1857" 
d="M455 -8q-255 0 -255 252v954q0 252 255 252h947q255 0 255 -252v-954q0 -252 -255 -252h-947zM457 137h943q113 0 113 114v940q0 56 -29.5 85t-83.5 29h-943q-54 0 -83.5 -29t-29.5 -85v-940q0 -114 113 -114zM679 362q-33 0 -51.5 21t-18.5 58v580q0 37 18.5 58t51.5 21
q35 0 53.5 -20.5t18.5 -58.5v-225h354v225q0 37 18.5 58t51.5 21q35 0 53.5 -20.5t18.5 -58.5v-580q0 -38 -18.5 -58.5t-53.5 -20.5q-33 0 -51.5 21t-18.5 58v246h-354v-246q0 -38 -18.5 -58.5t-53.5 -20.5z" />
    <glyph glyph-name="uni1000A4.small" unicode="I&#x20de;" horiz-adv-x="1857" 
d="M455 -8q-255 0 -255 252v954q0 252 255 252h947q255 0 255 -252v-954q0 -252 -255 -252h-947zM457 137h943q113 0 113 114v940q0 56 -29.5 85t-83.5 29h-943q-54 0 -83.5 -29t-29.5 -85v-940q0 -114 113 -114zM928 362q-34 0 -52.5 21.5t-18.5 58.5v578q0 37 18.5 58.5
t52.5 21.5q35 0 53.5 -21t18.5 -59v-578q0 -38 -18.5 -59t-53.5 -21z" />
    <glyph glyph-name="uni1000A6.small" unicode="J&#x20de;" horiz-adv-x="1857" 
d="M455 -8q-255 0 -255 252v954q0 252 255 252h947q255 0 255 -252v-954q0 -252 -255 -252h-947zM457 137h943q113 0 113 114v940q0 56 -29.5 85t-83.5 29h-943q-54 0 -83.5 -29t-29.5 -85v-940q0 -114 113 -114zM888 352q-82 0 -142.5 36t-83.5 97q-6 20 -6 40
q0 29 18 47.5t47 18.5q42 0 66 -47q32 -71 109 -71q46 0 72 31.5t26 87.5v428q0 37 18 58.5t52 21.5q35 0 53.5 -21t18.5 -59v-430q0 -117 -63 -177.5t-185 -60.5z" />
    <glyph glyph-name="uni1000A8.small" unicode="&#x212a;&#x20de;" horiz-adv-x="1857" 
d="M455 -8q-255 0 -255 252v954q0 252 255 252h947q255 0 255 -252v-954q0 -252 -255 -252h-947zM457 137h943q113 0 113 114v940q0 56 -29.5 85t-83.5 29h-943q-54 0 -83.5 -29t-29.5 -85v-940q0 -114 113 -114zM725 362q-34 0 -52.5 21t-18.5 59v578q0 38 18.5 59t52.5 21
t53 -21t19 -59v-252h5l297 304q27 28 57 28q28 0 47 -17.5t19 -42.5q0 -28 -22 -51l-206 -212l224 -295q19 -27 19 -54q0 -29 -19 -47.5t-49 -18.5q-37 0 -61 33l-218 291l-93 -97v-147q0 -38 -19 -59t-53 -21z" />
    <glyph glyph-name="uni1000AA.small" unicode="L&#x20de;" horiz-adv-x="1857" 
d="M455 -8q-255 0 -255 252v954q0 252 255 252h947q255 0 255 -252v-954q0 -252 -255 -252h-947zM457 137h943q113 0 113 114v940q0 56 -29.5 85t-83.5 29h-943q-54 0 -83.5 -29t-29.5 -85v-940q0 -114 113 -114zM787 371q-34 0 -52 22t-18 59v568q0 37 18 58.5t52 21.5
q35 0 53.5 -21t18.5 -59v-533h286q26 0 42.5 -15.5t16.5 -42.5t-16.5 -42.5t-42.5 -15.5h-358z" />
    <glyph glyph-name="uni1000AC.small" unicode="M&#x20de;" horiz-adv-x="1857" 
d="M455 -8q-255 0 -255 252v954q0 252 255 252h947q255 0 255 -252v-954q0 -252 -255 -252h-947zM457 137h943q113 0 113 114v940q0 56 -29.5 85t-83.5 29h-943q-54 0 -83.5 -29t-29.5 -85v-940q0 -114 113 -114zM622 356q-29 0 -46 19.5t-17 53.5v591q0 35 22.5 57.5
t59.5 22.5q63 0 84 -54l202 -502h4l201 502q22 54 84 54q37 0 60 -22.5t23 -57.5v-591q0 -34 -17.5 -53.5t-48.5 -19.5q-29 0 -46.5 19.5t-17.5 53.5v418h-6l-169 -418q-19 -45 -66 -45t-66 45l-168 418h-6v-418q0 -35 -17.5 -54t-48.5 -19z" />
    <glyph glyph-name="uni1000AE.small" unicode="N&#x20de;" horiz-adv-x="1857" 
d="M455 -8q-255 0 -255 252v954q0 252 255 252h947q255 0 255 -252v-954q0 -252 -255 -252h-947zM457 137h943q113 0 113 114v940q0 56 -29.5 85t-83.5 29h-943q-54 0 -83.5 -29t-29.5 -85v-940q0 -114 113 -114zM693 362q-31 0 -48.5 19t-17.5 52v595q0 33 17.5 52.5
t48.5 19.5q42 0 70 -41l328 -462h6v432q0 33 17.5 52t48.5 19q32 0 49.5 -18.5t17.5 -52.5v-596q0 -34 -18 -52.5t-50 -18.5q-40 0 -68 40l-329 453h-5v-422q0 -34 -17.5 -52.5t-49.5 -18.5z" />
    <glyph glyph-name="uni1000B0.small" unicode="O&#x20de;" horiz-adv-x="1857" 
d="M455 -8q-255 0 -255 252v954q0 252 255 252h947q255 0 255 -252v-954q0 -252 -255 -252h-947zM457 137h943q113 0 113 114v940q0 56 -29.5 85t-83.5 29h-943q-54 0 -83.5 -29t-29.5 -85v-940q0 -114 113 -114zM929 352q-152 0 -248.5 105.5t-96.5 272.5q0 168 96.5 274
t248.5 106t248.5 -106t96.5 -274q0 -167 -96.5 -272.5t-248.5 -105.5zM929 463q92 0 147 72.5t55 194.5q0 123 -55 196t-147 73t-147.5 -73t-55.5 -196q0 -121 55.5 -194t147.5 -73z" />
    <glyph glyph-name="uni1000B2.small" unicode="P&#x20de;" horiz-adv-x="1857" 
d="M455 -8q-255 0 -255 252v954q0 252 255 252h947q255 0 255 -252v-954q0 -252 -255 -252h-947zM457 137h943q113 0 113 114v940q0 56 -29.5 85t-83.5 29h-943q-54 0 -83.5 -29t-29.5 -85v-940q0 -114 113 -114zM761 362q-34 0 -52.5 21.5t-18.5 58.5v568q0 37 18 59t52 22
h219q118 0 191 -68.5t73 -179.5q0 -112 -72.5 -179.5t-191.5 -67.5h-146v-154q0 -38 -18.5 -59t-53.5 -21zM833 703h124q69 0 107.5 37t38.5 103t-39 103t-107 37h-124v-280z" />
    <glyph glyph-name="uni1000B4.small" unicode="Q&#x20de;" horiz-adv-x="1857" 
d="M455 -8q-255 0 -255 252v954q0 252 255 252h947q255 0 255 -252v-954q0 -252 -255 -252h-947zM457 137h943q113 0 113 114v940q0 56 -29.5 85t-83.5 29h-943q-54 0 -83.5 -29t-29.5 -85v-940q0 -114 113 -114zM929 352q-152 0 -248.5 106t-96.5 273t96.5 273t248.5 106
t248.5 -106t96.5 -273q0 -194 -126 -301l42 -56q22 -27 22 -49q0 -23 -15 -37.5t-38 -14.5q-32 0 -56 32l-51 68q-56 -21 -123 -21zM929 463q30 0 52 7l-30 41q-17 24 -17 45t15.5 35.5t37.5 14.5q29 0 48 -25l37 -50q60 74 60 200q0 122 -55.5 195t-147.5 73t-147.5 -73
t-55.5 -195t55.5 -195t147.5 -73z" />
    <glyph glyph-name="uni1000B6.small" unicode="R&#x20de;" horiz-adv-x="1857" 
d="M455 -8q-255 0 -255 252v954q0 252 255 252h947q255 0 255 -252v-954q0 -252 -255 -252h-947zM457 137h943q113 0 113 114v940q0 56 -29.5 85t-83.5 29h-943q-54 0 -83.5 -29t-29.5 -85v-940q0 -114 113 -114zM727 362q-34 0 -52 21t-18 58v569q0 37 18 59t52 22h227
q125 0 198 -64t73 -173q0 -73 -41 -130.5t-109 -82.5l110 -168q16 -25 16 -51t-18.5 -43t-46.5 -17q-43 0 -71 46l-130 212h-136v-179q0 -79 -72 -79zM799 722h133q71 0 111 33t40 95q0 63 -40 98t-108 35h-136v-261z" />
    <glyph glyph-name="uni1000B8.small" unicode="S&#x20de;" horiz-adv-x="1857" 
d="M455 -8q-255 0 -255 252v954q0 252 255 252h947q255 0 255 -252v-954q0 -252 -255 -252h-947zM457 137h943q113 0 113 114v940q0 56 -29.5 85t-83.5 29h-943q-54 0 -83.5 -29t-29.5 -85v-940q0 -114 113 -114zM920 352q-104 0 -175 41.5t-95 100.5q-10 20 -10 42
q0 28 17.5 45t46.5 17q43 0 66 -45q43 -86 158 -86q64 0 103 25.5t39 73.5q0 38 -25 58t-92 40l-115 32q-95 27 -142.5 73.5t-47.5 120.5q0 96 78 157.5t202 61.5q99 0 168.5 -40t93.5 -103q9 -24 9 -40q0 -30 -17.5 -45.5t-45.5 -15.5q-45 0 -65 44q-23 47 -58 67.5
t-91 20.5q-59 0 -92 -26t-33 -72q0 -34 23.5 -55.5t75.5 -35.5l104 -28q109 -29 163.5 -77t54.5 -126q0 -103 -81 -164t-217 -61z" />
    <glyph glyph-name="uni1000BA.small" unicode="T&#x20de;" horiz-adv-x="1857" 
d="M455 -8q-255 0 -255 252v954q0 252 255 252h947q255 0 255 -252v-954q0 -252 -255 -252h-947zM457 137h943q113 0 113 114v940q0 56 -29.5 85t-83.5 29h-943q-54 0 -83.5 -29t-29.5 -85v-940q0 -114 113 -114zM927 358q-34 0 -52 21.5t-18 58.5v533h-188
q-26 0 -42.5 15.5t-16.5 42.5t16.5 42.5t42.5 15.5h518q26 0 42.5 -15.5t16.5 -42.5t-16.5 -42.5t-42.5 -15.5h-188v-533q0 -37 -18.5 -58.5t-53.5 -21.5z" />
    <glyph glyph-name="uni1000BC.small" unicode="U&#x20de;" horiz-adv-x="1857" 
d="M455 -8q-255 0 -255 252v954q0 252 255 252h947q255 0 255 -252v-954q0 -252 -255 -252h-947zM457 137h943q113 0 113 114v940q0 56 -29.5 85t-83.5 29h-943q-54 0 -83.5 -29t-29.5 -85v-940q0 -114 113 -114zM929 352q-143 0 -229.5 75.5t-86.5 200.5v392q0 38 18.5 59
t51.5 21q34 0 53 -21t19 -59v-378q0 -80 47 -126.5t127 -46.5t126.5 46.5t46.5 126.5v378q0 38 18.5 59t51.5 21q35 0 54 -21t19 -59v-392q0 -125 -86.5 -200.5t-229.5 -75.5z" />
    <glyph glyph-name="uni1000BE.small" unicode="V&#x20de;" horiz-adv-x="1857" 
d="M455 -8q-255 0 -255 252v954q0 252 255 252h947q255 0 255 -252v-954q0 -252 -255 -252h-947zM457 137h943q113 0 113 114v940q0 56 -29.5 85t-83.5 29h-943q-54 0 -83.5 -29t-29.5 -85v-940q0 -114 113 -114zM929 352q-40 0 -64 19t-41 65l-214 558q-7 21 -7 38
q0 30 20.5 48.5t51.5 18.5q55 0 76 -60l175 -517h5l175 517q20 60 76 60q31 0 51.5 -18.5t20.5 -48.5q0 -17 -7 -38l-213 -557q-32 -85 -105 -85z" />
    <glyph glyph-name="uni1000C0.small" unicode="W&#x20de;" horiz-adv-x="1857" 
d="M455 -8q-255 0 -255 252v954q0 252 255 252h947q255 0 255 -252v-954q0 -252 -255 -252h-947zM457 137h943q113 0 113 114v940q0 56 -29.5 85t-83.5 29h-943q-54 0 -83.5 -29t-29.5 -85v-940q0 -114 113 -114zM716 352q-69 0 -87 69l-154 584q-3 15 -3 27q0 30 18.5 48.5
t49.5 18.5q32 0 48.5 -16t24.5 -55l109 -472h5l124 485q15 58 77 58t77 -58l124 -485h6l109 472q9 39 25.5 55t47.5 16t50 -18.5t19 -48.5q0 -14 -4 -27l-155 -584q-17 -69 -87 -69q-72 0 -89 67l-120 473h-6l-120 -473q-17 -67 -89 -67z" />
    <glyph glyph-name="uni1000C2.small" unicode="X&#x20de;" horiz-adv-x="1857" 
d="M455 -8q-255 0 -255 252v954q0 252 255 252h947q255 0 255 -252v-954q0 -252 -255 -252h-947zM457 137h943q113 0 113 114v940q0 56 -29.5 85t-83.5 29h-943q-54 0 -83.5 -29t-29.5 -85v-940q0 -114 113 -114zM693 362q-28 0 -47 17.5t-19 43.5q0 25 16 46l197 267
l-184 247q-19 26 -19 52q0 27 20.5 46t49.5 19q23 0 37.5 -8t30.5 -30l161 -230h4l155 229q26 39 66 39q28 0 47.5 -18t19.5 -44q0 -24 -17 -47l-195 -260l194 -258q16 -22 16 -47q0 -28 -20 -46t-50 -18q-21 0 -35.5 8.5t-31.5 32.5l-163 228h-3l-163 -228
q-17 -24 -31 -32.5t-36 -8.5z" />
    <glyph glyph-name="uni1000C4.small" unicode="Y&#x20de;" horiz-adv-x="1857" 
d="M455 -8q-255 0 -255 252v954q0 252 255 252h947q255 0 255 -252v-954q0 -252 -255 -252h-947zM457 137h943q113 0 113 114v940q0 56 -29.5 85t-83.5 29h-943q-54 0 -83.5 -29t-29.5 -85v-940q0 -114 113 -114zM929 362q-34 0 -52.5 21.5t-18.5 58.5v185l-215 370
q-12 23 -12 42q0 25 19 43t46 18q25 0 39.5 -9.5t28.5 -35.5l164 -294h5l164 294q13 25 27.5 35t37.5 10q28 0 46.5 -18t18.5 -45q0 -21 -12 -40l-214 -368v-187q0 -38 -18.5 -59t-53.5 -21z" />
    <glyph glyph-name="uni1000C6.small" unicode="Z&#x20de;" horiz-adv-x="1857" 
d="M455 -8q-255 0 -255 252v954q0 252 255 252h947q255 0 255 -252v-954q0 -252 -255 -252h-947zM457 137h943q113 0 113 114v940q0 56 -29.5 85t-83.5 29h-943q-54 0 -83.5 -29t-29.5 -85v-940q0 -114 113 -114zM702 371q-27 0 -44 16.5t-17 42.5t23 57l346 481v7h-314
q-26 0 -42.5 15.5t-16.5 42.5q0 26 16.5 42t42.5 16h435q28 0 45.5 -17.5t17.5 -44.5q0 -25 -20 -53l-346 -482v-7h335q25 0 41.5 -15.5t16.5 -42.5q0 -26 -16.5 -42t-41.5 -16h-461z" />
    <glyph glyph-name="uni100005.small" unicode="A&#x20dd;&#x25cf;" 
d="M947 -85q-162 0 -311 64.5t-258 173t-173.5 258t-64.5 311.5t64.5 311.5t173 258t257.5 173t311 64.5t312 -64.5t258.5 -173t173.5 -258t65 -311.5t-64.5 -311.5t-173.5 -258t-258.5 -173t-311.5 -64.5zM679 338q52 0 71 59l54 162h284l54 -162q20 -59 72 -59
q31 0 49.5 17.5t18.5 45.5q0 23 -10 48l-222 602q-27 73 -105 73q-74 0 -103 -73l-222 -602q-10 -25 -10 -48q0 -28 19 -45.5t50 -17.5zM840 669l101 301h10l101 -301h-212z" />
    <glyph glyph-name="uni100007.small" unicode="B&#x20dd;&#x25cf;" 
d="M947 -85q-162 0 -311 64.5t-258 173t-173.5 258t-64.5 311.5t64.5 311.5t173 258t257.5 173t311 64.5t312 -64.5t258.5 -173t173.5 -258t65 -311.5t-64.5 -311.5t-173.5 -258t-258.5 -173t-311.5 -64.5zM757 358h237q129 0 206 57.5t77 153.5q0 74 -47.5 122.5
t-130.5 59.5v5q62 16 97.5 59.5t35.5 104.5q0 85 -64 134.5t-171 49.5h-240q-39 0 -61 -21.5t-22 -61.5v-581q0 -38 22 -60t61 -22zM817 792v205h150q57 0 90 -27t33 -73q0 -105 -166 -105h-107zM817 465v227h160q73 0 112.5 -30.5t39.5 -86.5q0 -57 -46.5 -83.5
t-146.5 -26.5h-119z" />
    <glyph glyph-name="uni100009.small" unicode="C&#x20dd;&#x25cf;" 
d="M947 -85q-162 0 -311 64.5t-258 173t-173.5 258t-64.5 311.5t64.5 311.5t173 258t257.5 173t311 64.5t312 -64.5t258.5 -173t173.5 -258t65 -311.5t-64.5 -311.5t-173.5 -258t-258.5 -173t-311.5 -64.5zM947 338q109 0 189.5 45.5t114.5 127.5q7 21 7 41q0 29 -17 46
t-46 17q-38 0 -61 -44q-58 -112 -185 -112q-93 0 -149 74.5t-56 196.5q0 123 56 198t149 75q127 0 185 -112q23 -44 61 -44q29 0 46 17t17 46q0 20 -7 40q-34 82 -114.5 128t-189.5 46q-163 0 -258 -106t-95 -288q0 -181 95 -286.5t258 -105.5z" />
    <glyph glyph-name="uni10000B.small" unicode="D&#x20dd;&#x25cf;" 
d="M947 -85q-162 0 -311 64.5t-258 173t-173.5 258t-64.5 311.5t64.5 311.5t173 258t257.5 173t311 64.5t312 -64.5t258.5 -173t173.5 -258t65 -311.5t-64.5 -311.5t-173.5 -258t-258.5 -173t-311.5 -64.5zM738 358h206q177 0 272.5 97t95.5 278t-94.5 276t-273.5 95h-206
q-35 0 -54 -23t-19 -61v-578q0 -38 19 -61t54 -23zM808 471v520h119q117 0 177 -66t60 -194q0 -260 -237 -260h-119z" />
    <glyph glyph-name="uni10000D.small" unicode="E&#x20dd;&#x25cf;" 
d="M947 -85q-162 0 -311 64.5t-258 173t-173.5 258t-64.5 311.5t64.5 311.5t173 258t257.5 173t311 64.5t312 -64.5t258.5 -173t173.5 -258t65 -311.5t-64.5 -311.5t-173.5 -258t-258.5 -173t-311.5 -64.5zM762 358h382q27 0 44 16.5t17 43.5q0 28 -17 44t-44 16h-307v201
h285q27 0 44 14.5t17 41.5q0 28 -17 43t-44 15h-285v191h307q27 0 44 16.5t17 43.5q0 28 -17 44t-44 16h-382q-35 0 -54 -23t-19 -61v-578q0 -38 19 -61t54 -23z" />
    <glyph glyph-name="uni10000F.small" unicode="F&#x20dd;&#x25cf;" 
d="M947 -86q-162 0 -311 64.5t-258 173t-173.5 258t-64.5 311.5t64.5 311.5t173 258t257.5 173t311 64.5t312 -64.5t258.5 -173t173.5 -258t65 -311.5t-64.5 -311.5t-173.5 -258t-258.5 -173t-311.5 -64.5zM768 346q36 0 55.5 22.5t19.5 62.5v237h284q27 0 44 14.5t17 41.5
t-17 42.5t-44 15.5h-284v201h316q26 0 43 16.5t17 43.5q0 29 -16.5 45t-43.5 16h-391q-35 0 -54 -23t-19 -62v-588q0 -39 19 -62t54 -23z" />
    <glyph glyph-name="uni100011.small" unicode="G&#x20dd;&#x25cf;" 
d="M947 -85q-162 0 -311 64.5t-258 173t-173.5 258t-64.5 311.5t64.5 311.5t173 258t257.5 173t311 64.5t312 -64.5t258.5 -173t173.5 -258t65 -311.5t-64.5 -311.5t-173.5 -258t-258.5 -173t-311.5 -64.5zM950 337q152 0 238.5 78t86.5 205v60q0 38 -21 59t-58 21h-201
q-24 0 -38.5 -14.5t-14.5 -37.5q0 -22 14.5 -37.5t38.5 -15.5h133v-56q0 -64 -45.5 -102.5t-130.5 -38.5q-95 0 -152 74.5t-57 197.5t56.5 198.5t149.5 75.5q129 0 186 -113q22 -44 60 -44q29 0 46.5 17t17.5 46q0 18 -9 41q-33 81 -113.5 127.5t-190.5 46.5
q-162 0 -257.5 -107t-95.5 -288q0 -182 96 -287.5t261 -105.5z" />
    <glyph glyph-name="uni100013.small" unicode="H&#x20dd;&#x25cf;" 
d="M947 -85q-162 0 -311 64.5t-258 173t-173.5 258t-64.5 311.5t64.5 311.5t173 258t257.5 173t311 64.5t312 -64.5t258.5 -173t173.5 -258t65 -311.5t-64.5 -311.5t-173.5 -258t-258.5 -173t-311.5 -64.5zM688 347q36 0 55.5 22t19.5 62v254h366v-254q0 -40 19 -62t54 -22
q36 0 55.5 22t19.5 62v600q0 40 -19.5 62t-55.5 22q-35 0 -54 -22t-19 -62v-232h-366v232q0 40 -19.5 62t-55.5 22q-35 0 -54.5 -22t-19.5 -62v-600q0 -40 19.5 -62t54.5 -22z" />
    <glyph glyph-name="uni100015.small" unicode="I&#x20dd;&#x25cf;" 
d="M947 -85q-162 0 -311 64.5t-258 173t-173.5 258t-64.5 311.5t64.5 311.5t173 258t257.5 173t311 64.5t312 -64.5t258.5 -173t173.5 -258t65 -311.5t-64.5 -311.5t-173.5 -258t-258.5 -173t-311.5 -64.5zM945 347q36 0 55.5 22.5t19.5 62.5v598q0 40 -19.5 62.5
t-55.5 22.5q-35 0 -54 -23t-19 -62v-598q0 -39 19 -62t54 -23z" />
    <glyph glyph-name="uni100017.small" unicode="J&#x20dd;&#x25cf;" 
d="M947 -85q-162 0 -311 64.5t-258 173t-173.5 258t-64.5 311.5t64.5 311.5t173 258t257.5 173t311 64.5t312 -64.5t258.5 -173t173.5 -258t65 -311.5t-64.5 -311.5t-173.5 -258t-258.5 -173t-311.5 -64.5zM905 338q126 0 191.5 63t65.5 184v446q0 40 -19.5 62t-55.5 22
q-35 0 -54 -23t-19 -61v-444q0 -57 -27 -90t-74 -33q-80 0 -113 74q-25 48 -69 48q-30 0 -49 -19t-19 -49q0 -23 8 -42q23 -64 86 -101t148 -37z" />
    <glyph glyph-name="uni100019.small" unicode="&#x212a;&#x20dd;&#x25cf;" 
d="M947 -85q-162 0 -311 64.5t-258 173t-173.5 258t-64.5 311.5t64.5 311.5t173 258t257.5 173t311 64.5t312 -64.5t258.5 -173t173.5 -258t65 -311.5t-64.5 -311.5t-173.5 -258t-258.5 -173t-311.5 -64.5zM735 347q36 0 55.5 22t19.5 63v151l97 101l225 -301q28 -36 64 -36
q31 0 51 19.5t20 50.5q0 24 -20 56l-232 306l213 219q23 24 23 53q0 27 -19.5 45.5t-48.5 18.5q-30 0 -59 -29l-309 -316h-5v260q0 41 -19.5 63t-55.5 22q-35 0 -54 -22.5t-19 -62.5v-598q0 -40 19 -62.5t54 -22.5z" />
    <glyph glyph-name="uni10001B.small" unicode="L&#x20dd;&#x25cf;" 
d="M947 -85q-162 0 -311 64.5t-258 173t-173.5 258t-64.5 311.5t64.5 311.5t173 258t257.5 173t311 64.5t312 -64.5t258.5 -173t173.5 -258t65 -311.5t-64.5 -311.5t-173.5 -258t-258.5 -173t-311.5 -64.5zM799 358h372q27 0 44 16.5t17 44.5q0 27 -17 43.5t-44 16.5h-297
v552q0 40 -19.5 62.5t-55.5 22.5q-35 0 -54 -23t-19 -62v-589q0 -38 19 -61t54 -23z" />
    <glyph glyph-name="uni10001D.small" unicode="M&#x20dd;&#x25cf;" 
d="M947 -85q-162 0 -311 64.5t-258 173t-173.5 258t-64.5 311.5t64.5 311.5t173 258t257.5 173t311 64.5t312 -64.5t258.5 -173t173.5 -258t65 -311.5t-64.5 -311.5t-173.5 -258t-258.5 -173t-311.5 -64.5zM629 342q32 0 49.5 20t17.5 56v433h8l173 -433q21 -48 68 -48
q49 0 69 48l175 433h8v-433q0 -36 17.5 -56t47.5 -20q32 0 50.5 20t18.5 56v613q0 37 -24 60.5t-62 23.5q-63 0 -88 -57l-208 -521h-4l-210 521q-23 57 -88 57q-38 0 -61.5 -23.5t-23.5 -60.5v-613q0 -36 17.5 -56t49.5 -20z" />
    <glyph glyph-name="uni10001F.small" unicode="N&#x20dd;&#x25cf;" 
d="M947 -85q-162 0 -311 64.5t-258 173t-173.5 258t-64.5 311.5t64.5 311.5t173 258t257.5 173t311 64.5t312 -64.5t258.5 -173t173.5 -258t65 -311.5t-64.5 -311.5t-173.5 -258t-258.5 -173t-311.5 -64.5zM702 347q32 0 50.5 19.5t18.5 54.5v439h6l341 -470q31 -43 70 -43
q34 0 52.5 19.5t18.5 55.5v619q0 35 -18.5 54.5t-51.5 19.5q-31 0 -49 -20t-18 -54v-449h-7l-341 480q-30 43 -72 43q-32 0 -50.5 -20t-18.5 -55v-619q0 -34 18 -54t51 -20z" />
    <glyph glyph-name="uni100021.small" unicode="O&#x20dd;&#x25cf;" 
d="M947 -85q-162 0 -311 64.5t-258 173t-173.5 258t-64.5 311.5t64.5 311.5t173 258t257.5 173t311 64.5t312 -64.5t258.5 -173t173.5 -258t65 -311.5t-64.5 -311.5t-173.5 -258t-258.5 -173t-311.5 -64.5zM947 338q158 0 258 109.5t100 282.5q0 174 -100 284t-258 110
t-258.5 -110t-100.5 -284q0 -173 100.5 -282.5t258.5 -109.5zM947 452q-96 0 -153.5 76t-57.5 202q0 127 57.5 203t153.5 76q95 0 152.5 -76t57.5 -203q0 -126 -57.5 -202t-152.5 -76z" />
    <glyph glyph-name="uni100023.small" unicode="P&#x20dd;&#x25cf;" 
d="M947 -85q-162 0 -311 64.5t-258 173t-173.5 258t-64.5 311.5t64.5 311.5t173 258t257.5 173t311 64.5t312 -64.5t258.5 -173t173.5 -258t65 -311.5t-64.5 -311.5t-173.5 -258t-258.5 -173t-311.5 -64.5zM773 347q36 0 55.5 22.5t19.5 62.5v159h150q125 0 200.5 70
t75.5 187q0 116 -75.5 186.5t-199.5 70.5h-226q-35 0 -54 -23t-19 -62v-588q0 -39 19 -62t54 -23zM848 702v291h129q71 0 110.5 -38.5t39.5 -106.5q0 -69 -39.5 -107.5t-110.5 -38.5h-129z" />
    <glyph glyph-name="uni100025.small" unicode="Q&#x20dd;&#x25cf;" 
d="M947 -85q-162 0 -311 64.5t-258 173t-173.5 258t-64.5 311.5t64.5 311.5t173 258t257.5 173t311 64.5t312 -64.5t258.5 -173t173.5 -258t65 -311.5t-64.5 -311.5t-173.5 -258t-258.5 -173t-311.5 -64.5zM947 338q67 0 128 22l53 -71q25 -33 58 -33q24 0 39.5 15t15.5 39
q0 22 -23 51l-44 59q131 109 131 312q0 173 -100 283t-258 110t-258.5 -110t-100.5 -283t100.5 -283.5t258.5 -110.5zM947 453q-96 0 -153.5 76t-57.5 203q0 126 57.5 201.5t153.5 75.5q95 0 152.5 -75.5t57.5 -201.5q0 -133 -62 -207l-39 51q-19 26 -49 26q-23 0 -39 -15
t-16 -37q0 -23 17 -46l32 -44q-30 -7 -54 -7z" />
    <glyph glyph-name="uni100027.small" unicode="R&#x20dd;&#x25cf;" 
d="M947 -85q-162 0 -311 64.5t-258 173t-173.5 258t-64.5 311.5t64.5 311.5t173 258t257.5 173t311 64.5t312 -64.5t258.5 -173t173.5 -258t65 -311.5t-64.5 -311.5t-173.5 -258t-258.5 -173t-311.5 -64.5zM736 347q36 0 55.5 22t19.5 62v185h141l136 -220q17 -27 33 -38
t40 -11q29 0 48 18t19 46q0 25 -15 52l-114 175q70 26 112 85.5t42 134.5q0 114 -75.5 180.5t-204.5 66.5h-237q-34 0 -53 -23t-19 -62v-589q0 -38 18.5 -61t53.5 -23zM811 722v271h142q70 0 112 -36.5t42 -101.5q0 -64 -42 -98.5t-116 -34.5h-138z" />
    <glyph glyph-name="uni100029.small" unicode="S&#x20dd;&#x25cf;" 
d="M947 -85q-162 0 -311 64.5t-258 173t-173.5 258t-64.5 311.5t64.5 311.5t173 258t257.5 173t311 64.5t312 -64.5t258.5 -173t173.5 -258t65 -311.5t-64.5 -311.5t-173.5 -258t-258.5 -173t-311.5 -64.5zM938 338q141 0 225.5 63t84.5 170q0 80 -57.5 130.5t-169.5 80.5
l-108 29q-55 15 -79 37.5t-24 57.5q0 48 34.5 75t95.5 27q58 0 94.5 -22t59.5 -71q20 -45 67 -45q30 0 48 16.5t18 46.5q0 20 -10 41q-25 67 -96.5 108t-174.5 41q-128 0 -209.5 -63.5t-81.5 -163.5q0 -77 49.5 -125t147.5 -76l119 -34q70 -20 96 -41t26 -61
q0 -50 -40.5 -76t-106.5 -26q-119 0 -164 89q-26 48 -69 48q-31 0 -49 -17.5t-18 -48.5q0 -22 11 -44q25 -60 99 -103t182 -43z" />
    <glyph glyph-name="uni10002B.small" unicode="T&#x20dd;&#x25cf;" 
d="M947 -85q-162 0 -311 64.5t-258 173t-173.5 258t-64.5 311.5t64.5 311.5t173 258t257.5 173t311 64.5t312 -64.5t258.5 -173t173.5 -258t65 -311.5t-64.5 -311.5t-173.5 -258t-258.5 -173t-311.5 -64.5zM945 344q36 0 55.5 22t19.5 62v553h195q27 0 44 16t17 43
q0 29 -17 45t-44 16h-538q-27 0 -44 -16t-17 -45q0 -27 17 -43t44 -16h195v-553q0 -38 19 -61t54 -23z" />
    <glyph glyph-name="uni10002D.small" unicode="U&#x20dd;&#x25cf;" 
d="M947 -85q-162 0 -311 64.5t-258 173t-173.5 258t-64.5 311.5t64.5 311.5t173 258t257.5 173t311 64.5t312 -64.5t258.5 -173t173.5 -258t65 -311.5t-64.5 -311.5t-173.5 -258t-258.5 -173t-311.5 -64.5zM946 338q149 0 239 78t90 208v407q0 40 -19.5 62t-55.5 22
q-35 0 -54 -22t-19 -62v-392q0 -83 -49 -131.5t-132 -48.5t-131.5 48.5t-48.5 131.5v392q0 40 -19.5 62t-55.5 22q-35 0 -54 -22t-19 -62v-407q0 -130 89.5 -208t238.5 -78z" />
    <glyph glyph-name="uni10002F.small" unicode="V&#x20dd;&#x25cf;" 
d="M947 -85q-162 0 -311 64.5t-258 173t-173.5 258t-64.5 311.5t64.5 311.5t173 258t257.5 173t311 64.5t312 -64.5t258.5 -173t173.5 -258t65 -311.5t-64.5 -311.5t-173.5 -258t-258.5 -173t-311.5 -64.5zM947 338q75 0 108 88l222 579q7 20 7 38q0 31 -21 51t-54 20
q-56 0 -79 -64l-181 -535h-6l-181 535q-11 34 -29.5 49t-49.5 15q-32 0 -53.5 -20t-21.5 -51q0 -18 7 -38l223 -581q18 -47 43 -66.5t66 -19.5z" />
    <glyph glyph-name="uni100031.small" unicode="W&#x20dd;&#x25cf;" 
d="M947 -85q-162 0 -311 64.5t-258 173t-173.5 258t-64.5 311.5t64.5 311.5t173 258t257.5 173t311 64.5t312 -64.5t258.5 -173t173.5 -258t65 -311.5t-64.5 -311.5t-173.5 -258t-258.5 -173t-311.5 -64.5zM725 338q76 0 93 70l125 490h6l125 -490q17 -70 92 -70q72 0 91 71
l160 607q3 9 3 27q0 32 -19 51.5t-51 19.5q-33 0 -50 -17t-26 -57l-114 -491h-6l-128 505q-17 59 -80 59q-65 0 -80 -59l-128 -505h-6l-113 491q-9 40 -26 57t-50 17q-32 0 -51.5 -19.5t-19.5 -51.5q0 -15 4 -27l159 -607q19 -71 90 -71z" />
    <glyph glyph-name="uni100033.small" unicode="X&#x20dd;&#x25cf;" 
d="M947 -85q-162 0 -311 64.5t-258 173t-173.5 258t-64.5 311.5t64.5 311.5t173 258t257.5 173t311 64.5t312 -64.5t258.5 -173t173.5 -258t65 -311.5t-64.5 -311.5t-173.5 -258t-258.5 -173t-311.5 -64.5zM702 347q22 0 36.5 9.5t32.5 34.5l170 236h3l169 -236
q18 -25 32.5 -34.5t36.5 -9.5q32 0 52.5 19t20.5 49q0 25 -17 49l-201 267l202 269q18 24 18 49q0 28 -20.5 47t-49.5 19q-40 0 -67 -42l-163 -237h-4l-166 238q-29 41 -70 41q-30 0 -51.5 -20.5t-21.5 -48.5t20 -54l190 -256l-204 -276q-16 -23 -16 -48q0 -28 19.5 -46.5
t48.5 -18.5z" />
    <glyph glyph-name="uni100035.small" unicode="Y&#x20dd;&#x25cf;" 
d="M947 -85q-162 0 -311 64.5t-258 173t-173.5 258t-64.5 311.5t64.5 311.5t173 258t257.5 173t311 64.5t312 -64.5t258.5 -173t173.5 -258t65 -311.5t-64.5 -311.5t-173.5 -258t-258.5 -173t-311.5 -64.5zM947 347q36 0 55.5 22.5t19.5 62.5v193l221 383q13 17 13 40
q0 29 -19 48t-49 19q-42 0 -67 -47l-171 -306h-5l-169 306q-14 26 -29.5 36.5t-40.5 10.5q-29 0 -49 -19t-20 -46q0 -22 13 -42l223 -385v-191q0 -38 19.5 -61.5t54.5 -23.5z" />
    <glyph glyph-name="uni100037.small" unicode="Z&#x20dd;&#x25cf;" 
d="M947 -85q-162 0 -311 64.5t-258 173t-173.5 258t-64.5 311.5t64.5 311.5t173 258t257.5 173t311 64.5t312 -64.5t258.5 -173t173.5 -258t65 -311.5t-64.5 -311.5t-173.5 -258t-258.5 -173t-311.5 -64.5zM711 358h478q27 0 44.5 16.5t17.5 43.5q0 28 -17 44t-45 16h-347v7
l359 500q21 31 21 56q0 28 -18.5 45.5t-47.5 17.5h-451q-27 0 -44.5 -16.5t-17.5 -43.5q0 -28 17 -44t45 -16h325v-7l-359 -499q-24 -37 -24 -60q0 -26 18 -43t46 -17z" />
    <glyph glyph-name="uni100095.small" unicode="A&#x20de;&#x25a0;" horiz-adv-x="1857" 
d="M455 -8q-255 0 -255 252v954q0 252 255 252h947q255 0 255 -252v-954q0 -252 -255 -252h-947zM661 338q52 0 71 59l55 162h283l55 -162q19 -59 71 -59q31 0 49.5 17.5t18.5 45.5q0 22 -9 48l-223 602q-27 73 -105 73q-75 0 -102 -73l-223 -602q-9 -26 -9 -48
q0 -28 18.5 -45.5t49.5 -17.5zM823 669l101 301h9l101 -301h-211z" />
    <glyph glyph-name="uni100097.small" unicode="B&#x20de;&#x25a0;" horiz-adv-x="1857" 
d="M455 -8q-255 0 -255 252v954q0 252 255 252h947q255 0 255 -252v-954q0 -252 -255 -252h-947zM740 358h236q129 0 206 57.5t77 153.5q0 74 -47.5 122.5t-130.5 59.5v5q62 16 97.5 59.5t35.5 104.5q0 85 -64 134.5t-171 49.5h-239q-39 0 -61.5 -22t-22.5 -61v-581
q0 -38 22.5 -60t61.5 -22zM799 792v205h150q58 0 90.5 -26.5t32.5 -73.5q0 -105 -166 -105h-107zM799 465v227h160q73 0 112.5 -30.5t39.5 -86.5q0 -57 -46.5 -83.5t-146.5 -26.5h-119z" />
    <glyph glyph-name="uni100099.small" unicode="C&#x20de;&#x25a0;" horiz-adv-x="1857" 
d="M455 -8q-255 0 -255 252v954q0 252 255 252h947q255 0 255 -252v-954q0 -252 -255 -252h-947zM929 338q109 0 189.5 45.5t114.5 127.5q7 18 7 41q0 29 -17 46t-46 17q-38 0 -61 -44q-58 -112 -185 -112q-93 0 -149 74.5t-56 196.5q0 123 56 198t149 75q127 0 185 -112
q23 -44 61 -44q29 0 46 17t17 46q0 24 -7 40q-34 82 -114.5 128t-189.5 46q-163 0 -258 -106t-95 -288q0 -181 95 -286.5t258 -105.5z" />
    <glyph glyph-name="uni10009B.small" unicode="D&#x20de;&#x25a0;" horiz-adv-x="1857" 
d="M455 -8q-255 0 -255 252v954q0 252 255 252h947q255 0 255 -252v-954q0 -252 -255 -252h-947zM720 358h206q178 0 273 97t95 278t-94.5 276t-273.5 95h-206q-35 0 -54 -23t-19 -61v-578q0 -38 19 -61t54 -23zM790 471v520h120q116 0 176.5 -66t60.5 -194
q0 -260 -237 -260h-120z" />
    <glyph glyph-name="uni10009F.small" unicode="F&#x20de;&#x25a0;" horiz-adv-x="1857" 
d="M455 -8q-255 0 -255 252v954q0 252 255 252h947q255 0 255 -252v-954q0 -252 -255 -252h-947zM750 347q36 0 55.5 22.5t19.5 62.5v237h284q27 0 44 14.5t17 41.5t-17 42.5t-44 15.5h-284v201h316q27 0 44 16.5t17 43.5q0 29 -17 45t-44 16h-391q-35 0 -54 -23t-19 -62
v-588q0 -39 19 -62t54 -23z" />
    <glyph glyph-name="uni1000A1.small" unicode="G&#x20de;&#x25a0;" horiz-adv-x="1857" 
d="M455 -8q-255 0 -255 252v954q0 252 255 252h947q255 0 255 -252v-954q0 -252 -255 -252h-947zM932 337q152 0 238.5 78t86.5 205v60q0 38 -20.5 59t-57.5 21h-201q-24 0 -39 -14.5t-15 -37.5q0 -22 15 -37.5t39 -15.5h132v-56q0 -64 -45.5 -102.5t-130.5 -38.5
q-95 0 -152 74.5t-57 197.5t56.5 198.5t149.5 75.5q129 0 186 -113q22 -44 61 -44q29 0 46 17t17 46q0 17 -8 41q-34 81 -114.5 127.5t-190.5 46.5q-162 0 -257.5 -107t-95.5 -288q0 -182 96 -287.5t261 -105.5z" />
    <glyph glyph-name="uni1000A3.small" unicode="H&#x20de;&#x25a0;" horiz-adv-x="1857" 
d="M455 -8q-255 0 -255 252v954q0 252 255 252h947q255 0 255 -252v-954q0 -252 -255 -252h-947zM670 347q36 0 55.5 22t19.5 62v254h366v-254q0 -40 19 -62t54 -22q75 0 75 84v600q0 84 -75 84q-35 0 -54 -22t-19 -62v-232h-366v232q0 40 -19.5 62t-55.5 22q-35 0 -54 -22
t-19 -62v-600q0 -40 19 -62t54 -22z" />
    <glyph glyph-name="uni1000A5.small" unicode="I&#x20de;&#x25a0;" horiz-adv-x="1857" 
d="M455 -8q-255 0 -255 252v954q0 252 255 252h947q255 0 255 -252v-954q0 -252 -255 -252h-947zM928 347q36 0 55.5 22.5t19.5 62.5v598q0 40 -19.5 62.5t-55.5 22.5q-35 0 -54 -23t-19 -62v-598q0 -39 19 -62t54 -23z" />
    <glyph glyph-name="uni1000A7.small" unicode="J&#x20de;&#x25a0;" horiz-adv-x="1857" 
d="M455 -8q-255 0 -255 252v954q0 252 255 252h947q255 0 255 -252v-954q0 -252 -255 -252h-947zM887 338q127 0 192 62.5t65 184.5v446q0 40 -19.5 62t-55.5 22q-35 0 -54 -23t-19 -61v-444q0 -57 -27 -90t-74 -33q-80 0 -113 74q-24 48 -68 48q-31 0 -50 -19t-19 -49
q0 -23 8 -42q23 -64 86 -101t148 -37z" />
    <glyph glyph-name="uni1000A9.small" unicode="&#x212a;&#x20de;&#x25a0;" horiz-adv-x="1857" 
d="M455 -8q-255 0 -255 252v954q0 252 255 252h947q255 0 255 -252v-954q0 -252 -255 -252h-947zM717 347q36 0 55.5 22t19.5 63v151l97 101l226 -301q27 -36 63 -36q32 0 52 19.5t20 50.5q0 25 -21 56l-232 306l213 219q23 24 23 53q0 27 -19.5 45.5t-48.5 18.5
q-30 0 -59 -29l-309 -316h-5v260q0 41 -19.5 63t-55.5 22q-35 0 -54 -22.5t-19 -62.5v-598q0 -40 19 -62.5t54 -22.5z" />
    <glyph glyph-name="uni1000AB.small" unicode="L&#x20de;&#x25a0;" horiz-adv-x="1857" 
d="M455 -8q-255 0 -255 252v954q0 252 255 252h947q255 0 255 -252v-954q0 -252 -255 -252h-947zM782 358h371q27 0 44.5 16.5t17.5 44.5q0 27 -17.5 43.5t-44.5 16.5h-296v552q0 40 -19.5 62.5t-55.5 22.5q-35 0 -54 -23t-19 -62v-589q0 -38 19 -61t54 -23z" />
    <glyph glyph-name="uni1000AD.small" unicode="M&#x20de;&#x25a0;" horiz-adv-x="1857" 
d="M455 -8q-255 0 -255 252v954q0 252 255 252h947q255 0 255 -252v-954q0 -252 -255 -252h-947zM611 342q32 0 49.5 20t17.5 56v433h8l174 -433q20 -48 68 -48t69 48l174 433h8v-433q0 -36 17.5 -56t47.5 -20q33 0 51 20t18 56v613q0 37 -23.5 60.5t-61.5 23.5
q-64 0 -89 -57l-208 -521h-4l-209 521q-25 57 -89 57q-38 0 -61.5 -23.5t-23.5 -60.5v-613q0 -36 17.5 -56t49.5 -20z" />
    <glyph glyph-name="uni1000AF.small" unicode="N&#x20de;&#x25a0;" horiz-adv-x="1857" 
d="M455 -8q-255 0 -255 252v954q0 252 255 252h947q255 0 255 -252v-954q0 -252 -255 -252h-947zM684 347q32 0 50.5 19.5t18.5 54.5v439h6l342 -470q16 -24 31.5 -33.5t38.5 -9.5q33 0 51.5 19.5t18.5 55.5v619q0 35 -18.5 54.5t-51.5 19.5q-31 0 -49 -20t-18 -54v-449h-7
l-340 480q-31 43 -72 43q-33 0 -51 -20t-18 -55v-619q0 -34 18 -54t50 -20z" />
    <glyph glyph-name="uni1000B1.small" unicode="O&#x20de;&#x25a0;" horiz-adv-x="1857" 
d="M455 -8q-255 0 -255 252v954q0 252 255 252h947q255 0 255 -252v-954q0 -252 -255 -252h-947zM929 338q158 0 258 109.5t100 282.5q0 174 -100 284t-258 110t-258 -110t-100 -284q0 -173 100 -282.5t258 -109.5zM929 452q-96 0 -153 76t-57 202q0 127 57 203t153 76
t153 -76t57 -203q0 -126 -57 -202t-153 -76z" />
    <glyph glyph-name="uni1000B3.small" unicode="P&#x20de;&#x25a0;" horiz-adv-x="1857" 
d="M455 -8q-255 0 -255 252v954q0 252 255 252h947q255 0 255 -252v-954q0 -252 -255 -252h-947zM755 347q36 0 55.5 22.5t19.5 62.5v159h150q125 0 200.5 70t75.5 187q0 116 -75.5 186.5t-199.5 70.5h-226q-35 0 -54 -23t-19 -62v-588q0 -39 19 -62t54 -23zM830 702v291
h129q71 0 111 -38.5t40 -106.5q0 -69 -40 -107.5t-111 -38.5h-129z" />
    <glyph glyph-name="uni1000B5.small" unicode="Q&#x20de;&#x25a0;" horiz-adv-x="1857" 
d="M455 -8q-255 0 -255 252v954q0 252 255 252h947q255 0 255 -252v-954q0 -252 -255 -252h-947zM929 338q67 0 128 22l53 -71q25 -33 58 -33q25 0 40 15t15 39q0 21 -22 51l-45 59q131 109 131 312q0 173 -100 283t-258 110t-258.5 -110t-100.5 -283t100.5 -283.5
t258.5 -110.5zM929 453q-96 0 -153 75.5t-57 203.5q0 126 57 201.5t153 75.5t153 -75.5t57 -201.5q0 -132 -61 -207l-40 51q-19 26 -49 26q-23 0 -39 -15t-16 -37q0 -24 18 -46l31 -44q-30 -7 -54 -7z" />
    <glyph glyph-name="uni1000B7.small" unicode="R&#x20de;&#x25a0;" horiz-adv-x="1857" 
d="M455 -8q-255 0 -255 252v954q0 252 255 252h947q255 0 255 -252v-954q0 -252 -255 -252h-947zM718 347q36 0 55.5 22t19.5 62v185h142l135 -220q17 -27 33 -38t40 -11q30 0 48.5 17.5t18.5 46.5q0 27 -15 52l-114 175q70 26 112 85.5t42 134.5q0 114 -75.5 180.5
t-204.5 66.5h-237q-34 0 -53 -23t-19 -62v-589q0 -38 18.5 -61t53.5 -23zM793 722v271h142q70 0 112 -36t42 -102q0 -64 -41.5 -98.5t-115.5 -34.5h-139z" />
    <glyph glyph-name="uni1000B9.small" unicode="S&#x20de;&#x25a0;" horiz-adv-x="1857" 
d="M455 -8q-255 0 -255 252v954q0 252 255 252h947q255 0 255 -252v-954q0 -252 -255 -252h-947zM920 338q141 0 225.5 63t84.5 170q0 80 -57.5 130.5t-169.5 80.5l-108 29q-55 15 -79 37.5t-24 57.5q0 48 34.5 75t95.5 27q58 0 94.5 -22t59.5 -71q22 -45 68 -45
q29 0 47 16.5t18 46.5q0 19 -9 41q-26 67 -97.5 108t-174.5 41q-128 0 -209.5 -63.5t-81.5 -163.5q0 -77 49.5 -125t147.5 -76l120 -34q69 -20 95 -41t26 -61q0 -50 -40.5 -76t-106.5 -26q-119 0 -164 89q-26 48 -69 48q-30 0 -48 -17.5t-18 -48.5q0 -24 10 -44
q26 -60 100 -103t181 -43z" />
    <glyph glyph-name="uni1000BB.small" unicode="T&#x20de;&#x25a0;" horiz-adv-x="1857" 
d="M455 -8q-255 0 -255 252v954q0 252 255 252h947q255 0 255 -252v-954q0 -252 -255 -252h-947zM927 344q36 0 55.5 22t19.5 62v553h195q27 0 44 16t17 43q0 29 -17 45t-44 16h-537q-28 0 -45 -16t-17 -45q0 -27 17.5 -43t44.5 -16h194v-553q0 -38 19 -61t54 -23z" />
    <glyph glyph-name="uni1000BD.small" unicode="U&#x20de;&#x25a0;" horiz-adv-x="1857" 
d="M455 -8q-255 0 -255 252v954q0 252 255 252h947q255 0 255 -252v-954q0 -252 -255 -252h-947zM929 338q149 0 238.5 78t89.5 208v407q0 40 -19.5 62t-55.5 22q-35 0 -54 -22t-19 -62v-392q0 -83 -48.5 -131.5t-131.5 -48.5t-132 48.5t-49 131.5v392q0 40 -19.5 62
t-55.5 22q-35 0 -54 -22t-19 -62v-407q0 -130 90 -208t239 -78z" />
    <glyph glyph-name="uni1000BF.small" unicode="V&#x20de;&#x25a0;" horiz-adv-x="1857" 
d="M455 -8q-255 0 -255 252v954q0 252 255 252h947q255 0 255 -252v-954q0 -252 -255 -252h-947zM929 338q40 0 65.5 21t42.5 67l223 579q6 17 6 38q0 31 -21 51t-54 20q-30 0 -48.5 -15t-29.5 -49l-182 -535h-5l-182 535q-11 34 -29.5 49t-49.5 15q-32 0 -53.5 -20
t-21.5 -51q0 -18 7 -38l223 -581q18 -47 43 -66.5t66 -19.5z" />
    <glyph glyph-name="uni1000C1.small" unicode="W&#x20de;&#x25a0;" horiz-adv-x="1857" 
d="M455 -8q-255 0 -255 252v954q0 252 255 252h947q255 0 255 -252v-954q0 -252 -255 -252h-947zM707 338q78 0 93 70l125 490h6l125 -490q17 -70 92 -70q72 0 91 71l160 607q4 12 4 27q0 32 -19.5 51.5t-51.5 19.5q-33 0 -50 -17t-25 -57l-115 -491h-6l-128 505
q-15 59 -80 59t-80 -59l-128 -505h-6l-113 491q-9 40 -26 57t-50 17q-32 0 -51 -19.5t-19 -51.5q0 -13 3 -27l160 -607q17 -71 89 -71z" />
    <glyph glyph-name="uni1000C3.small" unicode="X&#x20de;&#x25a0;" horiz-adv-x="1857" 
d="M455 -8q-255 0 -255 252v954q0 252 255 252h947q255 0 255 -252v-954q0 -252 -255 -252h-947zM684 347q22 0 37 9.5t33 34.5l169 236h3l169 -236q18 -25 32.5 -34.5t36.5 -9.5q32 0 52.5 19t20.5 49q0 25 -17 49l-201 267l202 269q18 24 18 49q0 28 -20 47t-50 19
q-40 0 -67 -42l-162 -237h-4l-167 238q-29 41 -70 41q-30 0 -51.5 -20.5t-21.5 -48.5q0 -26 20 -54l190 -256l-204 -276q-16 -23 -16 -48q0 -28 19.5 -46.5t48.5 -18.5z" />
    <glyph glyph-name="uni1000C5.small" unicode="Y&#x20de;&#x25a0;" horiz-adv-x="1857" 
d="M455 -8q-255 0 -255 252v954q0 252 255 252h947q255 0 255 -252v-954q0 -252 -255 -252h-947zM929 347q36 0 55.5 22.5t19.5 62.5v193l221 383q13 17 13 40q0 29 -19 48t-48 19q-24 0 -39 -10.5t-29 -36.5l-170 -306h-5l-170 306q-14 26 -29.5 36.5t-40.5 10.5
q-29 0 -48.5 -19t-19.5 -46q0 -23 12 -42l224 -385v-191q0 -39 19 -62t54 -23z" />
    <glyph glyph-name="uni1000C7.small" unicode="Z&#x20de;&#x25a0;" horiz-adv-x="1857" 
d="M455 -8q-255 0 -255 252v954q0 252 255 252h947q255 0 255 -252v-954q0 -252 -255 -252h-947zM693 358h478q27 0 44.5 16.5t17.5 43.5q0 28 -17 44t-45 16h-347v7l359 500q21 30 21 56q0 28 -18.5 45.5t-47.5 17.5h-451q-27 0 -44 -16.5t-17 -43.5q0 -28 17 -44t44 -16
h325v-7l-358 -499q-25 -37 -25 -60q0 -26 18 -43t46 -17z" />
    <glyph glyph-name="uni10005C.small" unicode="&#x3f;&#x20dd;" 
d="M947 -85q-162 0 -311 64.5t-258 173t-173.5 258t-64.5 311.5t64.5 311.5t173 258t257.5 173t311 64.5t312 -64.5t258.5 -173t173.5 -258t65 -311.5t-64.5 -311.5t-173.5 -258t-258.5 -173t-311.5 -64.5zM947 67q134 0 255.5 51.5t209 139t139 209t51.5 255.5t-52 255.5
t-139.5 209t-209 139t-255.5 51.5t-254.5 -51.5t-208 -139t-138.5 -209t-51 -255.5t51.5 -255.5t138.5 -209t208 -139t255 -51.5zM931 558q-72 0 -72 71v5q0 55 26 90.5t74 69.5q40 28 57.5 42t30.5 34.5t13 46.5q0 43 -29.5 68.5t-79.5 25.5q-62 0 -106 -53
q-6 -7 -18.5 -22.5t-18.5 -21t-19.5 -11t-31.5 -5.5q-24 0 -42.5 16.5t-18.5 44.5q0 20 8 42q19 55 86.5 93t166.5 38q109 0 184 -55t75 -154q0 -46 -20 -83.5t-45 -58.5t-69 -50q-42 -28 -60.5 -51t-18.5 -54v-5q0 -27 -19.5 -45t-52.5 -18zM929 318q-37 0 -64.5 26
t-27.5 62q0 37 27 62.5t65 25.5q37 0 64 -25.5t27 -62.5q0 -36 -27.5 -62t-63.5 -26z" />
    <glyph glyph-name="uni10005D.small" unicode="&#x3f;&#x20dd;&#x25cf;" 
d="M947 -85q-162 0 -311 64.5t-258 173t-173.5 258t-64.5 311.5t64.5 311.5t173 258t257.5 173t311 64.5t312 -64.5t258.5 -173t173.5 -258t65 -311.5t-64.5 -311.5t-173.5 -258t-258.5 -173t-311.5 -64.5zM930 552q34 0 54.5 18.5t20.5 46.5v6q0 32 19 55.5t63 52.5
q70 45 104.5 88t34.5 112q0 103 -78 159.5t-191 56.5q-103 0 -173 -39t-90 -97q-8 -22 -8 -43q0 -29 19 -46t44 -17q19 0 33 6t20.5 11.5t19 21t19.5 23.5q46 55 110 55q51 0 82 -27t31 -71q0 -26 -14 -48t-30.5 -35.5t-60.5 -44.5q-50 -35 -76.5 -72t-26.5 -94v-5
q0 -73 74 -73zM928 303q38 0 66.5 26.5t28.5 64.5q0 39 -28 65.5t-67 26.5t-67.5 -27t-28.5 -65t28.5 -64.5t67.5 -26.5z" />
    <glyph glyph-name="uni1000EC.small" unicode="&#x3f;&#x20de;" horiz-adv-x="1857" 
d="M455 -8q-255 0 -255 252v954q0 252 255 252h947q255 0 255 -252v-954q0 -252 -255 -252h-947zM457 137h943q113 0 113 114v940q0 56 -29.5 85t-83.5 29h-943q-54 0 -83.5 -29t-29.5 -85v-940q0 -114 113 -114zM913 558q-71 0 -71 71v5q0 55 25.5 90.5t73.5 69.5
q40 28 57.5 42t30.5 34.5t13 46.5q0 43 -30 69t-79 26q-61 0 -106 -54q-7 -7 -19 -22t-18 -20.5t-19.5 -11t-31.5 -5.5q-24 0 -42.5 16t-18.5 44q0 20 8 42q19 55 86.5 93t166.5 38q109 0 184 -54.5t75 -153.5q0 -67 -33 -108.5t-101 -84.5q-42 -28 -60.5 -51t-18.5 -53v-6
q0 -27 -19.5 -45t-52.5 -18zM911 318q-37 0 -64.5 26t-27.5 62q0 37 27 62.5t65 25.5t65 -25.5t27 -62.5q0 -36 -27.5 -62t-64.5 -26z" />
    <glyph glyph-name="uni1000ED.small" unicode="&#x3f;&#x20de;&#x25a0;" horiz-adv-x="1857" 
d="M455 -8q-255 0 -255 252v954q0 252 255 252h947q255 0 255 -252v-954q0 -252 -255 -252h-947zM912 552q34 0 54.5 18.5t20.5 46.5v6q0 32 19 55.5t63 52.5q70 45 104.5 88t34.5 112q0 103 -78 159.5t-191 56.5q-102 0 -172 -39t-91 -97q-8 -28 -8 -43q0 -29 19 -46
t44 -17q19 0 33 5.5t20.5 11.5t19 21.5t20.5 23.5q45 55 109 55q51 0 82 -27t31 -71q0 -38 -21.5 -61.5t-83.5 -66.5q-50 -35 -76.5 -72t-26.5 -94v-5q0 -73 74 -73zM910 303q39 0 67 26.5t28 64.5q0 39 -28 65.5t-67 26.5t-67.5 -27t-28.5 -65t28.5 -64.5t67.5 -26.5z" />
    <glyph glyph-name="uni10005E.small" unicode="&#x21;&#x20dd;" 
d="M947 -85q-162 0 -311 64.5t-258 173t-173.5 258t-64.5 311.5t64.5 311.5t173 258t257.5 173t311 64.5t312 -64.5t258.5 -173t173.5 -258t65 -311.5t-64.5 -311.5t-173.5 -258t-258.5 -173t-311.5 -64.5zM947 67q134 0 255.5 51.5t209 139t139 209t51.5 255.5t-52 255.5
t-139.5 209t-209 139t-255.5 51.5t-254.5 -51.5t-208 -139t-138.5 -209t-51 -255.5t51.5 -255.5t138.5 -209t208 -139t255 -51.5zM946 580q-67 0 -69 69l-12 411q-1 33 22 55t58 22t58.5 -22.5t23.5 -55.5l-13 -410q-2 -69 -68 -69zM946 318q-36 0 -63.5 26t-27.5 62t27 62
t64 26q38 0 65 -25.5t27 -62.5q0 -36 -27.5 -62t-64.5 -26z" />
    <glyph glyph-name="uni10005F.small" unicode="&#x21;&#x20dd;&#x25cf;" 
d="M947 -85q-162 0 -311 64.5t-258 173t-173.5 258t-64.5 311.5t64.5 311.5t173 258t257.5 173t311 64.5t312 -64.5t258.5 -173t173.5 -258t65 -311.5t-64.5 -311.5t-173.5 -258t-258.5 -173t-311.5 -64.5zM946 574q69 0 71 72l12 425q1 35 -23 58.5t-61 23.5t-60 -23
t-23 -58l12 -426q2 -72 72 -72zM946 303q39 0 67.5 26.5t28.5 64.5q0 39 -28.5 65.5t-67.5 26.5t-67 -27t-28 -65t28.5 -64.5t66.5 -26.5z" />
    <glyph glyph-name="uni1000EE.small" unicode="&#x21;&#x20de;" horiz-adv-x="1857" 
d="M455 -8q-255 0 -255 252v954q0 252 255 252h947q255 0 255 -252v-954q0 -252 -255 -252h-947zM457 137h943q113 0 113 114v940q0 56 -29.5 85t-83.5 29h-943q-54 0 -83.5 -29t-29.5 -85v-940q0 -114 113 -114zM929 580q-68 0 -70 69l-12 411q0 34 22.5 55.5t58.5 21.5
q35 0 58.5 -22.5t22.5 -55.5l-13 -410q-2 -69 -67 -69zM929 318q-37 0 -64.5 26t-27.5 62q0 37 27 62.5t65 25.5q37 0 64 -25.5t27 -62.5q0 -36 -27.5 -62t-63.5 -26z" />
    <glyph glyph-name="uni1000EF.small" unicode="&#x21;&#x20de;&#x25a0;" horiz-adv-x="1857" 
d="M455 -8q-255 0 -255 252v954q0 252 255 252h947q255 0 255 -252v-954q0 -252 -255 -252h-947zM929 574q68 0 70 72l13 425q1 35 -23.5 58.5t-60.5 23.5q-37 0 -60.5 -23t-22.5 -58l11 -426q2 -72 73 -72zM929 303q38 0 66.5 26.5t28.5 64.5q0 39 -28 65.5t-67 26.5
t-67.5 -27t-28.5 -65t28.5 -64.5t67.5 -26.5z" />
    <glyph glyph-name="uni10004D.small" unicode="&#x2b;&#x20dd;&#x25cf;" 
d="M947 -85q-162 0 -311 64.5t-258 173t-173.5 258t-64.5 311.5t64.5 311.5t173 258t257.5 173t311 64.5t312 -64.5t258.5 -173t173.5 -258t65 -311.5t-64.5 -311.5t-173.5 -258t-258.5 -173t-311.5 -64.5zM564 721q0 -34 22.5 -55.5t57.5 -21.5h225v-225q0 -35 21 -57
t55 -22q35 0 57 22t22 57v225h226q35 0 57 21.5t22 55.5q0 35 -22 57t-57 22h-226v225q0 35 -22 57t-57 22q-34 0 -55 -22t-21 -57v-225h-225q-35 0 -57.5 -22t-22.5 -57z" />
    <glyph glyph-name="uni1000DC.small" unicode="&#x2b;&#x20de;" horiz-adv-x="1857" 
d="M455 -8q-255 0 -255 252v954q0 252 255 252h947q255 0 255 -252v-954q0 -252 -255 -252h-947zM457 137h943q113 0 113 114v940q0 56 -29.5 85t-83.5 29h-943q-54 0 -83.5 -29t-29.5 -85v-940q0 -114 113 -114zM637 647q-34 0 -55 20.5t-21 53.5q0 34 21 55t55 21h217v216
q0 34 20.5 55.5t53.5 21.5q34 0 55 -21.5t21 -55.5v-216h217q34 0 55 -21t21 -55q0 -33 -21 -53.5t-55 -20.5h-217v-217q0 -34 -21 -55t-55 -21q-33 0 -53.5 21t-20.5 55v217h-217z" />
    <glyph glyph-name="uni1000DD.small" unicode="&#x2b;&#x20de;&#x25a0;" horiz-adv-x="1857" 
d="M455 -8q-255 0 -255 252v954q0 252 255 252h947q255 0 255 -252v-954q0 -252 -255 -252h-947zM546 721q0 -34 22.5 -55.5t57.5 -21.5h225v-225q0 -35 21.5 -57t55.5 -22q35 0 56.5 22t21.5 57v225h226q35 0 57 21.5t22 55.5q0 35 -22 57t-57 22h-226v225q0 35 -21.5 57
t-56.5 22q-34 0 -55.5 -22t-21.5 -57v-225h-225q-35 0 -57.5 -22t-22.5 -57z" />
    <glyph glyph-name="uni10004F.small" unicode="&#x2212;&#x20dd;&#x25cf;" 
d="M947 -85q-162 0 -311 64.5t-258 173t-173.5 258t-64.5 311.5t64.5 311.5t173 258t257.5 173t311 64.5t312 -64.5t258.5 -173t173.5 -258t65 -311.5t-64.5 -311.5t-173.5 -258t-258.5 -173t-311.5 -64.5zM642 643h610q41 0 64.5 20t23.5 57q0 38 -23 58.5t-65 20.5h-610
q-42 0 -65.5 -20.5t-23.5 -58.5q0 -37 24 -57t65 -20z" />
    <glyph glyph-name="uni1000DE.small" unicode="&#x2212;&#x20de;" horiz-adv-x="1857" 
d="M455 -8q-255 0 -255 252v954q0 252 255 252h947q255 0 255 -252v-954q0 -252 -255 -252h-947zM457 137h943q113 0 113 114v940q0 56 -29.5 85t-83.5 29h-943q-54 0 -83.5 -29t-29.5 -85v-940q0 -114 113 -114zM635 646q-39 0 -62.5 19.5t-23.5 54.5q0 36 23 56t63 20h588
q40 0 62.5 -20t22.5 -56q0 -35 -23 -54.5t-62 -19.5h-588z" />
    <glyph glyph-name="uni1000DF.small" unicode="&#x2212;&#x20de;&#x25a0;" horiz-adv-x="1857" 
d="M455 -8q-255 0 -255 252v954q0 252 255 252h947q255 0 255 -252v-954q0 -252 -255 -252h-947zM624 643h610q41 0 65 20t24 57q0 38 -23.5 58.5t-65.5 20.5h-610q-42 0 -65.5 -20.5t-23.5 -58.5q0 -37 24 -57t65 -20z" />
    <glyph glyph-name="uni100051.small" unicode="&#xd7;&#x20dd;&#x25cf;" 
d="M947 -85q-162 0 -311 64.5t-258 173t-173.5 258t-64.5 311.5t64.5 311.5t173 258t257.5 173t311 64.5t312 -64.5t258.5 -173t173.5 -258t65 -311.5t-64.5 -311.5t-173.5 -258t-258.5 -173t-311.5 -64.5zM673 373q31 0 53 22l220 222l222 -222q24 -22 52 -22q31 0 52.5 22
t21.5 53t-21 52l-222 221l223 223q21 22 21 52t-21.5 51.5t-51.5 21.5q-29 0 -50 -22l-226 -223l-223 222q-19 21 -50 21t-52 -21t-21 -52q0 -32 21 -51l221 -222l-221 -222q-21 -19 -21 -51q0 -31 21 -53t52 -22z" />
    <glyph glyph-name="uni1000E0.small" unicode="&#xd7;&#x20de;" horiz-adv-x="1857" 
d="M455 -8q-255 0 -255 252v954q0 252 255 252h947q255 0 255 -252v-954q0 -252 -255 -252h-947zM457 137h943q113 0 113 114v940q0 56 -29.5 85t-83.5 29h-943q-54 0 -83.5 -29t-29.5 -85v-940q0 -114 113 -114zM665 386q-29 0 -50 21t-21 51q0 28 21 49l213 214l-213 214
q-21 21 -21 49q0 30 21 50.5t50 20.5t49 -21l215 -214l216 215q21 21 49 21q29 0 50 -20.5t21 -50.5q0 -28 -21 -49l-214 -215l213 -213q21 -23 21 -50q0 -30 -21 -51t-50 -21q-31 0 -50 21l-214 214l-213 -214q-20 -21 -51 -21z" />
    <glyph glyph-name="uni1000E1.small" unicode="&#xd7;&#x20de;&#x25a0;" horiz-adv-x="1857" 
d="M455 -8q-255 0 -255 252v954q0 252 255 252h947q255 0 255 -252v-954q0 -252 -255 -252h-947zM655 373q31 0 53 22l221 222l221 -222q24 -22 52 -22q31 0 52.5 22t21.5 53t-21 52l-221 221l222 223q21 21 21 52q0 30 -21 51.5t-52 21.5q-29 0 -50 -22l-225 -223l-224 222
q-18 21 -50 21q-30 0 -51.5 -21t-21.5 -52q0 -32 21 -51l222 -222l-222 -222q-21 -19 -21 -51q0 -31 21.5 -53t51.5 -22z" />
    <glyph glyph-name="uni100052.small" unicode="&#xf7;&#x20dd;" 
d="M947 -85q-162 0 -311 64.5t-258 173t-173.5 258t-64.5 311.5t64.5 311.5t173 258t257.5 173t311 64.5t312 -64.5t258.5 -173t173.5 -258t65 -311.5t-64.5 -311.5t-173.5 -258t-258.5 -173t-311.5 -64.5zM947 67q134 0 255.5 51.5t209 139t139 209t51.5 255.5t-52 255.5
t-139.5 209t-209 139t-255.5 51.5t-254.5 -51.5t-208 -139t-138.5 -209t-51 -255.5t51.5 -255.5t138.5 -209t208 -139t255 -51.5zM944 907q-43 0 -73 27.5t-30 67.5q0 46 29.5 75.5t73.5 29.5q48 0 78 -29t30 -76q0 -40 -30.5 -67.5t-77.5 -27.5zM653 646q-39 0 -62.5 19.5
t-23.5 54.5q0 36 23 56t63 20h588q39 0 61.5 -20t22.5 -56q0 -35 -22.5 -54.5t-61.5 -19.5h-588zM944 335q-43 0 -73 28t-30 68q0 46 29.5 75t73.5 29q48 0 78 -29t30 -75q0 -40 -30.5 -68t-77.5 -28z" />
    <glyph glyph-name="uni100053.small" unicode="&#xf7;&#x20dd;&#x25cf;" 
d="M947 -85q-162 0 -311 64.5t-258 173t-173.5 258t-64.5 311.5t64.5 311.5t173 258t257.5 173t311 64.5t312 -64.5t258.5 -173t173.5 -258t65 -311.5t-64.5 -311.5t-173.5 -258t-258.5 -173t-311.5 -64.5zM944 914q49 0 80.5 28.5t31.5 70.5q0 48 -31 78.5t-81 30.5
q-46 0 -76.5 -31t-30.5 -78q0 -42 31 -70.5t76 -28.5zM641 643h611q40 0 63.5 20t23.5 57q0 38 -23 58.5t-64 20.5h-611q-41 0 -64.5 -20.5t-23.5 -58.5q0 -37 24 -57t64 -20zM944 320q49 0 80.5 29t31.5 71q0 49 -31 78.5t-81 29.5q-46 0 -76.5 -30t-30.5 -78q0 -42 31 -71
t76 -29z" />
    <glyph glyph-name="uni1000E2.small" unicode="&#xf7;&#x20de;" horiz-adv-x="1857" 
d="M455 -8q-255 0 -255 252v954q0 252 255 252h947q255 0 255 -252v-954q0 -252 -255 -252h-947zM457 137h943q113 0 113 114v940q0 56 -29.5 85t-83.5 29h-943q-54 0 -83.5 -29t-29.5 -85v-940q0 -114 113 -114zM927 907q-44 0 -74 27.5t-30 67.5q0 46 29.5 75.5t74.5 29.5
q47 0 77 -29.5t30 -75.5q0 -40 -30.5 -67.5t-76.5 -27.5zM635 646q-39 0 -62.5 19.5t-23.5 54.5q0 36 23 56t63 20h588q40 0 62 -19.5t22 -56.5q0 -35 -22.5 -54.5t-61.5 -19.5h-588zM927 335q-44 0 -74 28t-30 68q0 46 29.5 75t74.5 29q47 0 77 -29t30 -75q0 -40 -30.5 -68
t-76.5 -28z" />
    <glyph glyph-name="uni1000E3.small" unicode="&#xf7;&#x20de;&#x25a0;" horiz-adv-x="1857" 
d="M455 -8q-255 0 -255 252v954q0 252 255 252h947q255 0 255 -252v-954q0 -252 -255 -252h-947zM927 914q48 0 79.5 28.5t31.5 70.5q0 48 -31 78.5t-80 30.5q-46 0 -77 -31t-31 -78q0 -42 31.5 -70.5t76.5 -28.5zM623 643h611q41 0 64.5 20t23.5 57q0 38 -23 58.5t-65 20.5
h-611q-41 0 -64.5 -20.5t-23.5 -58.5q0 -37 24 -57t64 -20zM927 320q48 0 79.5 29t31.5 71q0 49 -30.5 78.5t-80.5 29.5q-46 0 -77 -30t-31 -78q0 -42 31.5 -71t76.5 -29z" />
    <glyph glyph-name="uni100055.small" unicode="&#x3d;&#x20dd;&#x25cf;" 
d="M947 -85q-162 0 -311 64.5t-258 173t-173.5 258t-64.5 311.5t64.5 311.5t173 258t257.5 173t311 64.5t312 -64.5t258.5 -173t173.5 -258t65 -311.5t-64.5 -311.5t-173.5 -258t-258.5 -173t-311.5 -64.5zM648 802h595q37 0 59.5 18t22.5 52q0 35 -22 53.5t-60 18.5h-595
q-38 0 -59.5 -18.5t-21.5 -53.5q0 -34 22 -52t59 -18zM648 498h595q37 0 59.5 18t22.5 52q0 35 -22 53.5t-60 18.5h-595q-38 0 -59.5 -18.5t-21.5 -53.5q0 -34 22 -52t59 -18z" />
    <glyph glyph-name="uni1000E4.small" unicode="&#x3d;&#x20de;" horiz-adv-x="1857" 
d="M455 -8q-255 0 -255 252v954q0 252 255 252h947q255 0 255 -252v-954q0 -252 -255 -252h-947zM457 137h943q113 0 113 114v940q0 56 -29.5 85t-83.5 29h-943q-54 0 -83.5 -29t-29.5 -85v-940q0 -114 113 -114zM641 799q-36 0 -57 17.5t-21 50.5q0 34 20.5 51.5t57.5 17.5
h574q37 0 57.5 -17.5t20.5 -51.5q0 -33 -21 -50.5t-57 -17.5h-574zM641 506q-36 0 -57 17.5t-21 50.5q0 34 20.5 51.5t57.5 17.5h574q37 0 57.5 -17.5t20.5 -51.5q0 -33 -21 -50.5t-57 -17.5h-574z" />
    <glyph glyph-name="uni1000E5.small" unicode="&#x3d;&#x20de;&#x25a0;" horiz-adv-x="1857" 
d="M455 -8q-255 0 -255 252v954q0 252 255 252h947q255 0 255 -252v-954q0 -252 -255 -252h-947zM630 802h595q37 0 59.5 18t22.5 52q0 35 -22 53.5t-60 18.5h-595q-38 0 -59.5 -18.5t-21.5 -53.5q0 -34 22 -52t59 -18zM630 498h595q37 0 59.5 18t22.5 52q0 35 -22 53.5
t-60 18.5h-595q-38 0 -59.5 -18.5t-21.5 -53.5q0 -34 22 -52t59 -18z" />
    <glyph glyph-name="uni100058.small" unicode="&#x3c;&#x20dd;" 
d="M947 -85q-162 0 -311 64.5t-258 173t-173.5 258t-64.5 311.5t64.5 311.5t173 258t257.5 173t311 64.5t312 -64.5t258.5 -173t173.5 -258t65 -311.5t-64.5 -311.5t-173.5 -258t-258.5 -173t-311.5 -64.5zM947 67q134 0 255.5 51.5t209 139t139 209t51.5 255.5t-52 255.5
t-139.5 209t-209 139t-255.5 51.5t-254.5 -51.5t-208 -139t-138.5 -209t-51 -255.5t51.5 -255.5t138.5 -209t208 -139t255 -51.5zM1152 391q-25 0 -42 10l-474 243q-53 27 -53 78q0 50 53 78l474 254q19 10 44 10q31 0 51.5 -20t20.5 -50q0 -46 -52 -73l-393 -193v-5
l393 -189q28 -13 40 -29.5t12 -42.5q0 -30 -21 -50.5t-53 -20.5z" />
    <glyph glyph-name="uni100059.small" unicode="&#x3c;&#x20dd;&#x25cf;" 
d="M947 -85q-162 0 -311 64.5t-258 173t-173.5 258t-64.5 311.5t64.5 311.5t173 258t257.5 173t311 64.5t312 -64.5t258.5 -173t173.5 -258t65 -311.5t-64.5 -311.5t-173.5 -258t-258.5 -173t-311.5 -64.5zM1162 378q33 0 55 21.5t22 52.5q0 50 -54 74l-409 197v5l409 201
q54 26 54 75q0 31 -21.5 52t-53.5 21q-22 0 -47 -10l-491 -264q-55 -30 -55 -81q0 -54 55 -81l491 -252q22 -11 45 -11z" />
    <glyph glyph-name="uni1000E6.small" unicode="&#x3c;&#x20de;" horiz-adv-x="1857" 
d="M455 -8q-255 0 -255 252v954q0 252 255 252h947q255 0 255 -252v-954q0 -252 -255 -252h-947zM457 137h943q113 0 113 114v940q0 56 -29.5 85t-83.5 29h-943q-54 0 -83.5 -29t-29.5 -85v-940q0 -114 113 -114zM1135 391q-24 0 -43 10l-474 243q-53 27 -53 78q0 49 53 78
l474 254q20 10 44 10q31 0 52 -20.5t21 -49.5q0 -46 -52 -73l-394 -193v-5l394 -189q52 -25 52 -72q0 -30 -21.5 -50.5t-52.5 -20.5z" />
    <glyph glyph-name="uni1000E7.small" unicode="&#x3c;&#x20de;&#x25a0;" horiz-adv-x="1857" 
d="M455 -8q-255 0 -255 252v954q0 252 255 252h947q255 0 255 -252v-954q0 -252 -255 -252h-947zM1144 378q33 0 55 21.5t22 52.5q0 27 -12.5 44t-41.5 30l-408 197v5l408 201q54 26 54 75q0 31 -21.5 52t-53.5 21q-23 0 -46 -10l-492 -264q-55 -30 -55 -81q0 -54 55 -81
l492 -252q20 -11 44 -11z" />
    <glyph glyph-name="uni100056.small" unicode="&#x3e;&#x20dd;" 
d="M947 -85q-162 0 -311 64.5t-258 173t-173.5 258t-64.5 311.5t64.5 311.5t173 258t257.5 173t311 64.5t312 -64.5t258.5 -173t173.5 -258t65 -311.5t-64.5 -311.5t-173.5 -258t-258.5 -173t-311.5 -64.5zM947 67q134 0 255.5 51.5t209 139t139 209t51.5 255.5t-52 255.5
t-139.5 209t-209 139t-255.5 51.5t-254.5 -51.5t-208 -139t-138.5 -209t-51 -255.5t51.5 -255.5t138.5 -209t208 -139t255 -51.5zM741 391q-32 0 -53.5 20.5t-21.5 50.5q0 47 52 72l394 189v5l-394 193q-52 27 -52 73q0 29 21 49.5t52 20.5q24 0 44 -10l474 -254
q53 -29 53 -78q0 -51 -53 -78l-474 -243q-19 -10 -42 -10z" />
    <glyph glyph-name="uni100057.small" unicode="&#x3e;&#x20dd;&#x25cf;" 
d="M947 -85q-162 0 -311 64.5t-258 173t-173.5 258t-64.5 311.5t64.5 311.5t173 258t257.5 173t311 64.5t312 -64.5t258.5 -173t173.5 -258t65 -311.5t-64.5 -311.5t-173.5 -258t-258.5 -173t-311.5 -64.5zM733 378q24 0 44 11l492 252q55 27 55 81q0 51 -55 81l-492 264
q-23 10 -46 10q-32 0 -53.5 -21t-21.5 -52q0 -49 54 -75l408 -201v-5l-408 -197q-29 -13 -41.5 -30t-12.5 -44q0 -31 22 -52.5t55 -21.5z" />
    <glyph glyph-name="uni1000E8.small" unicode="&#x3e;&#x20de;" horiz-adv-x="1857" 
d="M455 -8q-255 0 -255 252v954q0 252 255 252h947q255 0 255 -252v-954q0 -252 -255 -252h-947zM457 137h943q113 0 113 114v940q0 56 -29.5 85t-83.5 29h-943q-54 0 -83.5 -29t-29.5 -85v-940q0 -114 113 -114zM723 391q-32 0 -53 20.5t-21 50.5q0 26 12 42.5t40 29.5
l393 189v5l-393 193q-52 27 -52 73q0 30 20.5 50t51.5 20q25 0 44 -10l474 -254q53 -28 53 -78q0 -51 -53 -78l-474 -243q-17 -10 -42 -10z" />
    <glyph glyph-name="uni1000E9.small" unicode="&#x3e;&#x20de;&#x25a0;" horiz-adv-x="1857" 
d="M455 -8q-255 0 -255 252v954q0 252 255 252h947q255 0 255 -252v-954q0 -252 -255 -252h-947zM715 378q23 0 45 11l491 252q55 27 55 81q0 51 -55 81l-491 264q-25 10 -47 10q-32 0 -53.5 -21t-21.5 -52q0 -49 54 -75l408 -201v-5l-408 -197q-54 -24 -54 -74
q0 -31 22 -52.5t55 -21.5z" />
    <glyph glyph-name="uni10005A.small" unicode="&#x23;&#x20dd;" 
d="M947 -85q-162 0 -311 64.5t-258 173t-173.5 258t-64.5 311.5t64.5 311.5t173 258t257.5 173t311 64.5t312 -64.5t258.5 -173t173.5 -258t65 -311.5t-64.5 -311.5t-173.5 -258t-258.5 -173t-311.5 -64.5zM947 67q134 0 255.5 51.5t209 139t139 209t51.5 255.5t-52 255.5
t-139.5 209t-209 139t-255.5 51.5t-254.5 -51.5t-208 -139t-138.5 -209t-51 -255.5t51.5 -255.5t138.5 -209t208 -139t255 -51.5zM740 331q-27 0 -43.5 20t-11.5 47l30 147h-63q-22 0 -36 15t-14 37q0 26 17 43t42 17h78l31 152h-62q-22 0 -36 14.5t-14 37.5q0 26 17 43
t42 17h77l33 155q9 50 63 50q28 0 44 -20t10 -46l-28 -139h139l32 155q11 50 64 50q27 0 43.5 -19.5t11.5 -46.5l-28 -139h63q22 0 36 -15t14 -38q0 -25 -17 -42t-42 -17h-77l-33 -152h63q22 0 36 -14.5t14 -37.5q0 -26 -17 -43t-42 -17h-77l-34 -163q-11 -51 -66 -51
q-27 0 -43 20t-10 47l30 146h-139l-34 -162q-11 -51 -63 -51zM853 646h152l36 172h-153z" />
    <glyph glyph-name="uni10005B.small" unicode="&#x23;&#x20dd;&#x25cf;" 
d="M947 -85q-162 0 -311 64.5t-258 173t-173.5 258t-64.5 311.5t64.5 311.5t173 258t257.5 173t311 64.5t312 -64.5t258.5 -173t173.5 -258t65 -311.5t-64.5 -311.5t-173.5 -258t-258.5 -173t-311.5 -64.5zM732 316q54 0 65 53l36 169h144l-31 -152q-6 -28 10.5 -49
t44.5 -21q57 0 68 53l36 170h80q26 0 43.5 18t17.5 44q0 23 -15 38.5t-37 15.5h-65l33 157h81q26 0 43.5 18t17.5 44q0 23 -15 38.5t-37 15.5h-66l31 144q4 28 -13 49t-45 21q-55 0 -66 -52l-34 -162h-144l29 144q6 28 -11 49t-45 21q-55 0 -66 -52l-34 -162h-80
q-27 0 -44.5 -18t-17.5 -44q0 -23 15 -38.5t37 -15.5h65l-32 -157h-81q-27 0 -44.5 -18t-17.5 -44q0 -24 15 -39t38 -15h66l-33 -153q-4 -28 13 -49t45 -21zM849 643l37 179h159l-38 -179h-158z" />
    <glyph glyph-name="uni1000EA.small" unicode="&#x23;&#x20de;" horiz-adv-x="1857" 
d="M455 -8q-255 0 -255 252v954q0 252 255 252h947q255 0 255 -252v-954q0 -252 -255 -252h-947zM457 137h943q113 0 113 114v940q0 56 -29.5 85t-83.5 29h-943q-54 0 -83.5 -29t-29.5 -85v-940q0 -114 113 -114zM722 332q-27 0 -43.5 19.5t-11.5 46.5l31 147h-64
q-22 0 -36 15t-14 38q0 25 17 42t42 17h78l31 152h-62q-22 0 -36 14.5t-14 37.5q0 26 17 43t42 17h77l33 155q11 51 63 51q28 0 44 -20.5t11 -46.5l-29 -139h139l33 155q9 51 63 51q27 0 43.5 -20t11.5 -47l-28 -139h63q22 0 36 -15t14 -37q0 -26 -17 -43t-42 -17h-77
l-33 -152h63q22 0 36 -14.5t14 -37.5q0 -26 -17 -43t-42 -17h-77l-34 -163q-11 -50 -66 -50q-27 0 -43 19.5t-10 46.5l30 147h-139l-34 -163q-11 -50 -63 -50zM835 646h152l37 172h-154z" />
    <glyph glyph-name="uni1000EB.small" unicode="&#x23;&#x20de;&#x25a0;" horiz-adv-x="1857" 
d="M455 -8q-255 0 -255 252v954q0 252 255 252h947q255 0 255 -252v-954q0 -252 -255 -252h-947zM715 316q53 0 64 53l36 169h144l-31 -152q-6 -28 10.5 -49t44.5 -21q59 0 68 53l36 170h80q27 0 44.5 18t17.5 44q0 23 -15.5 38.5t-37.5 15.5h-65l33 157h81q26 0 43.5 18
t17.5 44q0 23 -15 38.5t-37 15.5h-66l31 144q5 28 -12 49t-46 21q-55 0 -66 -52l-34 -162h-144l30 144q5 28 -11.5 49t-44.5 21q-56 0 -67 -52l-33 -162h-81q-26 0 -43.5 -18t-17.5 -44q0 -23 15 -38.5t37 -15.5h65l-33 -157h-81q-26 0 -43.5 -18t-17.5 -44q0 -24 14.5 -39
t37.5 -15h66l-32 -153q-5 -28 12 -49t46 -21zM831 643l37 179h159l-38 -179h-158z" />
    <glyph glyph-name="uni100060.small" unicode="&#x2717;&#x20dd;" 
d="M947 -85q-162 0 -311 64.5t-258 173t-173.5 258t-64.5 311.5t64.5 311.5t173 258t257.5 173t311 64.5t312 -64.5t258.5 -173t173.5 -258t65 -311.5t-64.5 -311.5t-173.5 -258t-258.5 -173t-311.5 -64.5zM947 67q134 0 255.5 51.5t209 139t139 209t51.5 255.5t-52 255.5
t-139.5 209t-209 139t-255.5 51.5t-254.5 -51.5t-208 -139t-138.5 -209t-51 -255.5t51.5 -255.5t138.5 -209t208 -139t255 -51.5zM683 385q-29 0 -50 21.5t-21 51.5q0 28 21 49l213 214l-213 214q-21 21 -21 49q0 30 20.5 50t50.5 20t49 -20l214 -214l217 215q21 21 49 21
q29 0 50 -20.5t21 -50.5q0 -28 -21 -49l-214 -215l213 -213q21 -23 21 -50q0 -30 -21 -51.5t-50 -21.5t-51 22l-214 214l-213 -214q-19 -22 -50 -22z" />
    <glyph glyph-name="uni100061.small" unicode="&#x2717;&#x20dd;&#x25cf;" 
d="M947 -85q-162 0 -311 64.5t-258 173t-173.5 258t-64.5 311.5t64.5 311.5t173 258t257.5 173t311 64.5t312 -64.5t258.5 -173t173.5 -258t65 -311.5t-64.5 -311.5t-173.5 -258t-258.5 -173t-311.5 -64.5zM673 373q31 0 53 22l220 222l222 -222q24 -22 52 -22q31 0 52.5 22
t21.5 53t-21 52l-222 221l223 223q21 22 21 52t-21.5 51.5t-51.5 21.5q-29 0 -50 -22l-226 -223l-223 222q-19 21 -50 21t-52 -21t-21 -52q0 -32 21 -51l221 -222l-221 -222q-21 -19 -21 -51q0 -31 21 -53t52 -22z" />
    <glyph glyph-name="uni1000F1.small" unicode="&#x2717;&#x20de;&#x25a0;" horiz-adv-x="1857" 
d="M455 -8q-255 0 -255 252v954q0 252 255 252h947q255 0 255 -252v-954q0 -252 -255 -252h-947zM655 373q31 0 53 22l221 222l221 -222q24 -22 52 -22q31 0 52.5 22t21.5 53t-21 52l-221 221l222 223q21 21 21 52q0 30 -21 51.5t-52 21.5q-29 0 -50 -22l-225 -223l-224 222
q-18 21 -50 21q-30 0 -51.5 -21t-21.5 -52q0 -32 21 -51l222 -222l-222 -222q-21 -19 -21 -51q0 -31 21.5 -53t51.5 -22z" />
    <glyph glyph-name="uni100062.small" unicode="&#x2713;&#x20dd;" 
d="M947 -85q-162 0 -311 64.5t-258 173t-173.5 258t-64.5 311.5t64.5 311.5t173 258t257.5 173t311 64.5t312 -64.5t258.5 -173t173.5 -258t65 -311.5t-64.5 -311.5t-173.5 -258t-258.5 -173t-311.5 -64.5zM947 67q134 0 255.5 51.5t209 139t139 209t51.5 255.5t-52 255.5
t-139.5 209t-209 139t-255.5 51.5t-254.5 -51.5t-208 -139t-138.5 -209t-51 -255.5t51.5 -255.5t138.5 -209t208 -139t255 -51.5zM861 350q-45 0 -77 42l-180 225q-20 28 -20 55q0 30 20 50.5t49 20.5q39 0 66 -36l138 -186l307 498q25 40 62 40q30 0 51.5 -18t21.5 -47
q0 -22 -22 -58l-344 -544q-27 -42 -72 -42z" />
    <glyph glyph-name="uni100063.small" unicode="&#x2713;&#x20dd;&#x25cf;" 
d="M947 -85q-162 0 -311 64.5t-258 173t-173.5 258t-64.5 311.5t64.5 311.5t173 258t257.5 173t311 64.5t312 -64.5t258.5 -173t173.5 -258t65 -311.5t-64.5 -311.5t-173.5 -258t-258.5 -173t-311.5 -64.5zM858 337q47 0 75 44l356 564q23 35 23 59q0 31 -22.5 50t-53.5 19
q-39 0 -63 -42l-319 -516l-144 192q-28 38 -67 38q-31 0 -51.5 -21.5t-20.5 -52.5t21 -57l186 -233q33 -44 80 -44z" />
    <glyph glyph-name="uni1000F3.small" unicode="&#x2713;&#x20de;&#x25a0;" horiz-adv-x="1857" 
d="M455 -8q-255 0 -255 252v954q0 252 255 252h947q255 0 255 -252v-954q0 -252 -255 -252h-947zM840 337q49 0 75 44l357 564q23 38 23 59q0 31 -22.5 50t-53.5 19q-39 0 -64 -42l-319 -516l-144 192q-28 38 -67 38q-31 0 -51.5 -21.5t-20.5 -52.5q0 -30 21 -57l186 -233
q33 -44 80 -44z" />
    <glyph glyph-name="uni10006A.small" unicode="&#x25c0;&#x20dd;" 
d="M947 -85q-162 0 -311 64.5t-258 173t-173.5 258t-64.5 311.5t64.5 311.5t173 258t257.5 173t311 64.5t312 -64.5t258.5 -173t173.5 -258t65 -311.5t-64.5 -311.5t-173.5 -258t-258.5 -173t-311.5 -64.5zM947 67q134 0 255.5 51.5t209 139t139 209t51.5 255.5t-52 255.5
t-139.5 209t-209 139t-255.5 51.5t-254.5 -51.5t-208 -139t-138.5 -209t-51 -255.5t51.5 -255.5t138.5 -209t208 -139t255 -51.5zM627 677q-25 15 -25 44.5t25 43.5l446 262q26 17 54.5 5.5t28.5 -40.5v-541q0 -30 -27 -41.5t-56 6.5z" />
    <glyph glyph-name="uni10006B.small" unicode="&#x25c0;&#x20dd;&#x25cf;" 
d="M947 -85q-162 0 -311 64.5t-258 173t-173.5 258t-64.5 311.5t64.5 311.5t173 258t257.5 173t311 64.5t312 -64.5t258.5 -173t173.5 -258t65 -311.5t-64.5 -311.5t-173.5 -258t-258.5 -173t-311.5 -64.5zM618 676l462 -271q30 -19 58 -7t28 43v561q0 30 -29.5 42t-56.5 -6
l-462 -271q-26 -15 -26.5 -45.5t26.5 -45.5z" />
    <glyph glyph-name="uni1000FA.small" unicode="&#x25c0;&#x20de;" horiz-adv-x="1857" 
d="M455 -8q-255 0 -255 252v954q0 252 255 252h947q255 0 255 -252v-954q0 -252 -255 -252h-947zM457 137h943q113 0 113 114v940q0 56 -29.5 85t-83.5 29h-943q-54 0 -83.5 -29t-29.5 -85v-940q0 -114 113 -114zM609 678q-25 14 -25 43.5t25 43.5l446 262q26 17 54.5 5.5
t28.5 -40.5v-541q0 -30 -27 -41.5t-56 6.5z" />
    <glyph glyph-name="uni1000FB.small" unicode="&#x25c0;&#x20de;&#x25a0;" horiz-adv-x="1857" 
d="M455 -8q-255 0 -255 252v954q0 252 255 252h947q255 0 255 -252v-954q0 -252 -255 -252h-947zM600 676l462 -271q30 -19 58 -7t28 43v561q0 30 -29.5 42t-56.5 -6l-462 -271q-26 -15 -26.5 -45.5t26.5 -45.5z" />
    <glyph glyph-name="uni10006C.small" unicode="&#x25b6;&#x20dd;" 
d="M947 -85q-162 0 -311 64.5t-258 173t-173.5 258t-64.5 311.5t64.5 311.5t173 258t257.5 173t311 64.5t312 -64.5t258.5 -173t173.5 -258t65 -311.5t-64.5 -311.5t-173.5 -258t-258.5 -173t-311.5 -64.5zM947 67q134 0 255.5 51.5t209 139t139 209t51.5 255.5t-52 255.5
t-139.5 209t-209 139t-255.5 51.5t-254.5 -51.5t-208 -139t-138.5 -209t-51 -255.5t51.5 -255.5t138.5 -209t208 -139t255 -51.5zM1247 677l-445 -261q-29 -18 -56 -6.5t-27 41.5v541q0 29 28.5 40t54.5 -5l445 -262q26 -15 26 -44t-26 -44z" />
    <glyph glyph-name="uni10006D.small" unicode="&#x25b6;&#x20dd;&#x25cf;" 
d="M947 -85q-162 0 -311 64.5t-258 173t-173.5 258t-64.5 311.5t64.5 311.5t173 258t257.5 173t311 64.5t312 -64.5t258.5 -173t173.5 -258t65 -311.5t-64.5 -311.5t-173.5 -258t-258.5 -173t-311.5 -64.5zM1260 676q27 15 26.5 45t-26.5 46l-462 271q-27 17 -56.5 5.5
t-29.5 -41.5v-561q0 -31 28 -43t58 7z" />
    <glyph glyph-name="uni1000FC.small" unicode="&#x25b6;&#x20de;" horiz-adv-x="1857" 
d="M455 -8q-255 0 -255 252v954q0 252 255 252h947q255 0 255 -252v-954q0 -252 -255 -252h-947zM457 137h943q113 0 113 114v940q0 56 -29.5 85t-83.5 29h-943q-54 0 -83.5 -29t-29.5 -85v-940q0 -114 113 -114zM1229 678l-445 -262q-29 -18 -56 -6.5t-27 41.5v541
q0 29 28.5 40t54.5 -5l445 -262q26 -14 26 -43.5t-26 -43.5z" />
    <glyph glyph-name="uni1000FD.small" unicode="&#x25b6;&#x20de;&#x25a0;" horiz-adv-x="1857" 
d="M455 -8q-255 0 -255 252v954q0 252 255 252h947q255 0 255 -252v-954q0 -252 -255 -252h-947zM1243 676q26 15 26 45t-26 46l-463 271q-27 17 -56.5 5.5t-29.5 -41.5v-561q0 -31 28 -43t58 7z" />
    <glyph glyph-name="uni100066.small" unicode="&#x25b2;&#x20dd;" 
d="M947 -85q-162 0 -311 64.5t-258 173t-173.5 258t-64.5 311.5t64.5 311.5t173 258t257.5 173t311 64.5t312 -64.5t258.5 -173t173.5 -258t65 -311.5t-64.5 -311.5t-173.5 -258t-258.5 -173t-311.5 -64.5zM947 67q134 0 255.5 51.5t209 139t139 209t51.5 255.5t-52 255.5
t-139.5 209t-209 139t-255.5 51.5t-254.5 -51.5t-208 -139t-138.5 -209t-51 -255.5t51.5 -255.5t138.5 -209t208 -139t255 -51.5zM1217 478h-541q-29 0 -40 28.5t5 54.5l261 445q15 26 44 26.5t45 -26.5l261 -445q18 -29 6.5 -56t-41.5 -27z" />
    <glyph glyph-name="uni100067.small" unicode="&#x25b2;&#x20dd;&#x25cf;" 
d="M947 -85q-162 0 -311 64.5t-258 173t-173.5 258t-64.5 311.5t64.5 311.5t173 258t257.5 173t311 64.5t312 -64.5t258.5 -173t173.5 -258t65 -311.5t-64.5 -311.5t-173.5 -258t-258.5 -173t-311.5 -64.5zM1227 467q31 0 42 28.5t-6 58.5l-271 462q-16 27 -46 27t-46 -27
l-271 -462q-17 -28 -5.5 -57.5t41.5 -29.5h562z" />
    <glyph glyph-name="uni1000F6.small" unicode="&#x25b2;&#x20de;" horiz-adv-x="1857" 
d="M455 -8q-255 0 -255 252v954q0 252 255 252h947q255 0 255 -252v-954q0 -252 -255 -252h-947zM457 137h943q113 0 113 114v940q0 56 -29.5 85t-83.5 29h-943q-54 0 -83.5 -29t-29.5 -85v-940q0 -114 113 -114zM1200 478h-542q-29 0 -40 28.5t5 54.5l262 446
q14 25 43.5 25.5t44.5 -25.5l261 -446q18 -29 7 -56t-41 -27z" />
    <glyph glyph-name="uni1000F7.small" unicode="&#x25b2;&#x20de;&#x25a0;" horiz-adv-x="1857" 
d="M455 -8q-255 0 -255 252v954q0 252 255 252h947q255 0 255 -252v-954q0 -252 -255 -252h-947zM1209 467q31 0 42.5 28.5t-6.5 58.5l-270 462q-17 27 -47 27t-46 -27l-271 -462q-17 -28 -5.5 -57.5t41.5 -29.5h562z" />
    <glyph glyph-name="uni100068.small" unicode="&#x25bc;&#x20dd;" 
d="M947 -85q-162 0 -311 64.5t-258 173t-173.5 258t-64.5 311.5t64.5 311.5t173 258t257.5 173t311 64.5t312 -64.5t258.5 -173t173.5 -258t65 -311.5t-64.5 -311.5t-173.5 -258t-258.5 -173t-311.5 -64.5zM947 67q134 0 255.5 51.5t209 139t139 209t51.5 255.5t-52 255.5
t-139.5 209t-209 139t-255.5 51.5t-254.5 -51.5t-208 -139t-138.5 -209t-51 -255.5t51.5 -255.5t138.5 -209t208 -139t255 -51.5zM1217 953q30 0 41.5 -27t-6.5 -56l-261 -446q-16 -26 -45 -25.5t-44 25.5l-261 446q-16 26 -5 54.5t40 28.5h541z" />
    <glyph glyph-name="uni100069.small" unicode="&#x25bc;&#x20dd;&#x25cf;" 
d="M947 -85q-162 0 -311 64.5t-258 173t-173.5 258t-64.5 311.5t64.5 311.5t173 258t257.5 173t311 64.5t312 -64.5t258.5 -173t173.5 -258t65 -311.5t-64.5 -311.5t-173.5 -258t-258.5 -173t-311.5 -64.5zM1226 964h-562q-30 0 -41.5 -29.5t5.5 -57.5l271 -462
q16 -26 46 -26.5t46 26.5l271 462q17 31 6 59t-42 28z" />
    <glyph glyph-name="uni1000F8.small" unicode="&#x25bc;&#x20de;" horiz-adv-x="1857" 
d="M455 -8q-255 0 -255 252v954q0 252 255 252h947q255 0 255 -252v-954q0 -252 -255 -252h-947zM457 137h943q113 0 113 114v940q0 56 -29.5 85t-83.5 29h-943q-54 0 -83.5 -29t-29.5 -85v-940q0 -114 113 -114zM1200 953q30 0 41 -27t-7 -56l-261 -445
q-15 -27 -44.5 -26.5t-43.5 26.5l-262 445q-16 26 -5 54.5t40 28.5h542z" />
    <glyph glyph-name="uni1000F9.small" unicode="&#x25bc;&#x20de;&#x25a0;" horiz-adv-x="1857" 
d="M455 -8q-255 0 -255 252v954q0 252 255 252h947q255 0 255 -252v-954q0 -252 -255 -252h-947zM1208 964h-562q-30 0 -41.5 -29.5t5.5 -57.5l271 -462q16 -26 46 -26.5t47 26.5l270 462q18 31 6.5 59t-42.5 28z" />
    <glyph glyph-name="uni1000C8.small" unicode="&#x30;&#x20de;" horiz-adv-x="1857" 
d="M455 -8q-255 0 -255 252v954q0 252 255 252h947q255 0 255 -252v-954q0 -252 -255 -252h-947zM457 137h943q113 0 113 114v940q0 56 -29.5 85t-83.5 29h-943q-54 0 -83.5 -29t-29.5 -85v-940q0 -114 113 -114zM929 345q-128 0 -206.5 103.5t-78.5 273.5t78.5 273.5
t206.5 103.5t206 -104t78 -273t-78 -273t-206 -104zM929 458q66 0 106.5 72.5t40.5 191.5t-40.5 191.5t-106.5 72.5q-67 0 -107.5 -72.5t-40.5 -191.5t40.5 -191.5t107.5 -72.5z" />
    <glyph glyph-name="uni1000C9.small" unicode="&#x30;&#x20de;&#x25a0;" horiz-adv-x="1857" 
d="M455 -8q-255 0 -255 252v954q0 252 255 252h947q255 0 255 -252v-954q0 -252 -255 -252h-947zM929 331q133 0 214 107.5t81 283.5t-81 283.5t-214 107.5t-214 -107.5t-81 -283.5t81 -283.5t214 -107.5zM929 449q-69 0 -111.5 75t-42.5 198t42.5 198t111.5 75
q68 0 110.5 -75t42.5 -198t-42.5 -198t-110.5 -75z" />
    <glyph glyph-name="uni1000CA.small" unicode="&#x31;&#x20de;" horiz-adv-x="1857" 
d="M455 -8q-255 0 -255 252v954q0 252 255 252h947q255 0 255 -252v-954q0 -252 -255 -252h-947zM457 137h943q113 0 113 114v940q0 56 -29.5 85t-83.5 29h-943q-54 0 -83.5 -29t-29.5 -85v-940q0 -114 113 -114zM971 364q-33 0 -51.5 21.5t-18.5 59.5v481h-6l-89 -59
q-24 -16 -44 -16q-21 0 -35.5 15.5t-14.5 36.5q0 31 28 49l134 93q51 35 94 35q36 0 55.5 -21t19.5 -60v-554q0 -38 -19 -59.5t-53 -21.5z" />
    <glyph glyph-name="uni1000CB.small" unicode="&#x31;&#x20de;&#x25a0;" horiz-adv-x="1857" 
d="M455 -8q-255 0 -255 252v954q0 252 255 252h947q255 0 255 -252v-954q0 -252 -255 -252h-947zM973 351q36 0 55.5 22t19.5 62v574q0 40 -20 62t-58 22q-46 0 -97 -36l-141 -96q-28 -21 -28 -51q0 -22 15 -38.5t36 -16.5t46 18l93 61h6v-499q0 -40 19 -62t54 -22z" />
    <glyph glyph-name="uni1000CC.small" unicode="&#x32;&#x20de;" horiz-adv-x="1857" 
d="M455 -8q-255 0 -255 252v954q0 252 255 252h947q255 0 255 -252v-954q0 -252 -255 -252h-947zM457 137h943q113 0 113 114v940q0 56 -29.5 85t-83.5 29h-943q-54 0 -83.5 -29t-29.5 -85v-940q0 -114 113 -114zM749 365q-29 0 -45.5 15.5t-16.5 41.5q0 27 23 52l246 261
q4 5 18.5 19.5t20 21t17 20t16.5 22t12 21t9.5 24t2.5 23.5q0 45 -32 73t-84 28q-48 0 -77.5 -24.5t-53.5 -64.5q-11 -15 -17.5 -22.5t-18.5 -14.5t-27 -7q-26 0 -41.5 15.5t-15.5 40.5q0 19 5 34q21 66 88.5 110.5t150.5 44.5q112 0 180.5 -55.5t68.5 -146.5
q0 -63 -29.5 -112.5t-90.5 -113.5l-175 -185v-6h271q25 0 41.5 -15.5t16.5 -41.5t-16.5 -42t-41.5 -16h-405z" />
    <glyph glyph-name="uni1000CD.small" unicode="&#x32;&#x20de;&#x25a0;" horiz-adv-x="1857" 
d="M455 -8q-255 0 -255 252v954q0 252 255 252h947q255 0 255 -252v-954q0 -252 -255 -252h-947zM742 350h420q27 0 44.5 17t17.5 44q0 28 -17 44t-45 16h-280v6l181 192q62 65 93 117t31 118q0 94 -71 151.5t-187 57.5q-85 0 -155.5 -46.5t-92.5 -114.5q-6 -16 -6 -35
q0 -26 16.5 -42t43.5 -16q37 0 65 46q55 91 136 91q54 0 87.5 -29t33.5 -76q0 -12 -2.5 -24t-10 -25.5t-12 -21.5t-18 -23.5t-17.5 -19.5t-21 -22t-19 -20l-255 -270q-24 -27 -24 -55q0 -27 17 -43.5t47 -16.5z" />
    <glyph glyph-name="uni1000CE.small" unicode="&#x33;&#x20de;" horiz-adv-x="1857" 
d="M455 -8q-255 0 -255 252v954q0 252 255 252h947q255 0 255 -252v-954q0 -252 -255 -252h-947zM457 137h943q113 0 113 114v940q0 56 -29.5 85t-83.5 29h-943q-54 0 -83.5 -29t-29.5 -85v-940q0 -114 113 -114zM921 345q-99 0 -171 43t-89 112q-4 16 -4 32q0 26 17 43
t44 17q43 0 60 -45q36 -90 146 -90q66 0 106 30t40 79q0 51 -39.5 82t-103.5 31h-50q-24 0 -39.5 15.5t-15.5 38.5q0 24 15.5 39t39.5 15h45q54 0 88.5 29.5t34.5 75.5q0 45 -31 70t-87 25q-103 0 -135 -90q-15 -45 -59 -45q-27 0 -44 16t-17 42q0 18 4 34q17 71 85.5 113
t168.5 42q108 0 177.5 -54t69.5 -137q0 -61 -40.5 -109.5t-99.5 -56.5v-6q72 -7 118.5 -56.5t46.5 -119.5q0 -95 -76 -155t-205 -60z" />
    <glyph glyph-name="uni1000CF.small" unicode="&#x33;&#x20de;&#x25a0;" horiz-adv-x="1857" 
d="M455 -8q-255 0 -255 252v954q0 252 255 252h947q255 0 255 -252v-954q0 -252 -255 -252h-947zM921 331q135 0 213 62t78 162q0 71 -48.5 123t-122.5 59v6q61 8 103 58t42 113q0 88 -71.5 143.5t-184.5 55.5q-104 0 -175 -43.5t-89 -117.5q-4 -16 -4 -34q0 -28 17.5 -44.5
t45.5 -16.5q45 0 63 47q31 92 139 92q58 0 90.5 -25.5t32.5 -71.5q0 -48 -36 -78.5t-92 -30.5h-47q-25 0 -41 -16t-16 -41q0 -24 16 -40t41 -16h52q66 0 107 -32.5t41 -84.5q0 -51 -41.5 -81.5t-109.5 -30.5q-116 0 -151 92q-19 47 -63 47q-28 0 -46 -17.5t-18 -45.5
q0 -16 4 -32q18 -72 93 -116.5t178 -44.5z" />
    <glyph glyph-name="uni1000D0.small" unicode="&#x34;&#x20de;" horiz-adv-x="1857" 
d="M455 -8q-255 0 -255 252v954q0 252 255 252h947q255 0 255 -252v-954q0 -252 -255 -252h-947zM457 137h943q113 0 113 114v940q0 56 -29.5 85t-83.5 29h-943q-54 0 -83.5 -29t-29.5 -85v-940q0 -114 113 -114zM1034 364q-31 0 -48 20t-17 55v64h-276q-41 0 -66 24t-25 63
t25 77q42 68 231 356q26 41 58 58.5t78 17.5q47 0 76.5 -26t29.5 -67v-387h52q26 0 42.5 -16t16.5 -42t-16.5 -42t-42.5 -16h-52v-64q0 -36 -17 -55.5t-49 -19.5zM969 619v367h-6q-175 -265 -231 -362v-5h237z" />
    <glyph glyph-name="uni1000D1.small" unicode="&#x34;&#x20de;&#x25a0;" horiz-adv-x="1857" 
d="M455 -8q-255 0 -255 252v954q0 252 255 252h947q255 0 255 -252v-954q0 -252 -255 -252h-947zM1038 350q33 0 51 20.5t18 57.5v67h53q27 0 44 16.5t17 43.5t-16.5 43.5t-44.5 16.5h-53v402q0 42 -31 69t-80 27q-48 0 -81 -18.5t-60 -59.5q-192 -291 -240 -369
q-25 -42 -25 -81q0 -41 25.5 -65.5t68.5 -24.5h286v-67q0 -37 18 -57.5t50 -20.5zM970 615h-246v5q48 83 240 376h6v-381z" />
    <glyph glyph-name="uni1000D2.small" unicode="&#x35;&#x20de;" horiz-adv-x="1857" 
d="M455 -8q-255 0 -255 252v954q0 252 255 252h947q255 0 255 -252v-954q0 -252 -255 -252h-947zM457 137h943q113 0 113 114v940q0 56 -29.5 85t-83.5 29h-943q-54 0 -83.5 -29t-29.5 -85v-940q0 -114 113 -114zM923 345q-95 0 -162 34t-92 93q-10 23 -10 43q0 25 17 41.5
t43 16.5q39 0 63 -40q44 -78 137 -78q62 0 103.5 41t41.5 102t-35.5 98.5t-93.5 37.5q-49 0 -96 -36q-47 -34 -89 -34q-37 0 -57.5 23.5t-17.5 61.5l21 247q3 38 30 60.5t70 22.5h321q23 0 37.5 -15t14.5 -39t-14.5 -39t-37.5 -15h-309l-18 -197h6q19 28 63.5 46t91.5 18
q110 0 179 -66t69 -172q0 -115 -76.5 -185t-199.5 -70z" />
    <glyph glyph-name="uni1000D3.small" unicode="&#x35;&#x20de;&#x25a0;" horiz-adv-x="1857" 
d="M455 -8q-255 0 -255 252v954q0 252 255 252h947q255 0 255 -252v-954q0 -252 -255 -252h-947zM923 331q128 0 207 72.5t79 192.5q0 110 -71.5 178.5t-185.5 68.5q-49 0 -95 -19t-66 -47h-5l17 204h321q23 0 38.5 15.5t15.5 40.5t-15 41t-39 16h-333q-45 0 -73 -23.5
t-31 -63.5l-21 -256q-3 -40 18.5 -64.5t59.5 -24.5q44 0 92 35q48 37 99 37q60 0 96.5 -38.5t36.5 -102.5q0 -63 -42.5 -105t-106.5 -42q-46 0 -83.5 21t-59.5 59q-25 43 -64 43q-28 0 -45.5 -17t-17.5 -44q0 -23 11 -45q26 -62 95 -97t168 -35z" />
    <glyph glyph-name="uni1000D4.small" unicode="&#x36;&#x20de;" horiz-adv-x="1857" 
d="M455 -8q-255 0 -255 252v954q0 252 255 252h947q255 0 255 -252v-954q0 -252 -255 -252h-947zM457 137h943q113 0 113 114v940q0 56 -29.5 85t-83.5 29h-943q-54 0 -83.5 -29t-29.5 -85v-940q0 -114 113 -114zM935 345q-160 0 -233 116q-55 89 -55 245q0 194 82 293.5
t227 99.5q74 0 133.5 -31t80.5 -77q9 -18 9 -38q0 -23 -15.5 -37.5t-37.5 -14.5t-37.5 9.5t-39.5 32.5q-44 44 -98 44q-77 0 -125 -68.5t-48 -179.5v-8h7q20 45 66.5 75.5t119.5 30.5q99 0 169.5 -62.5t70.5 -171.5q0 -122 -76 -190t-200 -68zM929 451q65 0 104 39.5
t39 106.5q0 62 -39.5 101t-103.5 39q-63 0 -102.5 -39t-39.5 -100q0 -64 40 -105.5t102 -41.5z" />
    <glyph glyph-name="uni1000D5.small" unicode="&#x36;&#x20de;&#x25a0;" horiz-adv-x="1857" 
d="M455 -8q-255 0 -255 252v954q0 252 255 252h947q255 0 255 -252v-954q0 -252 -255 -252h-947zM935 331q129 0 208 70.5t79 196.5q0 114 -73.5 179t-175.5 65q-76 0 -125 -32t-69 -79h-7v9q0 115 50.5 185.5t129.5 70.5q36 0 57.5 -11.5t43.5 -32.5q19 -18 28 -25
t23 -13.5t29 -6.5q23 0 39 15t16 39q0 19 -8 41q-22 47 -84.5 79t-138.5 32q-151 0 -235.5 -102.5t-84.5 -305.5q0 -167 57 -253q76 -121 241 -121zM929 441q-64 0 -106 43t-42 109q0 63 42 104t106 41q65 0 106.5 -41t41.5 -105q0 -68 -40.5 -109.5t-107.5 -41.5z" />
    <glyph glyph-name="uni1000D6.small" unicode="&#x37;&#x20de;" horiz-adv-x="1857" 
d="M455 -8q-255 0 -255 252v954q0 252 255 252h947q255 0 255 -252v-954q0 -252 -255 -252h-947zM457 137h943q113 0 113 114v940q0 56 -29.5 85t-83.5 29h-943q-54 0 -83.5 -29t-29.5 -85v-940q0 -114 113 -114zM824 345q-30 0 -51 18t-21 46q0 23 13 45l283 510v7h-323
q-23 0 -38 15t-15 39t15 39t38 15h382q42 0 68.5 -24t26.5 -61q0 -29 -22 -68l-287 -532q-25 -49 -69 -49z" />
    <glyph glyph-name="uni1000D7.small" unicode="&#x37;&#x20de;&#x25a0;" horiz-adv-x="1857" 
d="M455 -8q-255 0 -255 252v954q0 252 255 252h947q255 0 255 -252v-954q0 -252 -255 -252h-947zM819 331q46 0 72 50l299 552q22 42 22 72q0 38 -27.5 63.5t-71.5 25.5h-397q-24 0 -39 -16t-15 -41t15.5 -40.5t38.5 -15.5h335v-7l-293 -529q-12 -24 -12 -47q0 -30 21 -48.5
t52 -18.5z" />
    <glyph glyph-name="uni1000D8.small" unicode="&#x38;&#x20de;" horiz-adv-x="1857" 
d="M455 -8q-255 0 -255 252v954q0 252 255 252h947q255 0 255 -252v-954q0 -252 -255 -252h-947zM457 137h943q113 0 113 114v940q0 56 -29.5 85t-83.5 29h-943q-54 0 -83.5 -29t-29.5 -85v-940q0 -114 113 -114zM927 345q-129 0 -207 58.5t-78 155.5q0 66 44 116t116 64v5
q-61 19 -95 62t-34 100q0 85 71.5 139t184.5 54t184 -54t71 -139q0 -57 -34.5 -101t-93.5 -61v-5q71 -14 115 -63.5t44 -116.5q0 -96 -79.5 -155t-208.5 -59zM929 784q55 0 90 31t35 79q0 47 -35 77.5t-90 30.5t-90.5 -30.5t-35.5 -77.5q0 -48 35.5 -79t90.5 -31zM930 441
q65 0 107.5 35.5t42.5 90.5q0 54 -42 89.5t-108 35.5q-65 0 -108.5 -36t-43.5 -89q0 -55 43 -90.5t109 -35.5z" />
    <glyph glyph-name="uni1000D9.small" unicode="&#x38;&#x20de;&#x25a0;" horiz-adv-x="1857" 
d="M455 -8q-255 0 -255 252v954q0 252 255 252h947q255 0 255 -252v-954q0 -252 -255 -252h-947zM927 331q134 0 216.5 61t82.5 161q0 69 -45.5 120.5t-120.5 66.5v5q62 18 98 63.5t36 104.5q0 88 -74 144t-191 56q-118 0 -192 -55.5t-74 -144.5q0 -59 35.5 -104t98.5 -64
v-5q-75 -15 -120.5 -67t-45.5 -121q0 -100 81 -160.5t215 -60.5zM929 786q-58 0 -94.5 32.5t-36.5 82.5q0 49 36.5 80t94.5 31q57 0 93.5 -31t36.5 -80q0 -50 -36.5 -82.5t-93.5 -32.5zM930 431q-68 0 -113 36.5t-45 93.5q0 56 45.5 93t112.5 37q69 0 112.5 -36.5
t43.5 -93.5t-44.5 -93.5t-111.5 -36.5z" />
    <glyph glyph-name="uni1000DA.small" unicode="&#x39;&#x20de;" horiz-adv-x="1857" 
d="M455 -8q-255 0 -255 252v954q0 252 255 252h947q255 0 255 -252v-954q0 -252 -255 -252h-947zM457 137h943q113 0 113 114v940q0 56 -29.5 85t-83.5 29h-943q-54 0 -83.5 -29t-29.5 -85v-940q0 -114 113 -114zM909 345q-96 0 -154.5 36t-75.5 84q-6 17 -6 30
q0 26 16.5 42t42.5 16q33 0 60 -34q49 -62 115 -62q78 0 125.5 70t46.5 189h-6q-19 -44 -66.5 -74t-119.5 -30q-97 0 -167 62t-70 170q0 117 74 186t199 69q137 0 211 -92t74 -264q0 -195 -76.5 -296.5t-222.5 -101.5zM929 710q62 0 101.5 39.5t39.5 99.5q0 63 -40 104
t-101 41q-64 0 -102.5 -39.5t-38.5 -104.5q0 -61 39.5 -100.5t101.5 -39.5z" />
    <glyph glyph-name="uni1000DB.small" unicode="&#x39;&#x20de;&#x25a0;" horiz-adv-x="1857" 
d="M455 -8q-255 0 -255 252v954q0 252 255 252h947q255 0 255 -252v-954q0 -252 -255 -252h-947zM908 331q152 0 231.5 105t79.5 308q0 178 -77 273.5t-219 95.5q-130 0 -207 -71.5t-77 -192.5q0 -112 72.5 -176.5t173.5 -64.5q75 0 124.5 31t68.5 77h7q1 -123 -48.5 -195.5
t-130.5 -72.5q-69 0 -119 63q-28 35 -63 35q-27 0 -44 -16.5t-17 -42.5q0 -16 6 -31q18 -51 79 -88t160 -37zM929 710q-64 0 -105.5 41t-41.5 104q0 68 40 109t107 41q64 0 105.5 -43t41.5 -108q0 -62 -41.5 -103t-105.5 -41z" />
    <glyph glyph-name=".notdef" horiz-adv-x="2048" 
d="M100 1678v272h1848v-272h-1848zM100 1244v272h1848v-272h-1848zM100 809v272h1848v-272h-1848zM100 375v272h1848v-272h-1848zM100 -60v272h1848v-272h-1848zM100 -494v272h1848v-272h-1848z" />
    <glyph glyph-name=".null" horiz-adv-x="0" 
 />
    <glyph glyph-name="nonmarkingreturn" unicode="&#x2029;" horiz-adv-x="0" 
 />
    <glyph glyph-name="nonmarkingreturn" unicode="&#x2028;" horiz-adv-x="0" 
 />
    <glyph glyph-name="space" unicode=" " horiz-adv-x="576" 
 />
    <glyph glyph-name="exclamationmark" unicode="!" horiz-adv-x="637" 
d="M235 480l-17 964h200l-17 -964h-166zM319 -18q-61 0 -100 39t-39 100t39 100.5t100 39.5t99.5 -39t38.5 -101q0 -61 -38.5 -100t-99.5 -39z" />
    <glyph glyph-name="quotedbl" unicode="&#x22;" horiz-adv-x="978" 
d="M232 874l-21 569h186l-21 -569h-144zM602 874l-21 569h186l-21 -569h-144z" />
    <glyph glyph-name="numbersign" unicode="#" horiz-adv-x="1290" 
d="M325 0h-142l82 403h-235l28 144h237l74 364h-248l29 143h248l80 389h142l-80 -389h329l80 389h143l-80 -389h249l-28 -143h-250l-75 -364h260l-28 -144h-261l-83 -403h-143l83 403h-329zM437 547h329l74 364h-329z" />
    <glyph glyph-name="dollarsign" unicode="$" horiz-adv-x="1290" 
d="M587 -145v169q-186 17 -311.5 124t-131.5 275v1l174 1v-2q14 -100 79.5 -164t189.5 -78v481l-23 6q-191 46 -287 134.5t-96 232.5v2q0 158 112.5 261.5t293.5 120.5v169h120v-169q177 -16 294.5 -122.5t123.5 -268.5v-1l-174 -1v2q-10 99 -75.5 160t-168.5 74v-459l31 -7
q201 -49 301 -137.5t100 -239.5v-2q0 -172 -122.5 -275.5t-309.5 -118.5v-168h-120zM355 1047q0 -77 54 -131t178 -84v430q-109 -15 -170.5 -76t-61.5 -137v-2zM713 632l-6 1v-454q133 11 195.5 71.5t62.5 152.5v2q0 86 -55 139t-197 88z" />
    <glyph glyph-name="percent" unicode="%" 
d="M430 684q-138 0 -216.5 104.5t-78.5 284.5v1q0 180 78.5 284t216.5 104t217 -104t79 -284v-1q0 -180 -79 -284.5t-217 -104.5zM538 0h-162l982 1443h162zM430 803q74 0 115.5 71.5t41.5 198.5v1q0 127 -41.5 198t-115.5 71t-115 -71t-41 -198v-1q0 -127 41 -198.5
t115 -71.5zM1464 -19q-138 0 -216.5 104.5t-78.5 284.5v1q0 180 78.5 284t216.5 104t217 -104t79 -284v-1q0 -180 -79 -284.5t-217 -104.5zM1464 100q74 0 115.5 71.5t41.5 198.5v1q0 127 -41.5 198t-115.5 71t-115 -71t-41 -198v-1q0 -127 41 -198.5t115 -71.5z" />
    <glyph glyph-name="ampersand" unicode="&#x26;" horiz-adv-x="1457" 
d="M603 -27q-215 0 -351.5 115t-136.5 296v2q0 261 290 404l53 26q-101 112 -141.5 187.5t-40.5 149.5v2q0 138 105 230t263 92q160 0 264 -91.5t104 -232.5v-2q0 -108 -71.5 -195t-240.5 -177l354 -378q75 156 75 378v25h168v-26q0 -307 -120 -508l252 -269v-1h-226
l-128 141q-178 -168 -472 -168zM448 1143q0 -55 33.5 -110.5t122.5 -151.5q133 69 186 129t53 135v2q0 83 -55 135t-143 52q-86 0 -141.5 -53t-55.5 -136v-2zM295 396q0 -121 89.5 -196t234.5 -75q212 0 343 139l-405 443l-48 -23q-104 -50 -159 -123.5t-55 -162.5v-2z" />
    <glyph glyph-name="quotesingle" unicode="'" horiz-adv-x="608" 
d="M232 874l-21 569h186l-21 -569h-144z" />
    <glyph glyph-name="parenleft" unicode="(" horiz-adv-x="782" 
d="M526 -360q-284 377 -284 933q0 558 284 933h146q-109 -138 -181 -405t-72 -528q0 -262 72 -528t181 -405h-146z" />
    <glyph glyph-name="parenright" unicode=")" horiz-adv-x="782" 
d="M256 -360h-146q109 139 181 405t72 528q0 261 -72 528t-181 405h146q284 -375 284 -933q0 -556 -284 -933z" />
    <glyph glyph-name="asterisk" unicode="*" horiz-adv-x="966" 
d="M415 724l11 256l-212 -134l-68 106l232 123l-232 122l68 106l212 -134l-11 256h137l-11 -255l211 133l68 -106l-232 -122l232 -123l-68 -106l-211 133l11 -255h-137z" />
    <glyph glyph-name="plus" unicode="+" horiz-adv-x="1290" 
d="M116 500v162h448v458h162v-458h448v-162h-448v-458h-162v458h-448z" />
    <glyph glyph-name="comma" unicode="," horiz-adv-x="608" 
d="M118 -367l87 569h199l-157 -569h-129z" />
    <glyph glyph-name="hyphen" unicode="&#x2011;" horiz-adv-x="966" 
d="M147 500v162h672v-162h-672z" />
    <glyph glyph-name="hyphen" unicode="&#x2010;" horiz-adv-x="966" 
d="M147 500v162h672v-162h-672z" />
    <glyph glyph-name="hyphen" unicode="-" horiz-adv-x="966" 
d="M147 500v162h672v-162h-672z" />
    <glyph glyph-name="period" unicode="." horiz-adv-x="608" 
d="M304 -10q-53 0 -91.5 38.5t-38.5 91.5q0 54 38.5 92t91.5 38q54 0 92 -38t38 -92q0 -53 -38 -91.5t-92 -38.5z" />
    <glyph glyph-name="slash" unicode="/" horiz-adv-x="624" 
d="M623 1506l-456 -1866h-167l456 1866h167z" />
    <glyph glyph-name="zero" unicode="0" horiz-adv-x="1290" 
d="M644 -34q-238 0 -373.5 202.5t-135.5 552.5v2q0 350 135.5 552t373.5 202t374.5 -202.5t136.5 -551.5v-2q0 -349 -136.5 -552t-374.5 -203zM644 123q155 0 242.5 160.5t87.5 437.5v2q0 277 -87.5 436.5t-242.5 159.5q-154 0 -241 -159.5t-87 -436.5v-2q0 -278 87 -438
t241 -160z" />
    <glyph glyph-name="one" unicode="1" horiz-adv-x="950" 
d="M514 0v1243h-16l-367 -266v190l384 276h179v-1443h-180z" />
    <glyph glyph-name="two" unicode="2" horiz-adv-x="1236" 
d="M161 0v124l488 528q144 156 191 232.5t47 167.5v2q0 116 -74 191t-199 75q-130 0 -209 -78t-79 -205l-1 -2l-172 1l-2 1q1 192 134.5 316t340.5 124q190 0 317.5 -115t127.5 -289v-2q0 -124 -68.5 -238.5t-263.5 -315.5l-328 -339v-16h684v-162h-934z" />
    <glyph glyph-name="three" unicode="3" horiz-adv-x="1284" 
d="M652 -24q-220 0 -357.5 110t-152.5 284l-1 12h173l1 -10q11 -107 102.5 -173.5t234.5 -66.5q142 0 230 72t88 187v2q0 131 -88 203.5t-241 72.5h-181v152h173q128 0 210 70.5t82 179.5v2q0 113 -71.5 175.5t-203.5 62.5q-128 0 -211.5 -63.5t-94.5 -172.5l-1 -10h-173
l1 10q17 177 147.5 284.5t331.5 107.5q205 0 330.5 -103.5t125.5 -268.5v-2q0 -130 -83.5 -219.5t-222.5 -118.5v-4q160 -14 256.5 -108t96.5 -246v-2q0 -181 -142 -300t-359 -119z" />
    <glyph glyph-name="four" unicode="4" horiz-adv-x="1318" 
d="M820 0v299h-703v164q316 531 618 980h261v-983h205v-161h-205v-299h-176zM301 459h520v817h-12q-270 -404 -508 -805v-12z" />
    <glyph glyph-name="five" unicode="5" horiz-adv-x="1266" 
d="M635 -34q-199 0 -332.5 114t-149.5 290l-1 11h173l1 -8q13 -106 99.5 -177t211.5 -71q144 0 234 92.5t90 239.5v2q0 144 -90.5 236.5t-230.5 92.5q-148 0 -240 -88q-42 -40 -66 -86h-156l76 829h803v-161h-661l-49 -488h16q48 72 128.5 111t179.5 39q203 0 334.5 -136.5
t131.5 -345.5v-2q0 -218 -141 -356t-361 -138z" />
    <glyph glyph-name="six" unicode="6" horiz-adv-x="1304" 
d="M671 -34q-83 0 -158.5 23t-146.5 77.5t-123 136.5t-83.5 208.5t-31.5 283.5v2q0 369 146 574.5t409 205.5q180 0 307 -97t164 -258l3 -13h-181l-4 11q-34 92 -108.5 144t-182.5 52q-77 0 -139 -29.5t-105 -80t-73 -121.5t-45 -152t-18 -174q-1 -11 -1 -34h19
q43 95 144 159t240 64q203 0 338 -137.5t135 -345.5v-2q0 -216 -143 -356.5t-362 -140.5zM343 465q0 -143 94.5 -241.5t231.5 -98.5q136 0 231 97t95 237v2q0 144 -91.5 237t-231.5 93q-141 0 -235 -92.5t-94 -232.5v-1z" />
    <glyph glyph-name="seven" unicode="7" horiz-adv-x="1166" 
d="M221 0l648 1268v14h-772v161h955v-167l-642 -1276h-189z" />
    <glyph glyph-name="eight" unicode="8" horiz-adv-x="1308" 
d="M654 -24q-230 0 -377 116.5t-147 297.5v2q0 133 85.5 235t224.5 134v4q-119 37 -188.5 122.5t-69.5 198.5v2q0 164 134 271.5t338 107.5t338 -107.5t134 -271.5v-2q0 -113 -69.5 -198.5t-188.5 -122.5v-4q139 -32 224.5 -134t85.5 -235v-2q0 -181 -147 -297.5
t-377 -116.5zM654 832q130 0 211.5 67t81.5 172v2q0 105 -81.5 172t-211.5 67t-211.5 -67t-81.5 -172v-2q0 -105 81.5 -172t211.5 -67zM654 133q149 0 245 75.5t96 192.5v2q0 119 -95.5 195t-245.5 76t-245.5 -76t-95.5 -195v-2q0 -117 96 -192.5t245 -75.5z" />
    <glyph glyph-name="nine" unicode="9" horiz-adv-x="1304" 
d="M633 1477q83 0 158.5 -23t146.5 -77.5t123 -136.5t83.5 -208.5t31.5 -283.5v-2q0 -369 -146 -574.5t-409 -205.5q-180 0 -307 97t-164 258l-3 13h181l4 -11q34 -92 108.5 -144t182.5 -52q77 0 139 29.5t105 80t73 121.5t45 152t18 174q1 11 1 34h-19q-43 -95 -144 -159
t-240 -64q-203 0 -338 137.5t-135 345.5v2q0 216 143 356.5t362 140.5zM632 652q141 0 235 92.5t94 232.5v1q0 143 -94.5 241.5t-231.5 98.5q-136 0 -231 -97t-95 -237v-2q0 -144 91.5 -237t231.5 -93z" />
    <glyph glyph-name="colon" unicode=":" horiz-adv-x="608" 
d="M304 764q-53 0 -91.5 38.5t-38.5 91.5q0 54 38.5 92t91.5 38q54 0 92 -38t38 -92q0 -53 -38 -91.5t-92 -38.5zM304 -10q-53 0 -91.5 38.5t-38.5 91.5q0 54 38.5 92t91.5 38q54 0 92 -38t38 -92q0 -53 -38 -91.5t-92 -38.5z" />
    <glyph glyph-name="semicolon" unicode=";" horiz-adv-x="608" 
d="M304 764q-53 0 -91.5 38.5t-38.5 91.5q0 54 38.5 92t91.5 38q54 0 92 -38t38 -92q0 -53 -38 -91.5t-92 -38.5zM118 -367l87 569h199l-157 -569h-129z" />
    <glyph glyph-name="less" unicode="&#x3c;" horiz-adv-x="1290" 
d="M141 496v169l1008 445v-165l-849 -361l849 -362v-171z" />
    <glyph glyph-name="equal" unicode="=" horiz-adv-x="1290" 
d="M129 770v162h1032v-162h-1032zM129 231v162h1032v-162h-1032z" />
    <glyph glyph-name="greater" unicode="&#x3e;" horiz-adv-x="1290" 
d="M1149 665v-169l-1008 -445v165l849 362l-849 361v171z" />
    <glyph glyph-name="questionmark" unicode="?" horiz-adv-x="1050" 
d="M393 446v92q-1 98 47.5 170t152.5 134q88 54 124.5 107.5t36.5 132.5v2q0 94 -67.5 154t-177.5 60q-113 0 -181 -62t-76 -169l-2 -1l-170 -1v2q9 170 121.5 278.5t314.5 108.5q187 0 305.5 -103t118.5 -258v-2q0 -218 -209 -344q-94 -56 -128.5 -106t-34.5 -130v-65h-175
zM494 -18q-61 0 -100 39t-39 100t39 100.5t100 39.5t99.5 -39t38.5 -101q0 -61 -38.5 -100t-99.5 -39z" />
    <glyph glyph-name="at" unicode="@" horiz-adv-x="1880" 
d="M986 -234q-387 0 -615 225.5t-228 608.5v2q0 183 60.5 338t168.5 264t261.5 170t335.5 61q234 0 416.5 -93t284 -260.5t101.5 -381.5v-2q0 -244 -102 -388t-274 -144q-86 0 -146.5 44.5t-72.5 117.5l-1 6h-16q-32 -76 -97 -117.5t-153 -41.5q-156 0 -252 117t-96 307v2
q0 182 97 297t251 115q79 0 142 -38t92 -103h16v122h151v-587q0 -53 29.5 -82t83.5 -29q94 0 150.5 110t56.5 294v2q0 270 -187 438.5t-487 168.5q-193 0 -346.5 -91t-239.5 -254t-86 -368v-2q0 -320 191.5 -510.5t512.5 -190.5q103 0 195.5 13t139.5 35v-126
q-142 -49 -337 -49zM932 316q103 0 164 76t61 203v2q0 127 -60.5 202.5t-162.5 75.5q-100 0 -156.5 -73.5t-56.5 -204.5v-2q0 -130 56.5 -204.5t154.5 -74.5z" />
    <glyph glyph-name="A" unicode="A" horiz-adv-x="1380" 
d="M69 0l532 1443h178l532 -1443h-189l-145 413h-574l-145 -413h-189zM682 1210l-226 -644h468l-226 644h-16z" />
    <glyph glyph-name="B" unicode="B" horiz-adv-x="1346" 
d="M184 0v1443h552q198 0 312.5 -96.5t114.5 -262.5v-2q0 -112 -72.5 -201.5t-176.5 -108.5v-16q148 -19 235 -113.5t87 -236.5v-2q0 -190 -129.5 -297t-359.5 -107h-563zM698 1284h-334v-463h288q329 0 329 230v2q0 110 -74.5 170.5t-208.5 60.5zM703 666h-339v-507h356
q163 0 247 64.5t84 189.5v2q0 251 -348 251z" />
    <glyph glyph-name="C" unicode="C" horiz-adv-x="1466" 
d="M765 -34q-294 0 -465.5 203t-171.5 551v2q0 349 171 552t465 203q228 0 390 -130t194 -338l-1 -2h-181l-1 2q-36 139 -144 220.5t-257 81.5q-208 0 -329.5 -159t-121.5 -430v-2q0 -271 122 -429.5t330 -158.5q151 0 258 72.5t141 196.5l2 2h182v-2
q-36 -198 -194.5 -316.5t-388.5 -118.5z" />
    <glyph glyph-name="D" unicode="D" horiz-adv-x="1488" 
d="M184 0v1443h495q321 0 501 -190t180 -530v-2q0 -341 -179.5 -531t-501.5 -190h-495zM364 162h303q241 0 375 147t134 410v2q0 264 -134.5 412t-374.5 148h-303v-1119z" />
    <glyph glyph-name="E" unicode="E" horiz-adv-x="1220" 
d="M184 0v1443h894v-162h-714v-463h677v-160h-677v-496h714v-162h-894z" />
    <glyph glyph-name="F" unicode="F" horiz-adv-x="1172" 
d="M184 0v1443h876v-162h-696v-496h639v-160h-639v-625h-180z" />
    <glyph glyph-name="G" unicode="G" horiz-adv-x="1529" 
d="M782 -34q-299 0 -476.5 204.5t-177.5 550.5v2q0 341 179 547.5t475 206.5q238 0 398.5 -123t203.5 -331l2 -10h-182l-3 10q-44 140 -151 214t-268 74q-215 0 -342.5 -160t-127.5 -428v-2q0 -272 126.5 -430.5t344.5 -158.5q193 0 312.5 113t119.5 296v35h-405v158h585
v-176q0 -267 -168 -429.5t-445 -162.5z" />
    <glyph glyph-name="H" unicode="H" horiz-adv-x="1520" 
d="M184 0v1443h180v-624h792v624h180v-1443h-180v657h-792v-657h-180z" />
    <glyph glyph-name="I" unicode="I" horiz-adv-x="548" 
d="M184 0v1443h180v-1443h-180z" />
    <glyph glyph-name="J" unicode="J" horiz-adv-x="1102" 
d="M493 -34q-182 0 -288 100.5t-118 261.5l-1 14h180l1 -10q9 -88 66 -144t159 -56q120 0 183 69.5t63 201.5v1040h180v-1042q0 -205 -112.5 -320t-312.5 -115z" />
    <glyph glyph-name="K" unicode="&#x212a;" horiz-adv-x="1349" 
d="M184 0v1443h180v-701h16l632 701h226l-577 -623l630 -820h-233l-521 695l-173 -191v-504h-180z" />
    <glyph glyph-name="K" unicode="K" horiz-adv-x="1349" 
d="M184 0v1443h180v-701h16l632 701h226l-577 -623l630 -820h-233l-521 695l-173 -191v-504h-180z" />
    <glyph glyph-name="L" unicode="L" horiz-adv-x="1163" 
d="M184 0v1443h180v-1281h696v-162h-876z" />
    <glyph glyph-name="M" unicode="M" horiz-adv-x="1790" 
d="M184 0v1443h209l494 -1204h16l494 1204h209v-1443h-168v1102h-11l-456 -1102h-152l-456 1102h-11v-1102h-168z" />
    <glyph glyph-name="N" unicode="N" horiz-adv-x="1520" 
d="M184 0v1443h175l783 -1123h16v1123h178v-1443h-175l-783 1119h-16v-1119h-178z" />
    <glyph glyph-name="O" unicode="O" horiz-adv-x="1580" 
d="M790 -34q-309 0 -485.5 203.5t-176.5 551.5v2q0 348 178 551t484 203q307 0 484.5 -203.5t177.5 -550.5v-2q0 -347 -177.5 -551t-484.5 -204zM790 132q221 0 349.5 160t128.5 429v2q0 271 -128.5 429.5t-349.5 158.5q-220 0 -349 -159t-129 -429v-2q0 -270 127.5 -429.5
t350.5 -159.5z" />
    <glyph glyph-name="P" unicode="P" horiz-adv-x="1301" 
d="M184 0v1443h544q204 0 333.5 -128t129.5 -333v-2q0 -205 -129.5 -335t-333.5 -130h-364v-515h-180zM682 1283h-318v-608h318q154 0 239.5 80t85.5 223v2q0 143 -85.5 223t-239.5 80z" />
    <glyph glyph-name="Q" unicode="Q" horiz-adv-x="1580" 
d="M790 -34q-309 0 -485.5 203.5t-176.5 551.5v2q0 348 178 551t484 203q307 0 484.5 -203.5t177.5 -550.5v-2q0 -208 -66 -368.5t-190 -257.5l188 -258h-202l-128 177q-118 -48 -264 -48zM790 132q84 0 159 25l-186 256h202l126 -173q85 77 131 200.5t46 280.5v2
q0 271 -128.5 429.5t-349.5 158.5q-220 0 -349 -159t-129 -429v-2q0 -270 127.5 -429.5t350.5 -159.5z" />
    <glyph glyph-name="R" unicode="R" horiz-adv-x="1338" 
d="M184 0v1443h551q208 0 334 -117.5t126 -311.5v-2q0 -150 -77 -260t-213 -153l334 -599h-211l-309 571h-355v-571h-180zM364 731h355q139 0 214.5 71.5t75.5 203.5v2q0 129 -79 202t-219 73h-347v-552z" />
    <glyph glyph-name="S" unicode="S" horiz-adv-x="1305" 
d="M657 -34q-233 0 -379 111t-162 290l-1 11h180l1 -11q10 -107 112 -171t259 -64q148 0 243.5 69t95.5 179v1q0 92 -67.5 153t-213.5 93l-160 35q-214 47 -314 147t-100 259v1q1 179 143 293.5t365 114.5q212 0 352.5 -110.5t151.5 -274.5l1 -14h-180l-2 13
q-15 98 -103 159.5t-225 60.5q-140 -1 -229.5 -64t-89.5 -173v-1q0 -88 65.5 -146t209.5 -90l160 -36q223 -50 321.5 -144t98.5 -252v-1q0 -202 -145 -320t-388 -118z" />
    <glyph glyph-name="T" unicode="T" horiz-adv-x="1298" 
d="M559 0v1281h-465v162h1110v-162h-465v-1281h-180z" />
    <glyph glyph-name="U" unicode="U" horiz-adv-x="1510" 
d="M756 -34q-265 0 -419.5 145.5t-154.5 384.5v947h180v-935q0 -170 105 -273t289 -103t288 103t104 273v935h180v-947q0 -239 -153.5 -384.5t-418.5 -145.5z" />
    <glyph glyph-name="V" unicode="V" horiz-adv-x="1380" 
d="M601 0l-532 1443h189l424 -1210h16l424 1210h189l-532 -1443h-178z" />
    <glyph glyph-name="W" unicode="W" horiz-adv-x="1982" 
d="M483 0l-393 1443h188l287 -1173h12l323 1173h182l323 -1173h12l287 1173h188l-393 -1443h-170l-332 1139h-12l-332 -1139h-170z" />
    <glyph glyph-name="X" unicode="X" horiz-adv-x="1390" 
d="M89 0l492 725v4l-486 714h217l386 -581h6l390 581h205l-499 -723v-4l488 -716h-216l-384 576h-6l-389 -576h-204z" />
    <glyph glyph-name="Y" unicode="Y" horiz-adv-x="1342" 
d="M581 0v621l-512 822h205l389 -641h16l389 641h205l-512 -822v-621h-180z" />
    <glyph glyph-name="Z" unicode="Z" horiz-adv-x="1355" 
d="M144 0v128l817 1137v16h-789v162h1022v-128l-813 -1137v-16h830v-162h-1067z" />
    <glyph glyph-name="bracketleft" unicode="[" horiz-adv-x="782" 
d="M268 -360v1866h434v-136h-266v-1594h266v-136h-434z" />
    <glyph glyph-name="backslash" unicode="\" horiz-adv-x="624" 
d="M167 1506l456 -1866h-167l-456 1866h167z" />
    <glyph glyph-name="bracketright" unicode="]" horiz-adv-x="782" 
d="M514 -360h-434v136h266v1594h-266v136h434v-1866z" />
    <glyph glyph-name="asciicircum" unicode="^" horiz-adv-x="1290" 
d="M314 816h-184l434 627h162l434 -627h-184l-331 488z" />
    <glyph glyph-name="underscore" unicode="_" horiz-adv-x="1195" 
d="M0 -262v162h1195v-162h-1195z" />
    <glyph glyph-name="grave" unicode="`" horiz-adv-x="1024" 
d="M552 1228l-231 340h206l177 -340h-152z" />
    <glyph glyph-name="a" unicode="a" horiz-adv-x="1130" 
d="M458 -19q-157 0 -258.5 87.5t-101.5 232.5v2q0 143 102 225t291 93l309 19v98q0 100 -61 152.5t-181 52.5q-96 0 -158.5 -34.5t-83.5 -97.5l-1 -3h-174l1 6q21 128 136 205.5t286 77.5q196 0 303 -95t107 -264v-738h-174v159h-16q-105 -178 -326 -178zM276 305
q0 -80 61 -126.5t157 -46.5q132 0 219 77t87 193v98l-288 -18q-122 -7 -179 -50.5t-57 -124.5v-2z" />
    <glyph glyph-name="b" unicode="b" horiz-adv-x="1258" 
d="M698 -19q-112 0 -199 50t-137 141h-16v-172h-174v1506h174v-598h16q44 87 134.5 138t201.5 51q206 0 329 -152t123 -405v-2q0 -252 -123.5 -404.5t-328.5 -152.5zM658 135q147 0 230.5 107t83.5 296v2q0 189 -83.5 296t-230.5 107t-231.5 -108t-84.5 -295v-2
q0 -187 84.5 -295t231.5 -108z" />
    <glyph glyph-name="c" unicode="c" horiz-adv-x="1146" 
d="M603 -19q-226 0 -360.5 152t-134.5 409v2q0 252 134 402.5t360 150.5q189 0 307.5 -96t143.5 -247l1 -6h-173l-1 3q-21 84 -94 138t-184 54q-145 0 -230.5 -108t-85.5 -291v-2q0 -186 86 -296.5t230 -110.5q216 0 277 184l2 6l172 1l-2 -11q-35 -153 -148 -243.5
t-300 -90.5z" />
    <glyph glyph-name="d" unicode="d" horiz-adv-x="1258" 
d="M560 -19q-205 0 -328.5 152.5t-123.5 404.5v2q0 253 123 405t329 152q111 0 201.5 -51t134.5 -138h16v598h174v-1506h-174v172h-16q-50 -91 -137 -141t-199 -50zM600 135q147 0 231.5 108t84.5 295v2q0 187 -84.5 295t-231.5 108t-230.5 -107t-83.5 -296v-2
q0 -189 83.5 -296t230.5 -107z" />
    <glyph glyph-name="e" unicode="e" horiz-adv-x="1170" 
d="M602 -19q-230 0 -362 149.5t-132 404.5v1q0 251 132 406t351 155q218 0 344.5 -148t126.5 -392v-68h-776q4 -166 89.5 -259.5t230.5 -93.5q102 0 171.5 39.5t93.5 94.5l4 9h174l-2 -8q-30 -119 -148 -204.5t-297 -85.5zM590 942q-123 0 -205 -82t-96 -232h596
q-13 155 -92 234.5t-203 79.5z" />
    <glyph glyph-name="f" unicode="f" horiz-adv-x="741" 
d="M234 0v934h-179v144h179v120q0 318 313 318q65 0 116 -10v-139q-26 5 -81 5q-91 0 -132.5 -44.5t-41.5 -134.5v-115h245v-144h-245v-934h-174z" />
    <glyph glyph-name="g" unicode="g" horiz-adv-x="1248" 
d="M606 -380q-192 0 -312 79.5t-141 214.5l2 1h180l1 -1q15 -63 86 -101.5t184 -38.5q145 0 226.5 65.5t81.5 184.5v218h-16q-51 -89 -139 -137.5t-199 -48.5q-207 0 -329.5 144t-122.5 374v2q0 230 124 375.5t332 145.5q112 0 199 -52t137 -145h12v178h174v-1063
q0 -181 -130 -288t-350 -107zM598 210q148 0 234 100.5t86 263.5v2q0 163 -86.5 265t-233.5 102t-229.5 -101.5t-82.5 -265.5v-2q0 -164 82.5 -264t229.5 -100z" />
    <glyph glyph-name="h" unicode="h" horiz-adv-x="1205" 
d="M172 0v1506h174v-590h16q86 181 314 181q181 0 279 -103.5t98 -295.5v-698h-174v656q0 146 -61.5 216.5t-190.5 70.5t-205 -82t-76 -223v-638h-174z" />
    <glyph glyph-name="i" unicode="i" horiz-adv-x="506" 
d="M254 1286q-50 0 -85 35t-35 85t35 85t85 35t85 -35t35 -85t-35 -85t-85 -35zM166 0v1078h174v-1078h-174z" />
    <glyph glyph-name="j" unicode="j" horiz-adv-x="505" 
d="M252 1286q-50 0 -85 35t-35 85t35 85t85 35t85 -35t35 -85t-35 -85t-85 -35zM8 -370h-30v154h26q88 0 124.5 35.5t36.5 124.5v1134h174v-1131q0 -165 -80 -241t-251 -76z" />
    <glyph glyph-name="k" unicode="k" horiz-adv-x="1112" 
d="M172 0v1506h174v-899h16l466 471h211l-470 -453l501 -625h-219l-404 507l-101 -98v-409h-174z" />
    <glyph glyph-name="l" unicode="l" horiz-adv-x="518" 
d="M172 0v1506h174v-1506h-174z" />
    <glyph glyph-name="m" unicode="m" horiz-adv-x="1782" 
d="M162 0v1078h174v-164h16q36 88 111 135.5t180 47.5q106 0 182.5 -51t115.5 -138h16q44 87 132 138t198 51q165 0 254 -91.5t89 -260.5v-745h-174v705q0 238 -225 238q-110 0 -179.5 -72.5t-69.5 -177.5v-693h-174v732q0 96 -61 153.5t-163 57.5q-105 0 -176.5 -80
t-71.5 -195v-668h-174z" />
    <glyph glyph-name="n" unicode="n" horiz-adv-x="1195" 
d="M162 0v1078h174v-162h16q86 181 314 181q181 0 279 -103.5t98 -295.5v-698h-174v656q0 146 -61.5 216.5t-190.5 70.5t-205 -82t-76 -223v-638h-174z" />
    <glyph glyph-name="o" unicode="o" horiz-adv-x="1210" 
d="M605 -19q-230 0 -363.5 149t-133.5 408v2q0 259 133 408t364 149t364 -149t133 -408v-2q0 -259 -133.5 -408t-363.5 -149zM605 135q152 0 235.5 106t83.5 297v2q0 192 -83 297.5t-236 105.5t-236 -105.5t-83 -297.5v-2q0 -191 83.5 -297t235.5 -106z" />
    <glyph glyph-name="p" unicode="p" horiz-adv-x="1250" 
d="M162 -360v1438h174v-172h16q50 91 137 141t199 50q205 0 328.5 -152.5t123.5 -404.5v-2q0 -253 -123 -405t-329 -152q-111 0 -201.5 51t-134.5 138h-16v-530h-174zM648 135q147 0 230.5 107t83.5 296v2q0 189 -83.5 296t-230.5 107t-231.5 -108t-84.5 -295v-2
q0 -187 84.5 -295t231.5 -108z" />
    <glyph glyph-name="q" unicode="q" horiz-adv-x="1248" 
d="M914 -360v522h-16q-44 -86 -133 -133.5t-204 -47.5q-205 0 -329 152.5t-124 404.5v2q0 254 123.5 405.5t329.5 151.5q108 0 198.5 -53t142.5 -146h12v180h174v-1438h-174zM602 135q146 0 231.5 109t85.5 294v2q0 186 -86 294.5t-232 108.5q-148 0 -231.5 -107.5
t-83.5 -295.5v-2q0 -189 84 -296t232 -107z" />
    <glyph glyph-name="r" unicode="r" horiz-adv-x="780" 
d="M162 0v1078h174v-160h16q31 86 105 132.5t183 46.5q47 0 87 -7v-169q-60 10 -107 10q-125 0 -204.5 -72.5t-79.5 -190.5v-668h-174z" />
    <glyph glyph-name="s" unicode="s" horiz-adv-x="1072" 
d="M532 -19q-180 0 -295 80t-130 214h178q22 -69 87 -109t166 -40q109 0 178.5 47t69.5 120v2q0 56 -45 94t-143 62l-167 40q-152 36 -222.5 105.5t-70.5 185.5v1q0 134 114.5 224t286.5 90q169 0 279 -78.5t128 -210.5h-171q-18 66 -80 105t-157 39q-97 0 -159.5 -45
t-62.5 -116v-2q0 -55 43 -91t138 -59l166 -40q154 -37 227.5 -107t73.5 -184v-2q0 -143 -123 -234t-309 -91z" />
    <glyph glyph-name="t" unicode="t" horiz-adv-x="744" 
d="M545 -8q-167 0 -241 67t-74 221v654h-170v144h170v279h180v-279h236v-144h-236v-610q0 -95 36 -136.5t120 -41.5q37 0 80 4v-148q-57 -10 -101 -10z" />
    <glyph glyph-name="u" unicode="u" horiz-adv-x="1195" 
d="M523 -19q-182 0 -276.5 103t-94.5 296v698h174v-656q0 -147 57.5 -217t184.5 -70q141 0 216 80.5t75 224.5v638h174v-1078h-174v161h-16q-83 -180 -320 -180z" />
    <glyph glyph-name="v" unicode="v" horiz-adv-x="1110" 
d="M467 0l-399 1078h184l295 -888h16l295 888h184l-399 -1078h-176z" />
    <glyph glyph-name="w" unicode="w" horiz-adv-x="1586" 
d="M370 0l-302 1078h174l212 -862h16l241 862h165l241 -862h16l212 862h173l-302 -1078h-175l-241 834h-16l-240 -834h-174z" />
    <glyph glyph-name="x" unicode="x" horiz-adv-x="1074" 
d="M76 0l369 539l-373 539h205l256 -401h16l253 401h195l-366 -532l371 -546h-204l-255 407h-16l-256 -407h-195z" />
    <glyph glyph-name="y" unicode="y" horiz-adv-x="1112" 
d="M254 -378q-41 0 -77 6v143q26 -5 72 -5q76 0 122.5 39t75.5 130l20 64l-399 1079h186l296 -887h16l295 887h183l-421 -1144q-66 -180 -145 -246t-224 -66z" />
    <glyph glyph-name="z" unicode="z" horiz-adv-x="1104" 
d="M137 0v126l622 792v16h-621v144h826v-129l-619 -789v-16h622v-144h-830z" />
    <glyph glyph-name="braceleft" unicode="{" horiz-adv-x="782" 
d="M647 -360q-177 0 -262 84.5t-85 259.5v282q0 120 -48 166.5t-172 46.5v190q124 0 172 46.5t48 166.5v280q0 175 85 259.5t262 84.5h55v-141h-40q-106 0 -152 -52.5t-46 -172.5v-320q0 -212 -219 -234v-24q219 -22 219 -234v-322q0 -120 46 -172.5t152 -52.5h40v-141h-55z
" />
    <glyph glyph-name="bar" unicode="|" horiz-adv-x="530" 
d="M184 -360v1803h162v-1803h-162z" />
    <glyph glyph-name="braceright" unicode="}" horiz-adv-x="782" 
d="M135 -360h-55v141h40q106 0 152 52.5t46 172.5v322q0 212 219 234v24q-219 22 -219 234v320q0 120 -46 172.5t-152 52.5h-40v141h55q177 0 262 -84.5t85 -259.5v-280q0 -120 48 -166.5t172 -46.5v-190q-124 0 -172 -46.5t-48 -166.5v-282q0 -175 -85 -259.5t-262 -84.5z
" />
    <glyph glyph-name="asciitilde" unicode="~" horiz-adv-x="1290" 
d="M877 424q-48 0 -101 17.5t-99.5 42t-92.5 49t-95 42t-92 17.5q-158 0 -268 -128v158q108 124 284 124q58 0 126.5 -26t121 -58t117 -58t115.5 -26q158 0 268 128v-158q-108 -124 -284 -124z" />
    <glyph glyph-name="nonbreakingspace" unicode="&#xa0;" horiz-adv-x="576" 
 />
    <glyph glyph-name="exclamationmarkinverted" unicode="&#xa1;" horiz-adv-x="637" 
d="M318 1096q61 0 100 -39t39 -100t-39 -100.5t-100 -39.5t-99.5 39t-38.5 101q0 61 38.5 100t99.5 39zM402 598l17 -964h-200l17 964h166z" />
    <glyph glyph-name="centsign" unicode="&#xa2;" horiz-adv-x="1290" 
d="M612 0v178q-201 21 -319.5 165.5t-118.5 377.5v2q0 230 119 376t319 168v175h120v-174q174 -16 282.5 -120.5t125.5 -245.5l-2 -1l-168 -1l-1 2q-18 85 -78.5 142t-158.5 70v-784q95 11 156 64t81 142l2 1l169 1l1 -2q-20 -148 -131.5 -246.5t-277.5 -113.5v-176h-120z
M351 721q0 -166 70 -266t191 -122v778q-121 -22 -191 -123t-70 -265v-2z" />
    <glyph glyph-name="sterlingsign" unicode="&#xa3;" horiz-adv-x="1290" 
d="M109 30v152q137 31 222.5 122t85.5 207q0 68 -26 146h-282v136h224q-51 115 -51 207q0 197 138 309.5t379 112.5q188 0 300 -53v-160q-41 23 -125 38.5t-166 15.5q-159 0 -250.5 -69t-91.5 -190q0 -92 50 -211h481v-136h-426q23 -69 23 -139q0 -212 -209 -320v-14h786
v-154h-1062z" />
    <glyph glyph-name="currencysign" unicode="&#xa4;" horiz-adv-x="1290" 
d="M1057 722v-1q0 -129 -71 -235l200 -200l-106 -106l-200 200q-106 -71 -235 -71h-1q-129 0 -235 71l-200 -200l-106 106l200 200q-71 106 -71 235v1q0 129 71 235l-200 200l106 106l200 -200q106 71 235 71h1q129 0 235 -71l200 200l106 -106l-200 -200q71 -106 71 -235z
M927 722q0 118 -81.5 200t-200.5 82h-2q-119 0 -200.5 -82t-81.5 -200v-2q0 -118 81.5 -200t200.5 -82h2q119 0 200.5 82t81.5 200v2z" />
    <glyph glyph-name="yensign" unicode="&#xa5;" horiz-adv-x="1290" 
d="M216 299v120h339v160h-339v120h281l-442 714h203l384 -649h6l384 649h203l-442 -714h281v-120h-339v-160h339v-120h-339v-269h-180v269h-339z" />
    <glyph glyph-name="brokenbar" unicode="&#xa6;" horiz-adv-x="530" 
d="M346 1444v-718h-162v718h162zM184 -360v718h162v-718h-162z" />
    <glyph glyph-name="section" unicode="&#xa7;" horiz-adv-x="1224" 
d="M617 -254q-173 0 -288.5 84t-129.5 219l-1 10h176l1 -6q12 -73 81.5 -117t169.5 -44q106 0 172.5 48.5t66.5 127.5v2q0 61 -50 101t-158 67l-141 36q-166 43 -245 118.5t-79 185.5v2q0 95 63 169.5t168 107.5v14q-225 88 -225 277v3q0 146 114 236t297 90
q167 0 275.5 -77.5t130.5 -209.5l2 -12h-173l-1 6q-11 67 -76 107t-162 40q-105 0 -169.5 -47t-64.5 -123v-3q0 -60 47 -100t149 -68l141 -36q168 -43 247.5 -115.5t79.5 -179.5v-2q0 -101 -63.5 -177t-170.5 -109v-13q234 -88 234 -276v-2q0 -147 -117.5 -240.5
t-300.5 -93.5zM547 429l80 -21q108 13 169.5 68t61.5 141v2q0 133 -181 180l-80 21q-108 -13 -169.5 -68t-61.5 -141v-2q0 -132 181 -180z" />
    <glyph glyph-name="dieresis" unicode="&#xa8;" horiz-adv-x="1024" 
d="M292 1294q-46 0 -78.5 32.5t-32.5 78.5q0 45 32.5 77.5t78.5 32.5q45 0 77.5 -32.5t32.5 -77.5q0 -46 -32.5 -78.5t-77.5 -32.5zM733 1294q-45 0 -77.5 32.5t-32.5 78.5q0 45 32.5 77.5t77.5 32.5q46 0 78.5 -32.5t32.5 -77.5q0 -46 -32.5 -78.5t-78.5 -32.5z" />
    <glyph glyph-name="copyright" unicode="&#xa9;" horiz-adv-x="1831" 
d="M1703 725v-7q0 -130 -39 -250t-111 -216t-168 -168t-216 -111t-250 -39h-7q-130 0 -250 39t-216 111t-168 168t-111 216t-39 250v7q0 130 39 250t111 216t168 168t216 111t250 39h7q130 0 250 -39t216 -111t168 -168t111 -216t39 -250zM1571 725q0 180 -86.5 329.5
t-236 236t-329.5 86.5h-7q-180 0 -329.5 -86.5t-236 -236t-86.5 -329.5v-7q0 -180 86.5 -329.5t236 -236t329.5 -86.5h7q180 0 329.5 86.5t236 236t86.5 329.5v7zM929 352q-158 0 -249.5 99t-91.5 270v1q0 171 91 270t249 99q127 0 214.5 -72t100.5 -184v-6h-135v3
q-14 59 -63 95.5t-117 36.5q-92 0 -145.5 -65t-53.5 -177v-1q0 -112 53.5 -177t146.5 -65q69 0 116.5 33.5t61.5 90.5l1 4h135v-6q-14 -112 -100 -180.5t-214 -68.5z" />
    <glyph glyph-name="a.sups" unicode="&#xaa;" horiz-adv-x="799" 
d="M314 765q-101 0 -166 54.5t-65 144.5v1q0 89 67.5 140t192.5 59l190 10v58q0 108 -144 108q-119 0 -146 -72l-1 -2h-132l1 5q13 84 89.5 134.5t194.5 50.5q130 0 201.5 -59t71.5 -165v-456h-135v93h-11q-65 -104 -208 -104zM219 971q0 -43 36.5 -68.5t94.5 -25.5
q79 0 131 41.5t52 103.5v55l-172 -10q-142 -9 -142 -95v-1z" />
    <glyph glyph-name="guillemetleft" unicode="&#xab;" horiz-adv-x="1355" 
d="M529 145l-350 416v8l350 416h204l-351 -412v-16l351 -412h-204zM972 145l-350 416v8l350 416h204l-351 -412v-16l351 -412h-204z" />
    <glyph glyph-name="logicalnot" unicode="&#xac;" horiz-adv-x="1290" 
d="M129 500v162h1032v-620h-162v458h-870z" />
    <glyph glyph-name="registered" unicode="&#xae;" horiz-adv-x="1420" 
d="M1292 899v-7q0 -119 -45 -226.5t-122.5 -185t-184.5 -122.5t-226 -45h-7q-119 0 -226.5 45t-185 122.5t-122.5 185t-45 226.5v7q0 119 45 226t122.5 184.5t185 122.5t226.5 45h7q119 0 226 -45t184.5 -122.5t122.5 -184.5t45 -226zM1164 899q0 189 -130.5 319.5
t-319.5 130.5h-7q-190 0 -320.5 -130.5t-130.5 -319.5v-7q0 -190 130.5 -320.5t320.5 -130.5h7q189 0 319.5 130.5t130.5 320.5v7zM478 599v592h259q106 0 164.5 -51.5t58.5 -142.5v-1q0 -56 -30 -101t-82 -66l131 -230h-149l-115 208h-106v-208h-131zM609 909h113
q48 0 75.5 23t27.5 62v1q0 38 -28 61.5t-76 23.5h-112v-171z" />
    <glyph glyph-name="macron" unicode="&#xaf;" horiz-adv-x="1024" 
d="M185 1336v136h654v-136h-654z" />
    <glyph glyph-name="degree" unicode="&#xb0;" horiz-adv-x="966" 
d="M483 740q-144 0 -239 96.5t-95 236.5v2q0 140 95 236.5t239 96.5q143 0 238.5 -97t95.5 -236v-2q0 -139 -95.5 -236t-238.5 -97zM483 880q81 0 132.5 56t51.5 137v2q0 82 -51.5 137.5t-132.5 55.5q-82 0 -133 -55.5t-51 -137.5v-2q0 -81 50.5 -137t133.5 -56z" />
    <glyph glyph-name="plusminus" unicode="&#xb1;" horiz-adv-x="1290" 
d="M566 202v389h-405v162h405v388h159v-388h404v-162h-404v-389h-159zM161 21v139h968v-139h-968z" />
    <glyph glyph-name="two.sups" unicode="&#xb2;" horiz-adv-x="699" 
d="M87 776v101l255 238q80 77 107 115t27 76v2q0 49 -35 79.5t-94 30.5q-62 0 -100.5 -33.5t-38.5 -87.5v-3l-128 1l-1 2q0 106 76.5 172t198.5 66q113 0 186 -59.5t73 -154.5v-2q0 -64 -39.5 -125t-144.5 -154l-156 -137v-6h352v-121h-538z" />
    <glyph glyph-name="three.sups" unicode="&#xb3;" horiz-adv-x="726" 
d="M367 760q-126 0 -204.5 60.5t-86.5 159.5l-1 7h132v-6q6 -44 49.5 -72t110.5 -28t108.5 30.5t41.5 78.5v1q0 54 -42 83t-118 29h-92v108h89q64 0 103.5 28.5t39.5 74.5v1q0 47 -34.5 74t-96.5 27q-61 0 -101 -27.5t-45 -74.5v-5h-128v6q9 99 83 158t191 59
q119 0 191.5 -54.5t72.5 -142.5v-1q0 -67 -45.5 -112t-118.5 -59v-3q87 -8 139 -54t52 -121v-1q0 -100 -80.5 -162t-209.5 -62z" />
    <glyph glyph-name="acute" unicode="&#xb4;" horiz-adv-x="1024" 
d="M473 1228h-152l177 340h206z" />
    <glyph glyph-name="mu.grek" unicode="&#x3bc;" horiz-adv-x="1258" 
d="M162 -360v1438h174v-654q0 -290 242 -290q130 0 206 82.5t76 223.5v638h174v-809q0 -71 22 -98t78 -27q25 0 49 4v-148q-37 -10 -82 -10q-111 0 -163 37.5t-68 130.5l-2 12h-16q-43 -97 -109.5 -143.5t-172.5 -46.5q-158 0 -218 130h-16v-470h-174z" />
    <glyph glyph-name="mu.grek" unicode="&#xb5;" horiz-adv-x="1258" 
d="M162 -360v1438h174v-654q0 -290 242 -290q130 0 206 82.5t76 223.5v638h174v-809q0 -71 22 -98t78 -27q25 0 49 4v-148q-37 -10 -82 -10q-111 0 -163 37.5t-68 130.5l-2 12h-16q-43 -97 -109.5 -143.5t-172.5 -46.5q-158 0 -218 130h-16v-470h-174z" />
    <glyph glyph-name="paragraph" unicode="&#xb6;" horiz-adv-x="1224" 
d="M568 -220v834h-19q-192 0 -322 115.5t-131 290.5v2q0 182 130.5 301.5t323.5 119.5h178v-1663h-160zM880 -220v1663h160v-1663h-160z" />
    <glyph glyph-name="middledot" unicode="&#xb7;" horiz-adv-x="608" 
d="M304 451q-53 0 -91.5 38.5t-38.5 91.5q0 54 38.5 92t91.5 38q54 0 92 -38t38 -92q0 -53 -38 -91.5t-92 -38.5z" />
    <glyph glyph-name="cedilla" unicode="&#xb8;" horiz-adv-x="1024" 
d="M484 -494q-83 0 -161 18v116q59 -13 129 -13q53 0 90.5 18.5t37.5 58.5v2q0 47 -38 64.5t-123 17.5h-37v90l97 144h127v-22l-74 -104q97 0 156 -50t59 -134v-2q0 -71 -38.5 -118t-95.5 -66.5t-129 -19.5z" />
    <glyph glyph-name="one.sups" unicode="&#xb9;" horiz-adv-x="537" 
d="M268 776v597h-9l-193 -127v136l203 134h137v-740h-138z" />
    <glyph glyph-name="o.sups" unicode="&#xba;" horiz-adv-x="856" 
d="M428 763q-153 0 -241 92.5t-88 253.5v1q0 161 88 253.5t241 92.5t241 -92.5t88 -253.5v-1q0 -161 -88 -253.5t-241 -92.5zM427 881q91 0 140.5 60t49.5 168v1q0 108 -50 168t-140 60t-139.5 -60t-49.5 -168v-1q0 -108 49.5 -168t139.5 -60z" />
    <glyph glyph-name="guillemetright" unicode="&#xbb;" horiz-adv-x="1355" 
d="M826 985l350 -416v-8l-350 -416h-204l351 412v16l-351 412h204zM383 985l350 -416v-8l-350 -416h-204l351 412v16l-351 412h204z" />
    <glyph glyph-name="onequarter" unicode="&#xbc;" horiz-adv-x="1597" 
d="M268 703v597h-9l-193 -127v136l203 134h137v-740h-138zM359 0h-162l982 1443h162zM1296 0v137h-380v119q128 211 317 484h195v-482h105v-121h-105v-137h-132zM1044 254h254v371h-8q-149 -209 -246 -363v-8z" />
    <glyph glyph-name="onehalf" unicode="&#xbd;" horiz-adv-x="1665" 
d="M268 703v597h-9l-193 -127v136l203 134h137v-740h-138zM359 0h-162l982 1443h162zM1053 0v101l255 238q80 77 107 115t27 76v2q0 49 -35 79.5t-94 30.5q-62 0 -100.5 -33.5t-38.5 -87.5v-3l-128 1l-1 2q0 106 76.5 172t198.5 66q113 0 186 -59.5t73 -154.5v-2
q0 -64 -39.5 -125t-144.5 -154l-156 -137v-6h352v-121h-538z" />
    <glyph glyph-name="threequarters" unicode="&#xbe;" horiz-adv-x="1797" 
d="M367 687q-126 0 -204.5 60.5t-86.5 159.5l-1 7h132v-6q6 -44 49.5 -72t110.5 -28t108.5 30.5t41.5 78.5v1q0 54 -42 83t-118 29h-92v108h89q64 0 103.5 28.5t39.5 74.5v1q0 47 -34.5 74t-96.5 27q-61 0 -101 -27.5t-45 -74.5v-5h-128v6q9 99 83 158t191 59
q119 0 191.5 -54.5t72.5 -142.5v-1q0 -67 -45.5 -112t-118.5 -59v-3q87 -8 139 -54t52 -121v-1q0 -100 -80.5 -162t-209.5 -62zM548 0h-162l982 1443h162zM1496 0v137h-380v119q128 211 317 484h195v-482h105v-121h-105v-137h-132zM1244 254h254v371h-8q-149 -209 -246 -363
v-8z" />
    <glyph glyph-name="questionmarkinverted" unicode="&#xbf;" horiz-adv-x="1050" 
d="M556 1096q61 0 100 -39t39 -100t-39 -100.5t-100 -39.5t-99.5 39t-38.5 101q0 61 38.5 100t99.5 39zM657 632v-92q1 -98 -47.5 -170t-152.5 -134q-88 -54 -124.5 -107.5t-36.5 -132.5v-2q0 -94 67.5 -154t177.5 -60q113 0 181 62t76 169l2 1l170 1v-2
q-9 -170 -121.5 -278.5t-314.5 -108.5q-187 0 -305.5 103t-118.5 258v2q0 218 209 344q94 56 128.5 106t34.5 130v65h175z" />
    <glyph glyph-name="Agrave" unicode="&#xc0;" horiz-adv-x="1380" 
d="M629 1587l-221 324h201l168 -324h-148zM69 0l532 1443h178l532 -1443h-189l-145 413h-574l-145 -413h-189zM682 1210l-226 -644h468l-226 644h-16z" />
    <glyph glyph-name="Aacute" unicode="&#xc1;" horiz-adv-x="1380" 
d="M756 1587h-148l168 324h201zM69 0l532 1443h178l532 -1443h-189l-145 413h-574l-145 -413h-189zM682 1210l-226 -644h468l-226 644h-16z" />
    <glyph glyph-name="Acircumflex" unicode="&#xc2;" horiz-adv-x="1380" 
d="M356 1587l231 324h206l231 -324h-180l-146 214h-16l-146 -214h-180zM69 0l532 1443h178l532 -1443h-189l-145 413h-574l-145 -413h-189zM682 1210l-226 -644h468l-226 644h-16z" />
    <glyph glyph-name="Atilde" unicode="&#xc3;" horiz-adv-x="1380" 
d="M831 1593q-51 0 -91 22t-84 65l-11 11q-45 45 -81 45q-72 0 -72 -142v-4h-136v10q0 124 50.5 195t141.5 71q51 0 91 -22t84 -65l11 -11q45 -45 81 -45q72 0 72 142v4h136v-10q0 -124 -50.5 -195t-141.5 -71zM69 0l532 1443h178l532 -1443h-189l-145 413h-574l-145 -413
h-189zM682 1210l-226 -644h468l-226 644h-16z" />
    <glyph glyph-name="Adieresis" unicode="&#xc4;" horiz-adv-x="1380" 
d="M478 1647q-44 0 -76 32t-32 77q0 44 32 76t76 32t76 -32t32 -76q0 -45 -32 -77t-76 -32zM902 1647q-44 0 -76 32t-32 77q0 44 32 76t76 32t76 -32t32 -76q0 -45 -32 -77t-76 -32zM69 0l532 1443h178l532 -1443h-189l-145 413h-574l-145 -413h-189zM682 1210l-226 -644
h468l-226 644h-16z" />
    <glyph glyph-name="Aring" unicode="&#x212b;" horiz-adv-x="1380" 
d="M692 1546q-87 0 -148 59.5t-61 143.5v1q0 85 61 144t148 59q88 0 149 -59t61 -144v-1q0 -84 -61 -143.5t-149 -59.5zM692 1642q46 0 78.5 31.5t32.5 75.5v1q0 45 -32 76t-79 31q-46 0 -78 -31t-32 -76v-1q0 -44 32 -75.5t78 -31.5zM69 0l532 1443h178l532 -1443h-189
l-145 413h-574l-145 -413h-189zM682 1210l-226 -644h468l-226 644h-16z" />
    <glyph glyph-name="Aring" unicode="&#xc5;" horiz-adv-x="1380" 
d="M692 1546q-87 0 -148 59.5t-61 143.5v1q0 85 61 144t148 59q88 0 149 -59t61 -144v-1q0 -84 -61 -143.5t-149 -59.5zM692 1642q46 0 78.5 31.5t32.5 75.5v1q0 45 -32 76t-79 31q-46 0 -78 -31t-32 -76v-1q0 -44 32 -75.5t78 -31.5zM69 0l532 1443h178l532 -1443h-189
l-145 413h-574l-145 -413h-189zM682 1210l-226 -644h468l-226 644h-16z" />
    <glyph glyph-name="AE" unicode="&#xc6;" horiz-adv-x="1966" 
d="M69 0l651 1443h1104v-162h-658v-473h621v-160h-621v-486h658v-162h-838v459h-527l-209 -459h-181zM839 1292l-310 -680h457v680h-147z" />
    <glyph glyph-name="Ccedilla" unicode="&#xc7;" horiz-adv-x="1466" 
d="M735 -494q-83 0 -161 18v116q58 -13 129 -13q53 0 90.5 18.5t37.5 58.5v2q0 47 -38 64.5t-123 17.5h-37v90l61 91q-263 25 -414.5 225t-151.5 526v2q0 349 171 552t465 203q228 0 390 -130t194 -338l-1 -2h-181l-1 2q-36 139 -144 220.5t-257 81.5q-208 0 -329.5 -159
t-121.5 -430v-2q0 -271 122 -429.5t330 -158.5q151 0 258 72.5t141 196.5l2 2h182v-2q-33 -182 -171 -298t-342 -134l-52 -73q97 0 156 -50t59 -134v-2q0 -71 -38.5 -118t-95.5 -66.5t-129 -19.5z" />
    <glyph glyph-name="Egrave" unicode="&#xc8;" horiz-adv-x="1220" 
d="M570 1587l-221 324h201l168 -324h-148zM184 0v1443h894v-162h-714v-463h677v-160h-677v-496h714v-162h-894z" />
    <glyph glyph-name="Eacute" unicode="&#xc9;" horiz-adv-x="1220" 
d="M697 1587h-148l168 324h201zM184 0v1443h894v-162h-714v-463h677v-160h-677v-496h714v-162h-894z" />
    <glyph glyph-name="Ecircumflex" unicode="&#xca;" horiz-adv-x="1220" 
d="M297 1587l231 324h206l231 -324h-180l-146 214h-16l-146 -214h-180zM184 0v1443h894v-162h-714v-463h677v-160h-677v-496h714v-162h-894z" />
    <glyph glyph-name="Edieresis" unicode="&#xcb;" horiz-adv-x="1220" 
d="M419 1647q-44 0 -76 32t-32 77q0 44 32 76t76 32t76 -32t32 -76q0 -45 -32 -77t-76 -32zM843 1647q-44 0 -76 32t-32 77q0 44 32 76t76 32t76 -32t32 -76q0 -45 -32 -77t-76 -32zM184 0v1443h894v-162h-714v-463h677v-160h-677v-496h714v-162h-894z" />
    <glyph glyph-name="Igrave" unicode="&#xcc;" horiz-adv-x="548" 
d="M213 1587l-221 324h201l168 -324h-148zM184 0v1443h180v-1443h-180z" />
    <glyph glyph-name="Iacute" unicode="&#xcd;" horiz-adv-x="548" 
d="M340 1587h-148l168 324h201zM184 0v1443h180v-1443h-180z" />
    <glyph glyph-name="Icircumflex" unicode="&#xce;" horiz-adv-x="548" 
d="M-60 1587l231 324h206l231 -324h-180l-146 214h-16l-146 -214h-180zM184 0v1443h180v-1443h-180z" />
    <glyph glyph-name="Idieresis" unicode="&#xcf;" horiz-adv-x="548" 
d="M62 1647q-44 0 -76 32t-32 77q0 44 32 76t76 32t76 -32t32 -76q0 -45 -32 -77t-76 -32zM486 1647q-44 0 -76 32t-32 77q0 44 32 76t76 32t76 -32t32 -76q0 -45 -32 -77t-76 -32zM184 0v1443h180v-1443h-180z" />
    <glyph glyph-name="Dstroke" unicode="&#x110;" horiz-adv-x="1549" 
d="M245 0v647h-184v150h184v646h495q321 0 501 -190t180 -530v-2q0 -341 -179.5 -531t-501.5 -190h-495zM425 162h303q241 0 375 147t134 410v2q0 264 -134.5 412t-374.5 148h-303v-484h336v-150h-336v-485z" />
    <glyph glyph-name="Dstroke" unicode="&#xd0;" horiz-adv-x="1549" 
d="M245 0v647h-184v150h184v646h495q321 0 501 -190t180 -530v-2q0 -341 -179.5 -531t-501.5 -190h-495zM425 162h303q241 0 375 147t134 410v2q0 264 -134.5 412t-374.5 148h-303v-484h336v-150h-336v-485z" />
    <glyph glyph-name="Ntilde" unicode="&#xd1;" horiz-adv-x="1520" 
d="M901 1593q-51 0 -91 22t-84 65l-11 11q-45 45 -81 45q-72 0 -72 -142v-4h-136v10q0 124 50.5 195t141.5 71q51 0 91 -22t84 -65l11 -11q45 -45 81 -45q72 0 72 142v4h136v-10q0 -124 -50.5 -195t-141.5 -71zM184 0v1443h175l783 -1123h16v1123h178v-1443h-175l-783 1119
h-16v-1119h-178z" />
    <glyph glyph-name="Ograve" unicode="&#xd2;" horiz-adv-x="1580" 
d="M729 1587l-221 324h201l168 -324h-148zM790 -34q-309 0 -485.5 203.5t-176.5 551.5v2q0 348 178 551t484 203q307 0 484.5 -203.5t177.5 -550.5v-2q0 -347 -177.5 -551t-484.5 -204zM790 132q221 0 349.5 160t128.5 429v2q0 271 -128.5 429.5t-349.5 158.5
q-220 0 -349 -159t-129 -429v-2q0 -270 127.5 -429.5t350.5 -159.5z" />
    <glyph glyph-name="Oacute" unicode="&#xd3;" horiz-adv-x="1580" 
d="M856 1587h-148l168 324h201zM790 -34q-309 0 -485.5 203.5t-176.5 551.5v2q0 348 178 551t484 203q307 0 484.5 -203.5t177.5 -550.5v-2q0 -347 -177.5 -551t-484.5 -204zM790 132q221 0 349.5 160t128.5 429v2q0 271 -128.5 429.5t-349.5 158.5q-220 0 -349 -159
t-129 -429v-2q0 -270 127.5 -429.5t350.5 -159.5z" />
    <glyph glyph-name="Ocircumflex" unicode="&#xd4;" horiz-adv-x="1580" 
d="M456 1587l231 324h206l231 -324h-180l-146 214h-16l-146 -214h-180zM790 -34q-309 0 -485.5 203.5t-176.5 551.5v2q0 348 178 551t484 203q307 0 484.5 -203.5t177.5 -550.5v-2q0 -347 -177.5 -551t-484.5 -204zM790 132q221 0 349.5 160t128.5 429v2q0 271 -128.5 429.5
t-349.5 158.5q-220 0 -349 -159t-129 -429v-2q0 -270 127.5 -429.5t350.5 -159.5z" />
    <glyph glyph-name="Otilde" unicode="&#xd5;" horiz-adv-x="1580" 
d="M931 1593q-51 0 -91 22t-84 65l-11 11q-45 45 -81 45q-72 0 -72 -142v-4h-136v10q0 124 50.5 195t141.5 71q51 0 91 -22t84 -65l11 -11q45 -45 81 -45q72 0 72 142v4h136v-10q0 -124 -50.5 -195t-141.5 -71zM790 -34q-309 0 -485.5 203.5t-176.5 551.5v2q0 348 178 551
t484 203q307 0 484.5 -203.5t177.5 -550.5v-2q0 -347 -177.5 -551t-484.5 -204zM790 132q221 0 349.5 160t128.5 429v2q0 271 -128.5 429.5t-349.5 158.5q-220 0 -349 -159t-129 -429v-2q0 -270 127.5 -429.5t350.5 -159.5z" />
    <glyph glyph-name="Odieresis" unicode="&#xd6;" horiz-adv-x="1580" 
d="M578 1647q-44 0 -76 32t-32 77q0 44 32 76t76 32t76 -32t32 -76q0 -45 -32 -77t-76 -32zM1002 1647q-44 0 -76 32t-32 77q0 44 32 76t76 32t76 -32t32 -76q0 -45 -32 -77t-76 -32zM790 -34q-309 0 -485.5 203.5t-176.5 551.5v2q0 348 178 551t484 203q307 0 484.5 -203.5
t177.5 -550.5v-2q0 -347 -177.5 -551t-484.5 -204zM790 132q221 0 349.5 160t128.5 429v2q0 271 -128.5 429.5t-349.5 158.5q-220 0 -349 -159t-129 -429v-2q0 -270 127.5 -429.5t350.5 -159.5z" />
    <glyph glyph-name="multiply" unicode="&#xd7;" horiz-adv-x="1290" 
d="M167 958l109 107l369 -375l368 375l109 -107l-370 -377l370 -378l-109 -107l-368 375l-369 -375l-109 107l370 378z" />
    <glyph glyph-name="Ostroke" unicode="&#xd8;" horiz-adv-x="1574" 
d="M787 -34q-256 0 -423 144l-136 -162l-107 90l148 176q-141 196 -141 507v2q0 348 177.5 551t481.5 203q254 0 423 -144l137 163l107 -90l-149 -177q141 -198 141 -506v-2q0 -347 -176 -551t-483 -204zM301 721q0 -217 85 -367l713 847q-123 114 -312 114
q-224 0 -355 -159.5t-131 -431.5v-3zM787 129q225 0 355.5 160.5t130.5 431.5v3q0 217 -85 365l-713 -847q124 -113 312 -113z" />
    <glyph glyph-name="Ugrave" unicode="&#xd9;" horiz-adv-x="1510" 
d="M694 1587l-221 324h201l168 -324h-148zM756 -34q-265 0 -419.5 145.5t-154.5 384.5v947h180v-935q0 -170 105 -273t289 -103t288 103t104 273v935h180v-947q0 -239 -153.5 -384.5t-418.5 -145.5z" />
    <glyph glyph-name="Uacute" unicode="&#xda;" horiz-adv-x="1510" 
d="M821 1587h-148l168 324h201zM756 -34q-265 0 -419.5 145.5t-154.5 384.5v947h180v-935q0 -170 105 -273t289 -103t288 103t104 273v935h180v-947q0 -239 -153.5 -384.5t-418.5 -145.5z" />
    <glyph glyph-name="Ucircumflex" unicode="&#xdb;" horiz-adv-x="1510" 
d="M421 1587l231 324h206l231 -324h-180l-146 214h-16l-146 -214h-180zM756 -34q-265 0 -419.5 145.5t-154.5 384.5v947h180v-935q0 -170 105 -273t289 -103t288 103t104 273v935h180v-947q0 -239 -153.5 -384.5t-418.5 -145.5z" />
    <glyph glyph-name="Udieresis" unicode="&#xdc;" horiz-adv-x="1510" 
d="M543 1647q-44 0 -76 32t-32 77q0 44 32 76t76 32t76 -32t32 -76q0 -45 -32 -77t-76 -32zM967 1647q-44 0 -76 32t-32 77q0 44 32 76t76 32t76 -32t32 -76q0 -45 -32 -77t-76 -32zM756 -34q-265 0 -419.5 145.5t-154.5 384.5v947h180v-935q0 -170 105 -273t289 -103
t288 103t104 273v935h180v-947q0 -239 -153.5 -384.5t-418.5 -145.5z" />
    <glyph glyph-name="Yacute" unicode="&#xdd;" horiz-adv-x="1342" 
d="M737 1587h-148l168 324h201zM581 0v621l-512 822h205l389 -641h16l389 641h205l-512 -822v-621h-180z" />
    <glyph glyph-name="Thorn" unicode="&#xde;" horiz-adv-x="1280" 
d="M184 0v1443h180v-266h373q83 0 159 -28t134.5 -79.5t93.5 -131t35 -175.5v-2q0 -96 -35 -175.5t-94.5 -131.5t-135.5 -80.5t-159 -28.5h-371v-345h-180zM686 1017h-322v-512h322q130 0 209.5 66t79.5 190v2q0 124 -79.5 189t-209.5 65z" />
    <glyph glyph-name="germandbls" unicode="&#xdf;" horiz-adv-x="1274" 
d="M712 -20q-82 0 -145 15v155q62 -16 133 -16q138 0 213 76.5t75 201.5v2q0 128 -87.5 208t-245.5 80h-61v144h51q111 0 175 74t64 203v2q0 107 -63.5 178t-173.5 71q-117 0 -184 -73t-67 -204v-1097h-171v1114q0 190 115.5 301t303.5 111q183 0 299 -109.5t116 -282.5v-2
q0 -120 -63 -211.5t-156 -122.5v-18q148 -15 237 -111t89 -257v-2q0 -184 -126 -307t-328 -123z" />
    <glyph glyph-name="agrave" unicode="&#xe0;" horiz-adv-x="1130" 
d="M498 1228l-231 340h206l177 -340h-152zM458 -19q-157 0 -258.5 87.5t-101.5 232.5v2q0 143 102 225t291 93l309 19v98q0 100 -61 152.5t-181 52.5q-96 0 -158.5 -34.5t-83.5 -97.5l-1 -3h-174l1 6q21 128 136 205.5t286 77.5q196 0 303 -95t107 -264v-738h-174v159h-16
q-105 -178 -326 -178zM276 305q0 -80 61 -126.5t157 -46.5q132 0 219 77t87 193v98l-288 -18q-122 -7 -179 -50.5t-57 -124.5v-2z" />
    <glyph glyph-name="aacute" unicode="&#xe1;" horiz-adv-x="1130" 
d="M630 1228h-152l177 340h206zM458 -19q-157 0 -258.5 87.5t-101.5 232.5v2q0 143 102 225t291 93l309 19v98q0 100 -61 152.5t-181 52.5q-96 0 -158.5 -34.5t-83.5 -97.5l-1 -3h-174l1 6q21 128 136 205.5t286 77.5q196 0 303 -95t107 -264v-738h-174v159h-16
q-105 -178 -326 -178zM276 305q0 -80 61 -126.5t157 -46.5q132 0 219 77t87 193v98l-288 -18q-122 -7 -179 -50.5t-57 -124.5v-2z" />
    <glyph glyph-name="acircumflex" unicode="&#xe2;" horiz-adv-x="1130" 
d="M217 1228l242 340h210l242 -340h-184l-155 227h-16l-155 -227h-184zM458 -19q-157 0 -258.5 87.5t-101.5 232.5v2q0 143 102 225t291 93l309 19v98q0 100 -61 152.5t-181 52.5q-96 0 -158.5 -34.5t-83.5 -97.5l-1 -3h-174l1 6q21 128 136 205.5t286 77.5q196 0 303 -95
t107 -264v-738h-174v159h-16q-105 -178 -326 -178zM276 305q0 -80 61 -126.5t157 -46.5q132 0 219 77t87 193v98l-288 -18q-122 -7 -179 -50.5t-57 -124.5v-2z" />
    <glyph glyph-name="atilde" unicode="&#xe3;" horiz-adv-x="1130" 
d="M712 1235q-54 0 -96 23.5t-88 69.5l-11 11q-48 48 -85 48q-76 0 -76 -152v-4h-140v11q0 130 52.5 203.5t147.5 73.5q54 0 96 -23.5t88 -69.5l11 -11q48 -48 85 -48q76 0 76 152v4h140v-11q0 -130 -52.5 -203.5t-147.5 -73.5zM458 -19q-157 0 -258.5 87.5t-101.5 232.5v2
q0 143 102 225t291 93l309 19v98q0 100 -61 152.5t-181 52.5q-96 0 -158.5 -34.5t-83.5 -97.5l-1 -3h-174l1 6q21 128 136 205.5t286 77.5q196 0 303 -95t107 -264v-738h-174v159h-16q-105 -178 -326 -178zM276 305q0 -80 61 -126.5t157 -46.5q132 0 219 77t87 193v98
l-288 -18q-122 -7 -179 -50.5t-57 -124.5v-2z" />
    <glyph glyph-name="adieresis" unicode="&#xe4;" horiz-adv-x="1130" 
d="M343 1294q-46 0 -78.5 32.5t-32.5 78.5q0 45 32.5 77.5t78.5 32.5q45 0 77.5 -32.5t32.5 -77.5q0 -46 -32.5 -78.5t-77.5 -32.5zM784 1294q-45 0 -77.5 32.5t-32.5 78.5q0 45 32.5 77.5t77.5 32.5q46 0 78.5 -32.5t32.5 -77.5q0 -46 -32.5 -78.5t-78.5 -32.5zM458 -19
q-157 0 -258.5 87.5t-101.5 232.5v2q0 143 102 225t291 93l309 19v98q0 100 -61 152.5t-181 52.5q-96 0 -158.5 -34.5t-83.5 -97.5l-1 -3h-174l1 6q21 128 136 205.5t286 77.5q196 0 303 -95t107 -264v-738h-174v159h-16q-105 -178 -326 -178zM276 305q0 -80 61 -126.5
t157 -46.5q132 0 219 77t87 193v98l-288 -18q-122 -7 -179 -50.5t-57 -124.5v-2z" />
    <glyph glyph-name="aring" unicode="&#xe5;" horiz-adv-x="1130" 
d="M564 1232q-96 0 -163 65.5t-67 158.5v1q0 93 67 158t163 65t163 -65t67 -158v-1q0 -93 -67 -158.5t-163 -65.5zM564 1333q52 0 88.5 36t36.5 87v1q0 51 -36.5 86.5t-88.5 35.5t-88.5 -35.5t-36.5 -86.5v-1q0 -51 36.5 -87t88.5 -36zM458 -19q-157 0 -258.5 87.5
t-101.5 232.5v2q0 143 102 225t291 93l309 19v98q0 100 -61 152.5t-181 52.5q-96 0 -158.5 -34.5t-83.5 -97.5l-1 -3h-174l1 6q21 128 136 205.5t286 77.5q196 0 303 -95t107 -264v-738h-174v159h-16q-105 -178 -326 -178zM276 305q0 -80 61 -126.5t157 -46.5q132 0 219 77
t87 193v98l-288 -18q-122 -7 -179 -50.5t-57 -124.5v-2z" />
    <glyph glyph-name="ae" unicode="&#xe6;" horiz-adv-x="1849" 
d="M479 -20q-171 0 -276 87t-105 234v2q0 143 102 225t291 93l311 19v47q0 124 -62 190.5t-182 66.5q-97 0 -161 -35t-82 -99v-2h-174v2q17 130 133.5 209t289.5 79q124 0 214.5 -51t133.5 -135h16q48 82 145.5 134t211.5 52q214 0 335 -140.5t121 -389.5v-68h-768v-18
q7 -161 95 -254.5t236 -93.5q86 0 152 37t99 108h172q-37 -138 -153 -218.5t-274 -80.5q-138 0 -247 64.5t-152 167.5h-16q-53 -110 -158 -171t-248 -61zM973 639h588q-3 139 -81 222t-205 83q-128 0 -210 -83t-92 -222zM504 131q128 0 213 81t85 198v91l-290 -19
q-121 -8 -178.5 -51t-57.5 -124v-2q0 -81 62.5 -127.5t165.5 -46.5z" />
    <glyph glyph-name="ccedilla" unicode="&#xe7;" horiz-adv-x="1146" 
d="M575 -494q-83 0 -161 18v116q58 -13 129 -13q53 0 90.5 18.5t37.5 58.5v2q0 47 -38 64.5t-123 17.5h-37v90l71 106q-201 20 -318.5 169.5t-117.5 388.5v2q0 252 134 402.5t360 150.5q189 0 307.5 -96t143.5 -247l1 -6h-173l-1 3q-21 84 -94 138t-184 54
q-145 0 -230.5 -108t-85.5 -291v-2q0 -186 86 -296.5t230 -110.5q216 0 277 184l2 6l172 1l-2 -11q-30 -135 -122 -222t-242 -107l-64 -90q97 0 156 -50t59 -134v-2q0 -71 -38.5 -118t-95.5 -66.5t-129 -19.5z" />
    <glyph glyph-name="egrave" unicode="&#xe8;" horiz-adv-x="1170" 
d="M528 1228l-231 340h206l177 -340h-152zM602 -19q-230 0 -362 149.5t-132 404.5v1q0 251 132 406t351 155q218 0 344.5 -148t126.5 -392v-68h-776q4 -166 89.5 -259.5t230.5 -93.5q102 0 171.5 39.5t93.5 94.5l4 9h174l-2 -8q-30 -119 -148 -204.5t-297 -85.5zM590 942
q-123 0 -205 -82t-96 -232h596q-13 155 -92 234.5t-203 79.5z" />
    <glyph glyph-name="eacute" unicode="&#xe9;" horiz-adv-x="1170" 
d="M660 1228h-152l177 340h206zM602 -19q-230 0 -362 149.5t-132 404.5v1q0 251 132 406t351 155q218 0 344.5 -148t126.5 -392v-68h-776q4 -166 89.5 -259.5t230.5 -93.5q102 0 171.5 39.5t93.5 94.5l4 9h174l-2 -8q-30 -119 -148 -204.5t-297 -85.5zM590 942
q-123 0 -205 -82t-96 -232h596q-13 155 -92 234.5t-203 79.5z" />
    <glyph glyph-name="ecircumflex" unicode="&#xea;" horiz-adv-x="1170" 
d="M247 1228l242 340h210l242 -340h-184l-155 227h-16l-155 -227h-184zM602 -19q-230 0 -362 149.5t-132 404.5v1q0 251 132 406t351 155q218 0 344.5 -148t126.5 -392v-68h-776q4 -166 89.5 -259.5t230.5 -93.5q102 0 171.5 39.5t93.5 94.5l4 9h174l-2 -8
q-30 -119 -148 -204.5t-297 -85.5zM590 942q-123 0 -205 -82t-96 -232h596q-13 155 -92 234.5t-203 79.5z" />
    <glyph glyph-name="edieresis" unicode="&#xeb;" horiz-adv-x="1170" 
d="M373 1294q-46 0 -78.5 32.5t-32.5 78.5q0 45 32.5 77.5t78.5 32.5q45 0 77.5 -32.5t32.5 -77.5q0 -46 -32.5 -78.5t-77.5 -32.5zM814 1294q-45 0 -77.5 32.5t-32.5 78.5q0 45 32.5 77.5t77.5 32.5q46 0 78.5 -32.5t32.5 -77.5q0 -46 -32.5 -78.5t-78.5 -32.5zM602 -19
q-230 0 -362 149.5t-132 404.5v1q0 251 132 406t351 155q218 0 344.5 -148t126.5 -392v-68h-776q4 -166 89.5 -259.5t230.5 -93.5q102 0 171.5 39.5t93.5 94.5l4 9h174l-2 -8q-30 -119 -148 -204.5t-297 -85.5zM590 942q-123 0 -205 -82t-96 -232h596q-13 155 -92 234.5
t-203 79.5z" />
    <glyph glyph-name="igrave" unicode="&#xec;" horiz-adv-x="506" 
d="M188 1228l-231 340h206l177 -340h-152zM166 0v1078h174v-1078h-174z" />
    <glyph glyph-name="iacute" unicode="&#xed;" horiz-adv-x="506" 
d="M320 1228h-152l177 340h206zM166 0v1078h174v-1078h-174z" />
    <glyph glyph-name="icircumflex" unicode="&#xee;" horiz-adv-x="506" 
d="M-93 1228l242 340h210l242 -340h-184l-155 227h-16l-155 -227h-184zM166 0v1078h174v-1078h-174z" />
    <glyph glyph-name="idieresis" unicode="&#xef;" horiz-adv-x="506" 
d="M33 1294q-46 0 -78.5 32.5t-32.5 78.5q0 45 32.5 77.5t78.5 32.5q45 0 77.5 -32.5t32.5 -77.5q0 -46 -32.5 -78.5t-77.5 -32.5zM474 1294q-45 0 -77.5 32.5t-32.5 78.5q0 45 32.5 77.5t77.5 32.5q46 0 78.5 -32.5t32.5 -77.5q0 -46 -32.5 -78.5t-78.5 -32.5zM166 0v1078
h174v-1078h-174z" />
    <glyph glyph-name="eth" unicode="&#xf0;" horiz-adv-x="1192" 
d="M601 -20q-227 0 -360 142t-133 386v2q0 241 125 388.5t328 147.5q96 0 183.5 -50.5t124.5 -127.5h15l-8 19q-51 121 -121 210.5t-176 164.5l-260 -162l-65 86l224 140q-93 53 -224 110l52 99q162 -59 291 -135l216 135l67 -86l-184 -115q388 -284 388 -772v-2
q0 -268 -130 -424t-353 -156zM601 134q139 0 222 101.5t83 272.5v2q0 179 -82 283.5t-223 104.5q-144 0 -229.5 -105.5t-85.5 -282.5v-2q0 -171 85.5 -272.5t229.5 -101.5z" />
    <glyph glyph-name="ntilde" unicode="&#xf1;" horiz-adv-x="1195" 
d="M751 1235q-54 0 -96 23.5t-88 69.5l-11 11q-48 48 -85 48q-76 0 -76 -152v-4h-140v11q0 130 52.5 203.5t147.5 73.5q54 0 96 -23.5t88 -69.5l11 -11q48 -48 85 -48q76 0 76 152v4h140v-11q0 -130 -52.5 -203.5t-147.5 -73.5zM162 0v1078h174v-162h16q86 181 314 181
q181 0 279 -103.5t98 -295.5v-698h-174v656q0 146 -61.5 216.5t-190.5 70.5t-205 -82t-76 -223v-638h-174z" />
    <glyph glyph-name="ograve" unicode="&#xf2;" horiz-adv-x="1210" 
d="M539 1228l-231 340h206l177 -340h-152zM605 -19q-230 0 -363.5 149t-133.5 408v2q0 259 133 408t364 149t364 -149t133 -408v-2q0 -259 -133.5 -408t-363.5 -149zM605 135q152 0 235.5 106t83.5 297v2q0 192 -83 297.5t-236 105.5t-236 -105.5t-83 -297.5v-2
q0 -191 83.5 -297t235.5 -106z" />
    <glyph glyph-name="oacute" unicode="&#xf3;" horiz-adv-x="1210" 
d="M671 1228h-152l177 340h206zM605 -19q-230 0 -363.5 149t-133.5 408v2q0 259 133 408t364 149t364 -149t133 -408v-2q0 -259 -133.5 -408t-363.5 -149zM605 135q152 0 235.5 106t83.5 297v2q0 192 -83 297.5t-236 105.5t-236 -105.5t-83 -297.5v-2q0 -191 83.5 -297
t235.5 -106z" />
    <glyph glyph-name="ocircumflex" unicode="&#xf4;" horiz-adv-x="1210" 
d="M258 1228l242 340h210l242 -340h-184l-155 227h-16l-155 -227h-184zM605 -19q-230 0 -363.5 149t-133.5 408v2q0 259 133 408t364 149t364 -149t133 -408v-2q0 -259 -133.5 -408t-363.5 -149zM605 135q152 0 235.5 106t83.5 297v2q0 192 -83 297.5t-236 105.5
t-236 -105.5t-83 -297.5v-2q0 -191 83.5 -297t235.5 -106z" />
    <glyph glyph-name="otilde" unicode="&#xf5;" horiz-adv-x="1210" 
d="M753 1235q-54 0 -96 23.5t-88 69.5l-11 11q-48 48 -85 48q-76 0 -76 -152v-4h-140v11q0 130 52.5 203.5t147.5 73.5q54 0 96 -23.5t88 -69.5l11 -11q48 -48 85 -48q76 0 76 152v4h140v-11q0 -130 -52.5 -203.5t-147.5 -73.5zM605 -19q-230 0 -363.5 149t-133.5 408v2
q0 259 133 408t364 149t364 -149t133 -408v-2q0 -259 -133.5 -408t-363.5 -149zM605 135q152 0 235.5 106t83.5 297v2q0 192 -83 297.5t-236 105.5t-236 -105.5t-83 -297.5v-2q0 -191 83.5 -297t235.5 -106z" />
    <glyph glyph-name="odieresis" unicode="&#xf6;" horiz-adv-x="1210" 
d="M384 1294q-46 0 -78.5 32.5t-32.5 78.5q0 45 32.5 77.5t78.5 32.5q45 0 77.5 -32.5t32.5 -77.5q0 -46 -32.5 -78.5t-77.5 -32.5zM825 1294q-45 0 -77.5 32.5t-32.5 78.5q0 45 32.5 77.5t77.5 32.5q46 0 78.5 -32.5t32.5 -77.5q0 -46 -32.5 -78.5t-78.5 -32.5zM605 -19
q-230 0 -363.5 149t-133.5 408v2q0 259 133 408t364 149t364 -149t133 -408v-2q0 -259 -133.5 -408t-363.5 -149zM605 135q152 0 235.5 106t83.5 297v2q0 192 -83 297.5t-236 105.5t-236 -105.5t-83 -297.5v-2q0 -191 83.5 -297t235.5 -106z" />
    <glyph glyph-name="divide" unicode="&#xf7;" horiz-adv-x="1290" 
d="M646 854q-48 0 -82.5 34.5t-34.5 82.5q0 49 34.5 83t82.5 34q49 0 83 -34t34 -83q0 -48 -34 -82.5t-83 -34.5zM97 500v162h1097v-162h-1097zM645 74q-48 0 -82.5 34.5t-34.5 82.5q0 49 34.5 83t82.5 34q49 0 83 -34t34 -83q0 -48 -34 -82.5t-83 -34.5z" />
    <glyph glyph-name="ostroke" unicode="&#xf8;" horiz-adv-x="1210" 
d="M604 -19q-181 0 -306 97l-109 -130l-98 83l119 141q-100 142 -100 365v2q0 259 132.5 408t361.5 149q181 0 306 -96l110 130l98 -83l-120 -142q100 -143 100 -366v-2q0 -258 -132.5 -407t-361.5 -149zM281 537q0 -135 43 -230l482 570q-79 67 -202 67
q-154 0 -238.5 -106.5t-84.5 -298.5v-2zM604 132q155 0 239.5 106.5t84.5 298.5v2q0 136 -44 232l-482 -571q80 -68 202 -68z" />
    <glyph glyph-name="ugrave" unicode="&#xf9;" horiz-adv-x="1195" 
d="M526 1228l-231 340h206l177 -340h-152zM523 -19q-182 0 -276.5 103t-94.5 296v698h174v-656q0 -147 57.5 -217t184.5 -70q141 0 216 80.5t75 224.5v638h174v-1078h-174v161h-16q-83 -180 -320 -180z" />
    <glyph glyph-name="uacute" unicode="&#xfa;" horiz-adv-x="1195" 
d="M658 1228h-152l177 340h206zM523 -19q-182 0 -276.5 103t-94.5 296v698h174v-656q0 -147 57.5 -217t184.5 -70q141 0 216 80.5t75 224.5v638h174v-1078h-174v161h-16q-83 -180 -320 -180z" />
    <glyph glyph-name="ucircumflex" unicode="&#xfb;" horiz-adv-x="1195" 
d="M245 1228l242 340h210l242 -340h-184l-155 227h-16l-155 -227h-184zM523 -19q-182 0 -276.5 103t-94.5 296v698h174v-656q0 -147 57.5 -217t184.5 -70q141 0 216 80.5t75 224.5v638h174v-1078h-174v161h-16q-83 -180 -320 -180z" />
    <glyph glyph-name="udieresis" unicode="&#xfc;" horiz-adv-x="1195" 
d="M371 1294q-46 0 -78.5 32.5t-32.5 78.5q0 45 32.5 77.5t78.5 32.5q45 0 77.5 -32.5t32.5 -77.5q0 -46 -32.5 -78.5t-77.5 -32.5zM812 1294q-45 0 -77.5 32.5t-32.5 78.5q0 45 32.5 77.5t77.5 32.5q46 0 78.5 -32.5t32.5 -77.5q0 -46 -32.5 -78.5t-78.5 -32.5zM523 -19
q-182 0 -276.5 103t-94.5 296v698h174v-656q0 -147 57.5 -217t184.5 -70q141 0 216 80.5t75 224.5v638h174v-1078h-174v161h-16q-83 -180 -320 -180z" />
    <glyph glyph-name="yacute" unicode="&#xfd;" horiz-adv-x="1112" 
d="M617 1228h-152l177 340h206zM254 -378q-41 0 -77 6v143q26 -5 72 -5q76 0 122.5 39t75.5 130l20 64l-399 1079h186l296 -887h16l295 887h183l-421 -1144q-66 -180 -145 -246t-224 -66z" />
    <glyph glyph-name="thorn" unicode="&#xfe;" horiz-adv-x="1250" 
d="M162 -360v1866h174v-600h16q50 91 137 141t199 50q205 0 328.5 -152.5t123.5 -404.5v-2q0 -253 -123 -405t-329 -152q-111 0 -201.5 51t-134.5 138h-16v-530h-174zM648 135q147 0 230.5 107t83.5 296v2q0 189 -83.5 296t-230.5 107t-231.5 -108t-84.5 -295v-2
q0 -187 84.5 -295t231.5 -108z" />
    <glyph glyph-name="ydieresis" unicode="&#xff;" horiz-adv-x="1112" 
d="M330 1294q-46 0 -78.5 32.5t-32.5 78.5q0 45 32.5 77.5t78.5 32.5q45 0 77.5 -32.5t32.5 -77.5q0 -46 -32.5 -78.5t-77.5 -32.5zM771 1294q-45 0 -77.5 32.5t-32.5 78.5q0 45 32.5 77.5t77.5 32.5q46 0 78.5 -32.5t32.5 -77.5q0 -46 -32.5 -78.5t-78.5 -32.5zM254 -378
q-41 0 -77 6v143q26 -5 72 -5q76 0 122.5 39t75.5 130l20 64l-399 1079h186l296 -887h16l295 887h183l-421 -1144q-66 -180 -145 -246t-224 -66z" />
    <glyph glyph-name="Amacron" unicode="&#x100;" horiz-adv-x="1380" 
d="M377 1688v133h626v-133h-626zM69 0l532 1443h178l532 -1443h-189l-145 413h-574l-145 -413h-189zM682 1210l-226 -644h468l-226 644h-16z" />
    <glyph glyph-name="amacron" unicode="&#x101;" horiz-adv-x="1130" 
d="M237 1336v136h654v-136h-654zM458 -19q-157 0 -258.5 87.5t-101.5 232.5v2q0 143 102 225t291 93l309 19v98q0 100 -61 152.5t-181 52.5q-96 0 -158.5 -34.5t-83.5 -97.5l-1 -3h-174l1 6q21 128 136 205.5t286 77.5q196 0 303 -95t107 -264v-738h-174v159h-16
q-105 -178 -326 -178zM276 305q0 -80 61 -126.5t157 -46.5q132 0 219 77t87 193v98l-288 -18q-122 -7 -179 -50.5t-57 -124.5v-2z" />
    <glyph glyph-name="Abreve" unicode="&#x102;" horiz-adv-x="1380" 
d="M689 1587q-158 0 -246 88.5t-88 233.5v2h143v-1q0 -89 48 -140t143 -51q96 0 144 51t48 140v1h143v-2q0 -145 -88 -233.5t-247 -88.5zM69 0l532 1443h178l532 -1443h-189l-145 413h-574l-145 -413h-189zM682 1210l-226 -644h468l-226 644h-16z" />
    <glyph glyph-name="abreve" unicode="&#x103;" horiz-adv-x="1130" 
d="M564 1228q-166 0 -257.5 92.5t-91.5 245.5v2h146v-1q0 -95 51 -149t152 -54t152 54t51 149v1h146v-2q0 -153 -91.5 -245.5t-257.5 -92.5zM458 -19q-157 0 -258.5 87.5t-101.5 232.5v2q0 143 102 225t291 93l309 19v98q0 100 -61 152.5t-181 52.5q-96 0 -158.5 -34.5
t-83.5 -97.5l-1 -3h-174l1 6q21 128 136 205.5t286 77.5q196 0 303 -95t107 -264v-738h-174v159h-16q-105 -178 -326 -178zM276 305q0 -80 61 -126.5t157 -46.5q132 0 219 77t87 193v98l-288 -18q-122 -7 -179 -50.5t-57 -124.5v-2z" />
    <glyph glyph-name="Aogonek" unicode="&#x104;" horiz-adv-x="1380" 
d="M69 0l532 1443h178l532 -1443q-172 -105 -172 -232v-2q0 -59 34 -95t85 -36q36 0 73 10v-120q-57 -19 -117 -19q-103 0 -175.5 57.5t-72.5 164.5v2q0 151 171 270h-15l-145 413h-574l-145 -413h-189zM682 1210l-226 -644h468l-226 644h-16z" />
    <glyph glyph-name="aogonek" unicode="&#x105;" horiz-adv-x="1130" 
d="M458 -19q-157 0 -258.5 87.5t-101.5 232.5v2q0 143 102 225t291 93l309 19v98q0 100 -61 152.5t-181 52.5q-96 0 -158.5 -34.5t-83.5 -97.5l-1 -3h-174l1 6q21 128 136 205.5t286 77.5q196 0 303 -95t107 -264v-738q-172 -105 -172 -232v-2q0 -59 34 -95t85 -36
q36 0 73 10v-120q-57 -19 -117 -19q-103 0 -175.5 57.5t-72.5 164.5v2q0 151 171 270v159h-16q-105 -178 -326 -178zM276 305q0 -80 61 -126.5t157 -46.5q132 0 219 77t87 193v98l-288 -18q-122 -7 -179 -50.5t-57 -124.5v-2z" />
    <glyph glyph-name="Cacute" unicode="&#x106;" horiz-adv-x="1466" 
d="M829 1587h-148l168 324h201zM765 -34q-294 0 -465.5 203t-171.5 551v2q0 349 171 552t465 203q228 0 390 -130t194 -338l-1 -2h-181l-1 2q-36 139 -144 220.5t-257 81.5q-208 0 -329.5 -159t-121.5 -430v-2q0 -271 122 -429.5t330 -158.5q151 0 258 72.5t141 196.5l2 2
h182v-2q-36 -198 -194.5 -316.5t-388.5 -118.5z" />
    <glyph glyph-name="cacute" unicode="&#x107;" horiz-adv-x="1146" 
d="M666 1228h-152l177 340h206zM603 -19q-226 0 -360.5 152t-134.5 409v2q0 252 134 402.5t360 150.5q189 0 307.5 -96t143.5 -247l1 -6h-173l-1 3q-21 84 -94 138t-184 54q-145 0 -230.5 -108t-85.5 -291v-2q0 -186 86 -296.5t230 -110.5q216 0 277 184l2 6l172 1l-2 -11
q-35 -153 -148 -243.5t-300 -90.5z" />
    <glyph glyph-name="Ccircumflex" unicode="&#x108;" horiz-adv-x="1466" 
d="M429 1587l231 324h206l231 -324h-180l-146 214h-16l-146 -214h-180zM765 -34q-294 0 -465.5 203t-171.5 551v2q0 349 171 552t465 203q228 0 390 -130t194 -338l-1 -2h-181l-1 2q-36 139 -144 220.5t-257 81.5q-208 0 -329.5 -159t-121.5 -430v-2q0 -271 122 -429.5
t330 -158.5q151 0 258 72.5t141 196.5l2 2h182v-2q-36 -198 -194.5 -316.5t-388.5 -118.5z" />
    <glyph glyph-name="ccircumflex" unicode="&#x109;" horiz-adv-x="1146" 
d="M253 1228l242 340h210l242 -340h-184l-155 227h-16l-155 -227h-184zM603 -19q-226 0 -360.5 152t-134.5 409v2q0 252 134 402.5t360 150.5q189 0 307.5 -96t143.5 -247l1 -6h-173l-1 3q-21 84 -94 138t-184 54q-145 0 -230.5 -108t-85.5 -291v-2q0 -186 86 -296.5
t230 -110.5q216 0 277 184l2 6l172 1l-2 -11q-35 -153 -148 -243.5t-300 -90.5z" />
    <glyph glyph-name="Cdotabove" unicode="&#x10a;" horiz-adv-x="1466" 
d="M763 1641q-47 0 -80.5 33.5t-33.5 80.5t33.5 80.5t80.5 33.5t80.5 -33.5t33.5 -80.5t-33.5 -80.5t-80.5 -33.5zM765 -34q-294 0 -465.5 203t-171.5 551v2q0 349 171 552t465 203q228 0 390 -130t194 -338l-1 -2h-181l-1 2q-36 139 -144 220.5t-257 81.5
q-208 0 -329.5 -159t-121.5 -430v-2q0 -271 122 -429.5t330 -158.5q151 0 258 72.5t141 196.5l2 2h182v-2q-36 -198 -194.5 -316.5t-388.5 -118.5z" />
    <glyph glyph-name="cdotabove" unicode="&#x10b;" horiz-adv-x="1146" 
d="M600 1286q-50 0 -85 35t-35 85t35 85t85 35t85 -35t35 -85t-35 -85t-85 -35zM603 -19q-226 0 -360.5 152t-134.5 409v2q0 252 134 402.5t360 150.5q189 0 307.5 -96t143.5 -247l1 -6h-173l-1 3q-21 84 -94 138t-184 54q-145 0 -230.5 -108t-85.5 -291v-2
q0 -186 86 -296.5t230 -110.5q216 0 277 184l2 6l172 1l-2 -11q-35 -153 -148 -243.5t-300 -90.5z" />
    <glyph glyph-name="Ccaron" unicode="&#x10c;" horiz-adv-x="1466" 
d="M1097 1911l-231 -324h-206l-231 324h180l146 -214h16l146 214h180zM765 -34q-294 0 -465.5 203t-171.5 551v2q0 349 171 552t465 203q228 0 390 -130t194 -338l-1 -2h-181l-1 2q-36 139 -144 220.5t-257 81.5q-208 0 -329.5 -159t-121.5 -430v-2q0 -271 122 -429.5
t330 -158.5q151 0 258 72.5t141 196.5l2 2h182v-2q-36 -198 -194.5 -316.5t-388.5 -118.5z" />
    <glyph glyph-name="ccaron" unicode="&#x10d;" horiz-adv-x="1146" 
d="M947 1568l-242 -340h-210l-242 340h184l155 -227h16l155 227h184zM603 -19q-226 0 -360.5 152t-134.5 409v2q0 252 134 402.5t360 150.5q189 0 307.5 -96t143.5 -247l1 -6h-173l-1 3q-21 84 -94 138t-184 54q-145 0 -230.5 -108t-85.5 -291v-2q0 -186 86 -296.5
t230 -110.5q216 0 277 184l2 6l172 1l-2 -11q-35 -153 -148 -243.5t-300 -90.5z" />
    <glyph glyph-name="Dcaron" unicode="&#x10e;" horiz-adv-x="1488" 
d="M1054 1911l-231 -324h-206l-231 324h180l146 -214h16l146 214h180zM184 0v1443h495q321 0 501 -190t180 -530v-2q0 -341 -179.5 -531t-501.5 -190h-495zM364 162h303q241 0 375 147t134 410v2q0 264 -134.5 412t-374.5 148h-303v-1119z" />
    <glyph glyph-name="dcaron" unicode="&#x10f;" horiz-adv-x="1438" 
d="M1186 1228l78 340h174l-139 -340h-113zM560 -19q-205 0 -328.5 152.5t-123.5 404.5v2q0 253 123 405t329 152q111 0 201.5 -51t134.5 -138h16v598h174v-1506h-174v172h-16q-50 -91 -137 -141t-199 -50zM600 135q147 0 231.5 108t84.5 295v2q0 187 -84.5 295t-231.5 108
t-230.5 -107t-83.5 -296v-2q0 -189 83.5 -296t230.5 -107z" />
    <glyph glyph-name="dstroke" unicode="&#x111;" horiz-adv-x="1315" 
d="M560 -19q-205 0 -328.5 152.5t-123.5 404.5v2q0 253 123 405t329 152q111 0 201.5 -51t134.5 -138h16v326h-300v132h300v140h174v-140h172v-132h-172v-1234h-174v172h-16q-50 -91 -137 -141t-199 -50zM600 135q147 0 231.5 108t84.5 295v2q0 187 -84.5 295t-231.5 108
t-230.5 -107t-83.5 -296v-2q0 -189 83.5 -296t230.5 -107z" />
    <glyph glyph-name="Emacron" unicode="&#x112;" horiz-adv-x="1220" 
d="M318 1688v133h626v-133h-626zM184 0v1443h894v-162h-714v-463h677v-160h-677v-496h714v-162h-894z" />
    <glyph glyph-name="emacron" unicode="&#x113;" horiz-adv-x="1170" 
d="M267 1336v136h654v-136h-654zM602 -19q-230 0 -362 149.5t-132 404.5v1q0 251 132 406t351 155q218 0 344.5 -148t126.5 -392v-68h-776q4 -166 89.5 -259.5t230.5 -93.5q102 0 171.5 39.5t93.5 94.5l4 9h174l-2 -8q-30 -119 -148 -204.5t-297 -85.5zM590 942
q-123 0 -205 -82t-96 -232h596q-13 155 -92 234.5t-203 79.5z" />
    <glyph glyph-name="Ebreve" unicode="&#x114;" horiz-adv-x="1220" 
d="M630 1587q-158 0 -246 88.5t-88 233.5v2h143v-1q0 -89 48 -140t143 -51q96 0 144 51t48 140v1h143v-2q0 -145 -88 -233.5t-247 -88.5zM184 0v1443h894v-162h-714v-463h677v-160h-677v-496h714v-162h-894z" />
    <glyph glyph-name="ebreve" unicode="&#x115;" horiz-adv-x="1170" 
d="M594 1228q-166 0 -257.5 92.5t-91.5 245.5v2h146v-1q0 -95 51 -149t152 -54t152 54t51 149v1h146v-2q0 -153 -91.5 -245.5t-257.5 -92.5zM602 -19q-230 0 -362 149.5t-132 404.5v1q0 251 132 406t351 155q218 0 344.5 -148t126.5 -392v-68h-776q4 -166 89.5 -259.5
t230.5 -93.5q102 0 171.5 39.5t93.5 94.5l4 9h174l-2 -8q-30 -119 -148 -204.5t-297 -85.5zM590 942q-123 0 -205 -82t-96 -232h596q-13 155 -92 234.5t-203 79.5z" />
    <glyph glyph-name="Edotabove" unicode="&#x116;" horiz-adv-x="1220" 
d="M631 1641q-47 0 -80.5 33.5t-33.5 80.5t33.5 80.5t80.5 33.5t80.5 -33.5t33.5 -80.5t-33.5 -80.5t-80.5 -33.5zM184 0v1443h894v-162h-714v-463h677v-160h-677v-496h714v-162h-894z" />
    <glyph glyph-name="edotabove" unicode="&#x117;" horiz-adv-x="1170" 
d="M594 1286q-50 0 -85 35t-35 85t35 85t85 35t85 -35t35 -85t-35 -85t-85 -35zM602 -19q-230 0 -362 149.5t-132 404.5v1q0 251 132 406t351 155q218 0 344.5 -148t126.5 -392v-68h-776q4 -166 89.5 -259.5t230.5 -93.5q102 0 171.5 39.5t93.5 94.5l4 9h174l-2 -8
q-30 -119 -148 -204.5t-297 -85.5zM590 942q-123 0 -205 -82t-96 -232h596q-13 155 -92 234.5t-203 79.5z" />
    <glyph glyph-name="Eogonek" unicode="&#x118;" horiz-adv-x="1220" 
d="M184 0v1443h894v-162h-714v-463h677v-160h-677v-496h714v-162q-172 -105 -172 -232v-2q0 -59 34 -95t85 -36q36 0 73 10v-120q-57 -19 -117 -19q-103 0 -175.5 57.5t-72.5 164.5v2q0 151 171 270h-720z" />
    <glyph glyph-name="eogonek" unicode="&#x119;" horiz-adv-x="1170" 
d="M594 -20q-224 0 -355 150t-131 407v2q0 255 132 407t354 152q218 0 343 -145.5t125 -397.5v-66h-775v-8q0 -159 86 -254t225 -95q209 0 278 147h172q-13 -48 -36.5 -91.5t-51 -75t-58 -62t-58 -60.5t-50 -62t-36 -74t-13.5 -90v-2q0 -59 32 -95t79 -36q45 0 81 10v-116
q-56 -19 -125 -19q-100 0 -170 57.5t-70 164.5v2q0 142 148 262q-60 -12 -126 -12zM592 946q-129 0 -212 -87t-93 -231h594q-3 144 -82 231t-207 87z" />
    <glyph glyph-name="Ecaron" unicode="&#x11a;" horiz-adv-x="1220" 
d="M965 1911l-231 -324h-206l-231 324h180l146 -214h16l146 214h180zM184 0v1443h894v-162h-714v-463h677v-160h-677v-496h714v-162h-894z" />
    <glyph glyph-name="ecaron" unicode="&#x11b;" horiz-adv-x="1170" 
d="M941 1568l-242 -340h-210l-242 340h184l155 -227h16l155 227h184zM602 -19q-230 0 -362 149.5t-132 404.5v1q0 251 132 406t351 155q218 0 344.5 -148t126.5 -392v-68h-776q4 -166 89.5 -259.5t230.5 -93.5q102 0 171.5 39.5t93.5 94.5l4 9h174l-2 -8
q-30 -119 -148 -204.5t-297 -85.5zM590 942q-123 0 -205 -82t-96 -232h596q-13 155 -92 234.5t-203 79.5z" />
    <glyph glyph-name="Gcircumflex" unicode="&#x11c;" horiz-adv-x="1529" 
d="M452 1587l231 324h206l231 -324h-180l-146 214h-16l-146 -214h-180zM782 -34q-299 0 -476.5 204.5t-177.5 550.5v2q0 341 179 547.5t475 206.5q238 0 398.5 -123t203.5 -331l2 -10h-182l-3 10q-44 140 -151 214t-268 74q-215 0 -342.5 -160t-127.5 -428v-2
q0 -272 126.5 -430.5t344.5 -158.5q193 0 312.5 113t119.5 296v35h-405v158h585v-176q0 -267 -168 -429.5t-445 -162.5z" />
    <glyph glyph-name="gcircumflex" unicode="&#x11d;" horiz-adv-x="1248" 
d="M267 1228l242 340h210l242 -340h-184l-155 227h-16l-155 -227h-184zM606 -380q-192 0 -312 79.5t-141 214.5l2 1h180l1 -1q15 -63 86 -101.5t184 -38.5q145 0 226.5 65.5t81.5 184.5v218h-16q-51 -89 -139 -137.5t-199 -48.5q-207 0 -329.5 144t-122.5 374v2
q0 230 124 375.5t332 145.5q112 0 199 -52t137 -145h12v178h174v-1063q0 -181 -130 -288t-350 -107zM598 210q148 0 234 100.5t86 263.5v2q0 163 -86.5 265t-233.5 102t-229.5 -101.5t-82.5 -265.5v-2q0 -164 82.5 -264t229.5 -100z" />
    <glyph glyph-name="Gbreve" unicode="&#x11e;" horiz-adv-x="1529" 
d="M785 1587q-158 0 -246 88.5t-88 233.5v2h143v-1q0 -89 48 -140t143 -51q96 0 144 51t48 140v1h143v-2q0 -145 -88 -233.5t-247 -88.5zM782 -34q-299 0 -476.5 204.5t-177.5 550.5v2q0 341 179 547.5t475 206.5q238 0 398.5 -123t203.5 -331l2 -10h-182l-3 10
q-44 140 -151 214t-268 74q-215 0 -342.5 -160t-127.5 -428v-2q0 -272 126.5 -430.5t344.5 -158.5q193 0 312.5 113t119.5 296v35h-405v158h585v-176q0 -267 -168 -429.5t-445 -162.5z" />
    <glyph glyph-name="gbreve" unicode="&#x11f;" horiz-adv-x="1248" 
d="M614 1228q-166 0 -257.5 92.5t-91.5 245.5v2h146v-1q0 -95 51 -149t152 -54t152 54t51 149v1h146v-2q0 -153 -91.5 -245.5t-257.5 -92.5zM606 -380q-192 0 -312 79.5t-141 214.5l2 1h180l1 -1q15 -63 86 -101.5t184 -38.5q145 0 226.5 65.5t81.5 184.5v218h-16
q-51 -89 -139 -137.5t-199 -48.5q-207 0 -329.5 144t-122.5 374v2q0 230 124 375.5t332 145.5q112 0 199 -52t137 -145h12v178h174v-1063q0 -181 -130 -288t-350 -107zM598 210q148 0 234 100.5t86 263.5v2q0 163 -86.5 265t-233.5 102t-229.5 -101.5t-82.5 -265.5v-2
q0 -164 82.5 -264t229.5 -100z" />
    <glyph glyph-name="Gdotabove" unicode="&#x120;" horiz-adv-x="1529" 
d="M786 1641q-47 0 -80.5 33.5t-33.5 80.5t33.5 80.5t80.5 33.5t80.5 -33.5t33.5 -80.5t-33.5 -80.5t-80.5 -33.5zM782 -34q-299 0 -476.5 204.5t-177.5 550.5v2q0 341 179 547.5t475 206.5q238 0 398.5 -123t203.5 -331l2 -10h-182l-3 10q-44 140 -151 214t-268 74
q-215 0 -342.5 -160t-127.5 -428v-2q0 -272 126.5 -430.5t344.5 -158.5q193 0 312.5 113t119.5 296v35h-405v158h585v-176q0 -267 -168 -429.5t-445 -162.5z" />
    <glyph glyph-name="gdotabove" unicode="&#x121;" horiz-adv-x="1248" 
d="M614 1286q-50 0 -85 35t-35 85t35 85t85 35t85 -35t35 -85t-35 -85t-85 -35zM606 -380q-192 0 -312 79.5t-141 214.5l2 1h180l1 -1q15 -63 86 -101.5t184 -38.5q145 0 226.5 65.5t81.5 184.5v218h-16q-51 -89 -139 -137.5t-199 -48.5q-207 0 -329.5 144t-122.5 374v2
q0 230 124 375.5t332 145.5q112 0 199 -52t137 -145h12v178h174v-1063q0 -181 -130 -288t-350 -107zM598 210q148 0 234 100.5t86 263.5v2q0 163 -86.5 265t-233.5 102t-229.5 -101.5t-82.5 -265.5v-2q0 -164 82.5 -264t229.5 -100z" />
    <glyph glyph-name="Gcommaaccent" unicode="&#x122;" horiz-adv-x="1529" 
d="M782 -34q-299 0 -476.5 204.5t-177.5 550.5v2q0 341 179 547.5t475 206.5q238 0 398.5 -123t203.5 -331l2 -10h-182l-3 10q-44 140 -151 214t-268 74q-215 0 -342.5 -160t-127.5 -428v-2q0 -272 126.5 -430.5t344.5 -158.5q193 0 312.5 113t119.5 296v35h-405v158h585
v-176q0 -267 -168 -429.5t-445 -162.5zM600 -494l87 344h186l-153 -344h-120z" />
    <glyph glyph-name="gcommaaccent" unicode="&#x123;" horiz-adv-x="1248" 
d="M800 1572l-87 -344h-186l153 344h120zM606 -380q-192 0 -312 79.5t-141 214.5l2 1h180l1 -1q15 -63 86 -101.5t184 -38.5q145 0 226.5 65.5t81.5 184.5v218h-16q-51 -89 -139 -137.5t-199 -48.5q-207 0 -329.5 144t-122.5 374v2q0 230 124 375.5t332 145.5q112 0 199 -52
t137 -145h12v178h174v-1063q0 -181 -130 -288t-350 -107zM598 210q148 0 234 100.5t86 263.5v2q0 163 -86.5 265t-233.5 102t-229.5 -101.5t-82.5 -265.5v-2q0 -164 82.5 -264t229.5 -100z" />
    <glyph glyph-name="Hcircumflex" unicode="&#x124;" horiz-adv-x="1520" 
d="M426 1587l231 324h206l231 -324h-180l-146 214h-16l-146 -214h-180zM184 0v1443h180v-624h792v624h180v-1443h-180v657h-792v-657h-180z" />
    <glyph glyph-name="hcircumflex" unicode="&#x125;" horiz-adv-x="1205" 
d="M-49 1650l214 300h190l214 -300h-166l-136 199h-14l-136 -199h-166zM172 0v1506h174v-590h16q86 181 314 181q181 0 279 -103.5t98 -295.5v-698h-174v656q0 146 -61.5 216.5t-190.5 70.5t-205 -82t-76 -223v-638h-174z" />
    <glyph glyph-name="Hstroke" unicode="&#x126;" horiz-adv-x="1641" 
d="M245 0v1065h-184v150h184v228h180v-228h792v228h180v-228h184v-150h-184v-1065h-180v657h-792v-657h-180zM425 819h792v246h-792v-246z" />
    <glyph glyph-name="hstroke" unicode="&#x127;" horiz-adv-x="1262" 
d="M229 0v1234h-172v132h172v140h174v-140h300v-132h-300v-318h16q86 181 314 181q181 0 279 -103.5t98 -295.5v-698h-174v656q0 146 -61.5 216.5t-190.5 70.5t-205 -82t-76 -223v-638h-174z" />
    <glyph glyph-name="Itilde" unicode="&#x128;" horiz-adv-x="548" 
d="M415 1593q-51 0 -91 22t-84 65l-11 11q-45 45 -81 45q-72 0 -72 -142v-4h-136v10q0 124 50.5 195t141.5 71q51 0 91 -22t84 -65l11 -11q45 -45 81 -45q72 0 72 142v4h136v-10q0 -124 -50.5 -195t-141.5 -71zM184 0v1443h180v-1443h-180z" />
    <glyph glyph-name="itilde" unicode="&#x129;" horiz-adv-x="506" 
d="M402 1235q-54 0 -96 23.5t-88 69.5l-11 11q-48 48 -85 48q-76 0 -76 -152v-4h-140v11q0 130 52.5 203.5t147.5 73.5q54 0 96 -23.5t88 -69.5l11 -11q48 -48 85 -48q76 0 76 152v4h140v-11q0 -130 -52.5 -203.5t-147.5 -73.5zM166 0v1078h174v-1078h-174z" />
    <glyph glyph-name="Imacron" unicode="&#x12a;" horiz-adv-x="548" 
d="M-39 1688v133h626v-133h-626zM184 0v1443h180v-1443h-180z" />
    <glyph glyph-name="imacron" unicode="&#x12b;" horiz-adv-x="506" 
d="M6 1336v136h496v-136h-496zM166 0v1078h174v-1078h-174z" />
    <glyph glyph-name="Ibreve" unicode="&#x12c;" horiz-adv-x="548" 
d="M273 1587q-158 0 -246 88.5t-88 233.5v2h143v-1q0 -89 48 -140t143 -51q96 0 144 51t48 140v1h143v-2q0 -145 -88 -233.5t-247 -88.5zM184 0v1443h180v-1443h-180z" />
    <glyph glyph-name="ibreve" unicode="&#x12d;" horiz-adv-x="506" 
d="M254 1228q-166 0 -257.5 92.5t-91.5 245.5v2h146v-1q0 -95 51 -149t152 -54t152 54t51 149v1h146v-2q0 -153 -91.5 -245.5t-257.5 -92.5zM166 0v1078h174v-1078h-174z" />
    <glyph glyph-name="Iogonek" unicode="&#x12e;" horiz-adv-x="548" 
d="M184 0v1443h180v-1443q-172 -105 -172 -232v-2q0 -59 34 -95t85 -36q36 0 73 10v-120q-57 -19 -117 -19q-103 0 -175.5 57.5t-72.5 164.5v2q0 151 171 270h-6z" />
    <glyph glyph-name="iogonek" unicode="&#x12f;" horiz-adv-x="506" 
d="M254 1286q-50 0 -85 35t-35 85t35 85t85 35t85 -35t35 -85t-35 -85t-85 -35zM243 -494q-103 0 -175.5 57.5t-72.5 164.5v2q0 151 171 270v1078h174v-1078q-172 -105 -172 -232v-2q0 -59 34 -95t85 -36q36 0 73 10v-120q-57 -19 -117 -19z" />
    <glyph glyph-name="Idotabove" unicode="&#x130;" horiz-adv-x="548" 
d="M274 1641q-47 0 -80.5 33.5t-33.5 80.5t33.5 80.5t80.5 33.5t80.5 -33.5t33.5 -80.5t-33.5 -80.5t-80.5 -33.5zM184 0v1443h180v-1443h-180z" />
    <glyph glyph-name="dotlessi" unicode="&#x131;" horiz-adv-x="506" 
d="M166 0v1078h174v-1078h-174z" />
    <glyph glyph-name="IJdigraph" unicode="&#x132;" horiz-adv-x="1650" 
d="M184 0v1443h180v-1443h-180zM1041 -34q-182 0 -288 100.5t-118 261.5l-1 14h180l1 -10q9 -88 66 -144t159 -56q120 0 183 69.5t63 201.5v1040h180v-1042q0 -205 -112.5 -320t-312.5 -115z" />
    <glyph glyph-name="ijdigraph" unicode="&#x133;" horiz-adv-x="1011" 
d="M254 1286q-50 0 -85 35t-35 85t35 85t85 35t85 -35t35 -85t-35 -85t-85 -35zM758 1286q-50 0 -85 35t-35 85t35 85t85 35t85 -35t35 -85t-35 -85t-85 -35zM166 0v1078h174v-1078h-174zM514 -370h-30v154h26q88 0 124.5 35.5t36.5 124.5v1134h174v-1131q0 -165 -80 -241
t-251 -76z" />
    <glyph glyph-name="Jcircumflex" unicode="&#x134;" horiz-adv-x="1102" 
d="M494 1587l231 324h206l231 -324h-180l-146 214h-16l-146 -214h-180zM493 -34q-182 0 -288 100.5t-118 261.5l-1 14h180l1 -10q9 -88 66 -144t159 -56q120 0 183 69.5t63 201.5v1040h180v-1042q0 -205 -112.5 -320t-312.5 -115z" />
    <glyph glyph-name="jcircumflex" unicode="&#x135;" horiz-adv-x="505" 
d="M-95 1228l242 340h210l242 -340h-184l-155 227h-16l-155 -227h-184zM8 -370h-30v154h26q88 0 124.5 35.5t36.5 124.5v1134h174v-1131q0 -165 -80 -241t-251 -76z" />
    <glyph glyph-name="Kcommaaccent" unicode="&#x136;" horiz-adv-x="1349" 
d="M184 0v1443h180v-701h16l632 701h226l-577 -623l630 -820h-233l-521 695l-173 -191v-504h-180zM467 -494l87 344h186l-153 -344h-120z" />
    <glyph glyph-name="kcommaaccent" unicode="&#x137;" horiz-adv-x="1112" 
d="M172 0v1506h174v-899h16l466 471h211l-470 -453l501 -625h-219l-404 507l-101 -98v-409h-174zM417 -494l87 344h186l-153 -344h-120z" />
    <glyph glyph-name="ka.cyrl" unicode="&#x43a;" horiz-adv-x="1113" 
d="M400 491h-55v-491h-174v1078h174v-451h55l417 451h209l-485 -508l504 -570h-223z" />
    <glyph glyph-name="ka.cyrl" unicode="&#x138;" horiz-adv-x="1113" 
d="M400 491h-55v-491h-174v1078h174v-451h55l417 451h209l-485 -508l504 -570h-223z" />
    <glyph glyph-name="Lacute" unicode="&#x139;" horiz-adv-x="1163" 
d="M340 1587h-148l168 324h201zM184 0v1443h180v-1281h696v-162h-876z" />
    <glyph glyph-name="lacute" unicode="&#x13a;" horiz-adv-x="518" 
d="M319 1639h-137l156 300h186zM172 0v1506h174v-1506h-174z" />
    <glyph glyph-name="Lcommaaccent" unicode="&#x13b;" horiz-adv-x="1163" 
d="M184 0v1443h180v-1281h696v-162h-876zM436 -494l87 344h186l-153 -344h-120z" />
    <glyph glyph-name="lcommaaccent" unicode="&#x13c;" horiz-adv-x="518" 
d="M172 0v1506h174v-1506h-174zM72 -494l87 344h186l-153 -344h-120z" />
    <glyph glyph-name="Lcaron" unicode="&#x13d;" horiz-adv-x="1163" 
d="M600 1030l71 413h182l-135 -413h-118zM184 0v1443h180v-1281h696v-162h-876z" />
    <glyph glyph-name="lcaron" unicode="&#x13e;" horiz-adv-x="698" 
d="M446 1228l78 340h174l-139 -340h-113zM172 0v1506h174v-1506h-174z" />
    <glyph glyph-name="Ldot.CAT" unicode="&#x13f;" horiz-adv-x="1163" 
d="M184 0v1443h180v-1281h696v-162h-876zM985 739v-2q0 -54 -37.5 -91.5t-91.5 -37.5h-2q-54 0 -91.5 37.5t-37.5 91.5v2q0 54 37.5 91.5t91.5 37.5h2q54 0 91.5 -37.5t37.5 -91.5z" />
    <glyph glyph-name="ldot.CAT" unicode="&#x140;" horiz-adv-x="752" 
d="M172 0v1506h174v-1506h-174zM752 702v-2q0 -49 -33.5 -82.5t-82.5 -33.5h-2q-49 0 -82.5 33.5t-33.5 82.5v2q0 49 33.5 82.5t82.5 33.5h2q49 0 82.5 -33.5t33.5 -82.5z" />
    <glyph glyph-name="Lstroke" unicode="&#x141;" horiz-adv-x="1156" 
d="M177 0v564l-116 -58v161l116 58v718h180v-628l406 203v-161l-406 -203v-492h696v-162h-876z" />
    <glyph glyph-name="lstroke" unicode="&#x142;" horiz-adv-x="653" 
d="M241 0v678l-184 -92v151l184 92v677h174v-590l181 90v-151l-181 -90v-765h-174z" />
    <glyph glyph-name="Nacute" unicode="&#x143;" horiz-adv-x="1520" 
d="M826 1587h-148l168 324h201zM184 0v1443h175l783 -1123h16v1123h178v-1443h-175l-783 1119h-16v-1119h-178z" />
    <glyph glyph-name="nacute" unicode="&#x144;" horiz-adv-x="1195" 
d="M669 1228h-152l177 340h206zM162 0v1078h174v-162h16q86 181 314 181q181 0 279 -103.5t98 -295.5v-698h-174v656q0 146 -61.5 216.5t-190.5 70.5t-205 -82t-76 -223v-638h-174z" />
    <glyph glyph-name="Ncommaaccent" unicode="&#x145;" horiz-adv-x="1520" 
d="M184 0v1443h175l783 -1123h16v1123h178v-1443h-175l-783 1119h-16v-1119h-178zM574 -494l87 344h186l-153 -344h-120z" />
    <glyph glyph-name="ncommaaccent" unicode="&#x146;" horiz-adv-x="1195" 
d="M162 0v1078h174v-162h16q86 181 314 181q181 0 279 -103.5t98 -295.5v-698h-174v656q0 146 -61.5 216.5t-190.5 70.5t-205 -82t-76 -223v-638h-174zM417 -494l87 344h186l-153 -344h-120z" />
    <glyph glyph-name="Ncaron" unicode="&#x147;" horiz-adv-x="1520" 
d="M1094 1911l-231 -324h-206l-231 324h180l146 -214h16l146 214h180zM184 0v1443h175l783 -1123h16v1123h178v-1443h-175l-783 1119h-16v-1119h-178z" />
    <glyph glyph-name="ncaron" unicode="&#x148;" horiz-adv-x="1195" 
d="M950 1568l-242 -340h-210l-242 340h184l155 -227h16l155 227h184zM162 0v1078h174v-162h16q86 181 314 181q181 0 279 -103.5t98 -295.5v-698h-174v656q0 146 -61.5 216.5t-190.5 70.5t-205 -82t-76 -223v-638h-174z" />
    <glyph glyph-name="Eng" unicode="&#x14a;" horiz-adv-x="1520" 
d="M362 0h-178v1443h175l783 -1123h16v1123h178v-1515q0 -153 -72 -226t-219 -73q-46 0 -76 5v141q26 -2 49 -2q138 0 138 149v83l-778 1114h-16v-1119z" />
    <glyph glyph-name="eng" unicode="&#x14b;" horiz-adv-x="1195" 
d="M162 0v1078h174v-162h16q86 181 314 181q181 0 279 -103.5t98 -295.5v-770q0 -153 -72 -226t-221 -73q-46 0 -76 5v141q26 -2 51 -2q144 0 144 149v734q0 146 -61.5 216.5t-190.5 70.5t-205 -82t-76 -223v-638h-174z" />
    <glyph glyph-name="Omacron" unicode="&#x14c;" horiz-adv-x="1580" 
d="M477 1688v133h626v-133h-626zM790 -34q-309 0 -485.5 203.5t-176.5 551.5v2q0 348 178 551t484 203q307 0 484.5 -203.5t177.5 -550.5v-2q0 -347 -177.5 -551t-484.5 -204zM790 132q221 0 349.5 160t128.5 429v2q0 271 -128.5 429.5t-349.5 158.5q-220 0 -349 -159
t-129 -429v-2q0 -270 127.5 -429.5t350.5 -159.5z" />
    <glyph glyph-name="omacron" unicode="&#x14d;" horiz-adv-x="1210" 
d="M278 1336v136h654v-136h-654zM605 -19q-230 0 -363.5 149t-133.5 408v2q0 259 133 408t364 149t364 -149t133 -408v-2q0 -259 -133.5 -408t-363.5 -149zM605 135q152 0 235.5 106t83.5 297v2q0 192 -83 297.5t-236 105.5t-236 -105.5t-83 -297.5v-2q0 -191 83.5 -297
t235.5 -106z" />
    <glyph glyph-name="Obreve" unicode="&#x14e;" horiz-adv-x="1580" 
d="M789 1587q-158 0 -246 88.5t-88 233.5v2h143v-1q0 -89 48 -140t143 -51q96 0 144 51t48 140v1h143v-2q0 -145 -88 -233.5t-247 -88.5zM790 -34q-309 0 -485.5 203.5t-176.5 551.5v2q0 348 178 551t484 203q307 0 484.5 -203.5t177.5 -550.5v-2q0 -347 -177.5 -551
t-484.5 -204zM790 132q221 0 349.5 160t128.5 429v2q0 271 -128.5 429.5t-349.5 158.5q-220 0 -349 -159t-129 -429v-2q0 -270 127.5 -429.5t350.5 -159.5z" />
    <glyph glyph-name="obreve" unicode="&#x14f;" horiz-adv-x="1210" 
d="M605 1228q-166 0 -257.5 92.5t-91.5 245.5v2h146v-1q0 -95 51 -149t152 -54t152 54t51 149v1h146v-2q0 -153 -91.5 -245.5t-257.5 -92.5zM605 -19q-230 0 -363.5 149t-133.5 408v2q0 259 133 408t364 149t364 -149t133 -408v-2q0 -259 -133.5 -408t-363.5 -149zM605 135
q152 0 235.5 106t83.5 297v2q0 192 -83 297.5t-236 105.5t-236 -105.5t-83 -297.5v-2q0 -191 83.5 -297t235.5 -106z" />
    <glyph glyph-name="Odblacute" unicode="&#x150;" horiz-adv-x="1580" 
d="M670 1587h-148l145 324h201zM1035 1587h-148l168 324h201zM790 -34q-309 0 -485.5 203.5t-176.5 551.5v2q0 348 178 551t484 203q307 0 484.5 -203.5t177.5 -550.5v-2q0 -347 -177.5 -551t-484.5 -204zM790 132q221 0 349.5 160t128.5 429v2q0 271 -128.5 429.5
t-349.5 158.5q-220 0 -349 -159t-129 -429v-2q0 -270 127.5 -429.5t350.5 -159.5z" />
    <glyph glyph-name="odblacute" unicode="&#x151;" horiz-adv-x="1210" 
d="M475 1228h-152l153 340h206zM856 1228h-152l177 340h206zM605 -19q-230 0 -363.5 149t-133.5 408v2q0 259 133 408t364 149t364 -149t133 -408v-2q0 -259 -133.5 -408t-363.5 -149zM605 135q152 0 235.5 106t83.5 297v2q0 192 -83 297.5t-236 105.5t-236 -105.5
t-83 -297.5v-2q0 -191 83.5 -297t235.5 -106z" />
    <glyph glyph-name="OE" unicode="&#x152;" horiz-adv-x="2325" 
d="M781 -34q-301 0 -477 203.5t-176 551.5v2q0 346 176.5 550t476.5 204q152 0 288.5 -75t203.5 -196h16v237h894v-162h-732v-463h695v-160h-695v-496h732v-162h-894v247h-16q-66 -126 -201.5 -203.5t-290.5 -77.5zM801 132q217 0 342 158t125 431v2q0 273 -125 430.5
t-342 157.5q-226 0 -357.5 -158t-131.5 -430v-2q0 -273 131 -431t358 -158z" />
    <glyph glyph-name="oe" unicode="&#x153;" horiz-adv-x="1987" 
d="M605 -20q-231 0 -364 149.5t-133 408.5v2q0 259 133 408.5t364 149.5q135 0 241 -61.5t160 -171.5h16q54 110 157 171.5t232 61.5q218 0 343 -144.5t125 -397.5v-64h-775l1 -19q8 -156 93 -247.5t228 -91.5q199 0 267 145h172q-38 -139 -156.5 -219t-287.5 -80
q-141 0 -245 60t-155 169h-16q-42 -103 -151.5 -166t-248.5 -63zM605 134q152 0 235.5 106t83.5 298v2q0 193 -83.5 298.5t-235.5 105.5t-235.5 -105.5t-83.5 -298.5v-2q0 -192 83.5 -298t235.5 -106zM1104 628h594q-3 144 -82 230t-207 86q-129 0 -212 -86t-93 -230z" />
    <glyph glyph-name="Racute" unicode="&#x154;" horiz-adv-x="1338" 
d="M706 1587h-148l168 324h201zM184 0v1443h551q208 0 334 -117.5t126 -311.5v-2q0 -150 -77 -260t-213 -153l334 -599h-211l-309 571h-355v-571h-180zM364 731h355q139 0 214.5 71.5t75.5 203.5v2q0 129 -79 202t-219 73h-347v-552z" />
    <glyph glyph-name="racute" unicode="&#x155;" horiz-adv-x="780" 
d="M444 1228h-152l177 340h206zM162 0v1078h174v-160h16q31 86 105 132.5t183 46.5q47 0 87 -7v-169q-60 10 -107 10q-125 0 -204.5 -72.5t-79.5 -190.5v-668h-174z" />
    <glyph glyph-name="Rcommaaccent" unicode="&#x156;" horiz-adv-x="1338" 
d="M184 0v1443h551q208 0 334 -117.5t126 -311.5v-2q0 -150 -77 -260t-213 -153l334 -599h-211l-309 571h-355v-571h-180zM364 731h355q139 0 214.5 71.5t75.5 203.5v2q0 129 -79 202t-219 73h-347v-552zM494 -494l87 344h186l-153 -344h-120z" />
    <glyph glyph-name="rcommaaccent" unicode="&#x157;" horiz-adv-x="780" 
d="M162 0v1078h174v-160h16q31 86 105 132.5t183 46.5q47 0 87 -7v-169q-60 10 -107 10q-125 0 -204.5 -72.5t-79.5 -190.5v-668h-174zM62 -494l87 344h186l-153 -344h-120z" />
    <glyph glyph-name="Rcaron" unicode="&#x158;" horiz-adv-x="1338" 
d="M974 1911l-231 -324h-206l-231 324h180l146 -214h16l146 214h180zM184 0v1443h551q208 0 334 -117.5t126 -311.5v-2q0 -150 -77 -260t-213 -153l334 -599h-211l-309 571h-355v-571h-180zM364 731h355q139 0 214.5 71.5t75.5 203.5v2q0 129 -79 202t-219 73h-347v-552z
" />
    <glyph glyph-name="rcaron" unicode="&#x159;" horiz-adv-x="780" 
d="M725 1568l-242 -340h-210l-242 340h184l155 -227h16l155 227h184zM162 0v1078h174v-160h16q31 86 105 132.5t183 46.5q47 0 87 -7v-169q-60 10 -107 10q-125 0 -204.5 -72.5t-79.5 -190.5v-668h-174z" />
    <glyph glyph-name="Sacute" unicode="&#x15a;" horiz-adv-x="1305" 
d="M732 1587h-148l168 324h201zM657 -34q-233 0 -379 111t-162 290l-1 11h180l1 -11q10 -107 112 -171t259 -64q148 0 243.5 69t95.5 179v1q0 92 -67.5 153t-213.5 93l-160 35q-214 47 -314 147t-100 259v1q1 179 143 293.5t365 114.5q212 0 352.5 -110.5t151.5 -274.5
l1 -14h-180l-2 13q-15 98 -103 159.5t-225 60.5q-140 -1 -229.5 -64t-89.5 -173v-1q0 -88 65.5 -146t209.5 -90l160 -36q223 -50 321.5 -144t98.5 -252v-1q0 -202 -145 -320t-388 -118z" />
    <glyph glyph-name="sacute" unicode="&#x15b;" horiz-adv-x="1072" 
d="M605 1228h-152l177 340h206zM532 -19q-180 0 -295 80t-130 214h178q22 -69 87 -109t166 -40q109 0 178.5 47t69.5 120v2q0 56 -45 94t-143 62l-167 40q-152 36 -222.5 105.5t-70.5 185.5v1q0 134 114.5 224t286.5 90q169 0 279 -78.5t128 -210.5h-171q-18 66 -80 105
t-157 39q-97 0 -159.5 -45t-62.5 -116v-2q0 -55 43 -91t138 -59l166 -40q154 -37 227.5 -107t73.5 -184v-2q0 -143 -123 -234t-309 -91z" />
    </font>
</defs>
</svg>
