<?xml version="1.0" standalone="no"?>
<!DOCTYPE svg PUBLIC "-//W3C//DTD SVG 1.1//EN" "http://www.w3.org/Graphics/SVG/1.1/DTD/svg11.dtd" >
<svg xmlns="http://www.w3.org/2000/svg" xmlns:xlink="http://www.w3.org/1999/xlink" version="1.1">
<metadata>
Created by FontForge 20170731 at Tue Nov  3 20:24:27 2020
 By Aleksey,,,
(c) 2015-2020 Apple Inc. All rights reserved.
</metadata>
<defs>
<font id="SFProText-Medium" horiz-adv-x="1914" >
  <font-face 
    font-family="SF Pro Text"
    font-weight="500"
    font-stretch="normal"
    units-per-em="2048"
    panose-1="0 0 0 0 0 0 0 0 0 0"
    ascent="1638"
    descent="-410"
    x-height="1086"
    cap-height="1443"
    bbox="-921 -1173.61 5457 2573"
    underline-thickness="145"
    underline-position="-443"
    unicode-range="U+0020-100D86"
  />
<missing-glyph horiz-adv-x="2048" 
d="M100 1704v246h1848v-246h-1848zM100 1265v246h1848v-246h-1848zM100 825v246h1848v-246h-1848zM100 385v246h1848v-246h-1848zM100 -55v246h1848v-246h-1848zM100 -494v246h1848v-246h-1848z" />
    <glyph glyph-name="uni10004C.small" unicode="&#x2b;&#x20dd;" 
d="M957 -95q-165 0 -316 65.5t-260.5 175t-175 260.5t-65.5 316t65 316t174.5 260.5t260.5 175t316 65.5t316 -65.5t261 -175t175.5 -260.5t65.5 -316t-65.5 -316t-175 -260.5t-260.5 -175t-316 -65.5zM957 82q175 0 322 85.5t232 232.5t85 322q0 131 -50.5 249.5
t-136 203.5t-204 135.5t-249.5 50.5q-175 0 -321.5 -85t-231.5 -232t-85 -322t85 -322t232 -232.5t322 -85.5zM672 640q-36 0 -59 22.5t-23 58.5t23 59t59 23h203v202q0 37 22.5 60t57.5 23q37 0 60 -23t23 -60v-202h202q36 0 59 -23t23 -59t-23 -58.5t-59 -22.5h-202v-203
q0 -36 -23 -58.5t-60 -22.5q-35 0 -57.5 22.5t-22.5 58.5v203h-203z" />
    <glyph glyph-name="uni10004E.small" unicode="&#x2212;&#x20dd;" 
d="M957 -95q-165 0 -316 65.5t-260.5 175t-175 260.5t-65.5 316t65 316t174.5 260.5t260.5 175t316 65.5t316 -65.5t261 -175t175.5 -260.5t65.5 -316t-65.5 -316t-175 -260.5t-260.5 -175t-316 -65.5zM957 82q175 0 322 85.5t232 232.5t85 322q0 131 -50.5 249.5
t-136 203.5t-204 135.5t-249.5 50.5q-175 0 -321.5 -85t-231.5 -232t-85 -322t85 -322t232 -232.5t322 -85.5zM671 639q-40 0 -65 21.5t-25 59.5t24.5 60t65.5 22h571q41 0 65 -22t24 -60t-24.5 -59.5t-64.5 -21.5h-571z" />
    <glyph glyph-name="uni100050.small" unicode="&#xd7;&#x20dd;" 
d="M957 -95q-165 0 -316 65.5t-260.5 175t-175 260.5t-65.5 316t65 316t174.5 260.5t260.5 175t316 65.5t316 -65.5t261 -175t175.5 -260.5t65.5 -316t-65.5 -316t-175 -260.5t-260.5 -175t-316 -65.5zM957 82q175 0 322 85.5t232 232.5t85 322q0 131 -50.5 249.5
t-136 203.5t-204 135.5t-249.5 50.5q-175 0 -321.5 -85t-231.5 -232t-85 -322t85 -322t232 -232.5t322 -85.5zM702 389q-32 0 -55 23t-23 56q0 31 24 53l198 200l-198 199q-24 22 -24 54t23 54.5t55 22.5q33 0 55 -23l199 -198l201 199q23 23 54 23q33 0 56 -22.5t23 -55.5
q0 -30 -24 -54l-199 -199l198 -199q24 -24 24 -54q0 -33 -23 -56t-55 -23q-33 0 -56 23l-199 198l-198 -198q-21 -23 -56 -23z" />
    <glyph glyph-name="uni100054.small" unicode="&#x3d;&#x20dd;" 
d="M957 -95q-165 0 -316 65.5t-260.5 175t-175 260.5t-65.5 316t65 316t174.5 260.5t260.5 175t316 65.5t316 -65.5t261 -175t175.5 -260.5t65.5 -316t-65.5 -316t-175 -260.5t-260.5 -175t-316 -65.5zM957 82q175 0 322 85.5t232 232.5t85 322q0 131 -50.5 249.5
t-136 203.5t-204 135.5t-249.5 50.5q-175 0 -321.5 -85t-231.5 -232t-85 -322t85 -322t232 -232.5t322 -85.5zM680 793q-39 0 -62.5 19t-23.5 54q0 36 23 56t63 20h551q40 0 62.5 -20t22.5 -56q0 -35 -23 -54t-62 -19h-551zM680 500q-39 0 -62.5 19t-23.5 54q0 36 23 55.5
t63 19.5h551q40 0 62.5 -19.5t22.5 -55.5q0 -35 -23 -54t-62 -19h-551z" />
    <glyph glyph-name="uni10003A.small" unicode="&#x31;&#x20dd;" 
d="M957 -95q-165 0 -316 65.5t-260.5 175t-175 260.5t-65.5 316t65 316t174.5 260.5t260.5 175t316 65.5t316 -65.5t261 -175t175.5 -260.5t65.5 -316t-65.5 -316t-175 -260.5t-260.5 -175t-316 -65.5zM957 82q175 0 322 85.5t232 232.5t85 322q0 131 -50.5 249.5
t-136 203.5t-204 135.5t-249.5 50.5q-175 0 -321.5 -85t-231.5 -232t-85 -322t85 -322t232 -232.5t322 -85.5zM1001 364q-38 0 -60 24t-22 68v453h-6l-83 -56q-26 -17 -48 -17q-24 0 -40 17.5t-16 41.5q0 35 33 57l130 89q56 38 106 38q42 0 66 -24t24 -67v-532
q0 -45 -22 -68.5t-62 -23.5z" />
    <glyph glyph-name="uni10003C.small" unicode="&#x32;&#x20dd;" 
d="M957 -95q-165 0 -316 65.5t-260.5 175t-175 260.5t-65.5 316t65 316t174.5 260.5t260.5 175t316 65.5t316 -65.5t261 -175t175.5 -260.5t65.5 -316t-65.5 -316t-175 -260.5t-260.5 -175t-316 -65.5zM957 82q175 0 322 85.5t232 232.5t85 322q0 131 -50.5 249.5
t-136 203.5t-204 135.5t-249.5 50.5q-175 0 -321.5 -85t-231.5 -232t-85 -322t85 -322t232 -232.5t322 -85.5zM778 368q-32 0 -51.5 18t-19.5 47q0 36 30 63l233 240q33 33 46.5 48t29.5 42t16 51q0 40 -28 64.5t-74 24.5q-43 0 -69.5 -22t-49.5 -58q-29 -45 -69 -45
q-30 0 -48.5 17t-18.5 46q0 21 5 37q23 67 92 110.5t155 43.5q115 0 185.5 -56t70.5 -148q0 -61 -30.5 -111t-92.5 -112l-156 -161v-6h242q32 0 51 -17.5t19 -48.5q0 -30 -19.5 -48.5t-50.5 -18.5h-398z" />
    <glyph glyph-name="uni10003E.small" unicode="&#x33;&#x20dd;" 
d="M957 -95q-165 0 -316 65.5t-260.5 175t-175 260.5t-65.5 315q0 165 65 316t174.5 260.5t260.5 175t316 65.5t316 -65.5t261 -175t175.5 -260.5t65.5 -316q0 -164 -65.5 -315t-175 -260.5t-260.5 -175t-316 -65.5zM957 82q175 0 322 85t232 232t85 322q0 131 -50.5 249.5
t-136 204t-204 136t-249.5 50.5q-175 0 -321.5 -85t-231.5 -232.5t-85 -322.5q0 -131 50.5 -249.5t135.5 -203.5t203.5 -135.5t249.5 -50.5zM951 348q-99 0 -172 42t-92 109q-4 17 -4 35q0 29 19.5 47.5t50.5 18.5q45 0 67 -45q36 -80 135 -80q57 0 92.5 26t35.5 69
q0 45 -35 72t-93 27h-41q-28 0 -46.5 17.5t-18.5 44.5q0 28 18 44.5t47 16.5h38q48 0 79 26.5t31 67.5q0 39 -28 61t-78 22q-92 0 -124 -80q-19 -45 -66 -45q-32 0 -51.5 18t-19.5 47q0 14 5 36q19 69 88 109t170 40q114 0 185.5 -53t71.5 -138q0 -59 -40.5 -106t-97.5 -55
v-7q70 -6 115.5 -55t45.5 -118q0 -96 -77.5 -155t-209.5 -59z" />
    <glyph glyph-name="uni100040.small" unicode="&#x34;&#x20dd;" 
d="M957 -95q-165 0 -316 65.5t-260.5 175t-175 260.5t-65.5 316t65 316t174.5 260.5t260.5 175t316 65.5t316 -65.5t261 -175t175.5 -260.5t65.5 -316t-65.5 -316t-175 -260.5t-260.5 -175t-316 -65.5zM957 82q175 0 322 85.5t232 232.5t85 322q0 131 -50.5 249.5
t-136 203.5t-204 135.5t-249.5 50.5q-175 0 -321.5 -85t-231.5 -232t-85 -322t85 -322t232 -232.5t322 -85.5zM1061 364q-34 0 -53 21.5t-19 60.5v53h-260q-47 0 -74.5 26t-27.5 69q0 42 25 85q23 39 209 329q30 47 65 67t88 20t86.5 -29t33.5 -76v-362h44q31 0 49.5 -17.5
t18.5 -47.5q0 -29 -18.5 -46.5t-49.5 -17.5h-44v-53q0 -40 -19 -61t-54 -21zM989 628v344h-7q-160 -253 -209 -338v-6h216z" />
    <glyph glyph-name="uni100042.small" unicode="&#x35;&#x20dd;" 
d="M957 -95q-165 0 -316 65.5t-260.5 175t-175 260.5t-65.5 316t65 316t174.5 260.5t260.5 175t316 65.5t316 -65.5t261 -175t175.5 -260.5t65.5 -316t-65.5 -316t-175 -260.5t-260.5 -175t-316 -65.5zM957 82q175 0 322 85.5t232 232.5t85 322q0 131 -50.5 249.5
t-136 203.5t-204 135.5t-249.5 50.5q-175 0 -321.5 -85t-231.5 -232t-85 -322t85 -322t232 -232.5t322 -85.5zM951 349q-98 0 -165.5 33t-92.5 91q-9 21 -9 44q0 28 18.5 46t49.5 18q42 0 69 -39q44 -68 126 -68q55 0 92 36.5t37 90.5q0 55 -32 88.5t-84 33.5q-46 0 -89 -32
q-44 -31 -89 -31q-43 0 -65.5 24.5t-19.5 67.5l18 234q3 41 31 65t73 24h322q28 0 45 -16.5t17 -43.5t-17.5 -44t-44.5 -17h-298l-15 -180h7q19 28 62.5 46.5t91.5 18.5q109 0 176.5 -64.5t67.5 -170.5q0 -116 -77.5 -185.5t-204.5 -69.5z" />
    <glyph glyph-name="uni100044.small" unicode="&#x36;&#x20dd;" 
d="M957 -95q-165 0 -316 65.5t-260.5 175t-175 260.5t-65.5 316t65 316t174.5 260.5t260.5 175t316 65.5t316 -65.5t261 -175t175.5 -260.5t65.5 -316t-65.5 -316t-175 -260.5t-260.5 -175t-316 -65.5zM957 82q175 0 322 85.5t232 232.5t85 322q0 131 -50.5 249.5
t-136 203.5t-204 135.5t-249.5 50.5q-175 0 -321.5 -85t-231.5 -232t-85 -322t85 -322t232 -232.5t322 -85.5zM963 349q-165 0 -241 120q-55 86 -55 241q0 189 83.5 287t232.5 98q74 0 134 -29.5t82 -73.5q11 -22 11 -44q0 -25 -17.5 -41.5t-43.5 -16.5q-22 0 -38 9t-40 31
q-44 40 -92 40q-71 0 -114.5 -61.5t-43.5 -161.5v-13h7q20 42 66.5 71t115.5 29q97 0 165.5 -61.5t68.5 -167.5q0 -120 -77.5 -188t-203.5 -68zM955 470q58 0 93 35.5t35 94.5q0 56 -35.5 91t-92.5 35q-56 0 -91.5 -35.5t-35.5 -90.5q0 -57 35.5 -93.5t91.5 -36.5z" />
    <glyph glyph-name="uni100046.small" unicode="&#x37;&#x20dd;" 
d="M957 -95q-165 0 -316 65.5t-260.5 175t-175 260.5t-65.5 316t65 316t174.5 260.5t260.5 175t316 65.5t316 -65.5t261 -175t175.5 -260.5t65.5 -316t-65.5 -316t-175 -260.5t-260.5 -175t-316 -65.5zM957 82q175 0 322 85.5t232 232.5t85 322q0 131 -50.5 249.5
t-136 203.5t-204 135.5t-249.5 50.5q-175 0 -321.5 -85t-231.5 -232t-85 -322t85 -322t232 -232.5t322 -85.5zM859 349q-35 0 -58 20t-23 52q0 26 15 51l267 470v7h-304q-29 0 -47 17.5t-18 45.5t18 45.5t47 17.5h375q48 0 77.5 -26t29.5 -68q0 -35 -25 -80l-274 -497
q-17 -30 -35.5 -42.5t-44.5 -12.5z" />
    <glyph glyph-name="uni100048.small" unicode="&#x38;&#x20dd;" 
d="M957 -95q-165 0 -316 65.5t-260.5 175t-175 260.5t-65.5 316t65 316t174.5 260.5t260.5 175t316 65.5t316 -65.5t261 -175t175.5 -260.5t65.5 -316t-65.5 -316t-175 -260.5t-260.5 -175t-316 -65.5zM957 82q175 0 322 85.5t232 232.5t85 322q0 131 -50.5 249.5
t-136 203.5t-204 135.5t-249.5 50.5q-175 0 -321.5 -85t-231.5 -232t-85 -322t85 -322t232 -232.5t322 -85.5zM955 349q-133 0 -213.5 58t-80.5 154q0 67 44 115.5t116 61.5v6q-63 19 -96.5 60.5t-33.5 98.5q0 86 73.5 139t191.5 53t191.5 -53t73.5 -139q0 -57 -34 -99
t-95 -60v-6q72 -13 115.5 -61t43.5 -115q0 -97 -81 -155t-215 -58zM956 788q49 0 80 28t31 72q0 42 -31 69.5t-80 27.5t-80 -27.5t-31 -69.5q0 -44 31 -72t80 -28zM957 458q58 0 96 32.5t38 81.5t-37.5 81.5t-96.5 32.5q-58 0 -96.5 -32.5t-38.5 -81.5t38 -81.5t97 -32.5z
" />
    <glyph glyph-name="uni10004A.small" unicode="&#x39;&#x20dd;" 
d="M957 -95q-165 0 -316 65.5t-260.5 175t-175 260.5t-65.5 316t65 316t174.5 260.5t260.5 175t316 65.5t316 -65.5t261 -175t175.5 -260.5t65.5 -316t-65.5 -316t-175 -260.5t-260.5 -175t-316 -65.5zM957 82q175 0 322 85.5t232 232.5t85 322q0 131 -50.5 249.5
t-136 203.5t-204 135.5t-249.5 50.5q-175 0 -321.5 -85t-231.5 -232t-85 -322t85 -322t232 -232.5t322 -85.5zM940 349q-96 0 -155.5 34t-77.5 81q-7 15 -7 33q0 28 18.5 46t47.5 18q37 0 65 -32q46 -55 107 -55q71 0 114.5 65t40.5 173h-7q-20 -43 -65 -71.5t-114 -28.5
q-98 0 -166.5 61t-68.5 167q0 116 76 185.5t203 69.5q140 0 217 -92.5t77 -263.5q0 -190 -78.5 -290t-226.5 -100zM959 720q55 0 90.5 35.5t35.5 89.5q0 57 -35.5 94t-90.5 37q-58 0 -93 -35.5t-35 -94.5q0 -55 35.5 -90.5t92.5 -35.5z" />
    <glyph glyph-name="uni100004.small" unicode="A&#x20dd;" 
d="M957 -95q-165 0 -316 65.5t-260.5 175t-175 260.5t-65.5 316t65 316t174.5 260.5t260.5 175t316 65.5t316 -65.5t261 -175t175.5 -260.5t65.5 -316t-65.5 -316t-175 -260.5t-260.5 -175t-316 -65.5zM957 82q175 0 322 85.5t232 232.5t85 322q0 131 -50.5 249.5
t-136 203.5t-204 135.5t-249.5 50.5q-175 0 -321.5 -85t-231.5 -232t-85 -322t85 -322t232 -232.5t322 -85.5zM707 354q-35 0 -55.5 19.5t-20.5 52.5q0 20 10 53l195 536q31 88 119 88q90 0 121 -88l194 -536q11 -32 11 -53q0 -33 -20.5 -52.5t-55.5 -19.5q-58 0 -78 67
l-44 133h-254l-44 -133q-20 -67 -78 -67zM864 672h183l-86 272h-10z" />
    <glyph glyph-name="uni100006.small" unicode="B&#x20dd;" 
d="M957 -95q-165 0 -316 65.5t-260.5 175t-175 260.5t-65.5 316t65 316t174.5 260.5t260.5 175t316 65.5t316 -65.5t261 -175t175.5 -260.5t65.5 -316t-65.5 -316t-175 -260.5t-260.5 -175t-316 -65.5zM957 82q175 0 322 85.5t232 232.5t85 322q0 131 -50.5 249.5
t-136 203.5t-204 135.5t-249.5 50.5q-175 0 -321.5 -85t-231.5 -232t-85 -322t85 -322t232 -232.5t322 -85.5zM776 372q-44 0 -68 24.5t-24 68.5v527q0 45 24 69t68 24h233q104 0 164.5 -47.5t60.5 -128.5q0 -59 -34.5 -101t-95.5 -55v-5q80 -10 125 -56.5t45 -119.5
q0 -91 -72.5 -145.5t-191.5 -54.5h-234zM840 791h95q144 0 144 93q0 41 -29.5 65t-80.5 24h-129v-182zM840 487h106q85 0 125 24t40 74q0 49 -35 76.5t-98 27.5h-138v-202z" />
    <glyph glyph-name="uni100008.small" unicode="C&#x20dd;" 
d="M957 -95q-165 0 -316 65.5t-260.5 175t-175 260.5t-65.5 316t65 316t174.5 260.5t260.5 175t316 65.5t316 -65.5t261 -175t175.5 -260.5t65.5 -316t-65.5 -316t-175 -260.5t-260.5 -175t-316 -65.5zM957 82q175 0 322 85.5t232 232.5t85 322q0 131 -50.5 249.5
t-136 203.5t-204 135.5t-249.5 50.5q-175 0 -321.5 -85t-231.5 -232t-85 -322t85 -322t232 -232.5t322 -85.5zM955 354q-157 0 -249.5 101t-92.5 273t92.5 274t249.5 102q105 0 183 -45t110 -122q9 -19 9 -43q0 -31 -19 -49t-52 -18q-44 0 -69 45q-48 97 -160 97
q-81 0 -130 -66t-49 -175t49 -174.5t130 -65.5q111 0 160 97q24 45 69 45q33 0 52 -18t19 -49q0 -24 -9 -43q-32 -77 -110 -121.5t-183 -44.5z" />
    <glyph glyph-name="uni10000A.small" unicode="D&#x20dd;" 
d="M957 -95q-165 0 -316 65.5t-260.5 175t-175 260.5t-65.5 316t65 316t174.5 260.5t260.5 175t316 65.5t316 -65.5t261 -175t175.5 -260.5t65.5 -316t-65.5 -316t-175 -260.5t-260.5 -175t-316 -65.5zM957 82q175 0 322 85.5t232 232.5t85 322q0 131 -50.5 249.5
t-136 203.5t-204 135.5t-249.5 50.5q-175 0 -321.5 -85t-231.5 -232t-85 -322t85 -322t232 -232.5t322 -85.5zM760 372q-42 0 -63.5 25t-21.5 69v525q0 44 22 69t63 25h196q170 0 260 -91t90 -264t-90.5 -265.5t-259.5 -92.5h-196zM833 497h101q206 0 206 231
q0 232 -206 232h-101v-463z" />
    <glyph glyph-name="uni10000C.small" unicode="E&#x20dd;" 
d="M957 -95q-165 0 -316 65.5t-260.5 175t-175 260.5t-65.5 316t65 316t174.5 260.5t260.5 175t316 65.5t316 -65.5t261 -175t175.5 -260.5t65.5 -316t-65.5 -316t-175 -260.5t-260.5 -175t-316 -65.5zM957 82q175 0 322 85.5t232 232.5t85 322q0 131 -50.5 249.5
t-136 203.5t-204 135.5t-249.5 50.5q-175 0 -321.5 -85t-231.5 -232t-85 -322t85 -322t232 -232.5t322 -85.5zM783 372q-41 0 -62.5 25t-21.5 69v525q0 44 21.5 69t62.5 25h354q31 0 49.5 -17.5t18.5 -47.5t-18.5 -47.5t-49.5 -17.5h-277v-162h260q29 0 47 -16t18 -45
q0 -28 -18 -43.5t-47 -15.5h-260v-170h277q31 0 49.5 -17.5t18.5 -47.5q0 -31 -18.5 -48.5t-49.5 -17.5h-354z" />
    <glyph glyph-name="uni10000E.small" unicode="F&#x20dd;" 
d="M957 -95q-165 0 -316 65.5t-260.5 175t-175 260.5t-65.5 316t65 316t174.5 260.5t260.5 175t316 65.5t316 -65.5t261 -175t175.5 -260.5t65.5 -316t-65.5 -316t-175 -260.5t-260.5 -175t-316 -65.5zM957 82q175 0 322 85.5t232 232.5t85 322q0 131 -50.5 249.5
t-136 203.5t-204 135.5t-249.5 50.5q-175 0 -321.5 -85t-231.5 -232t-85 -322t85 -322t232 -232.5t322 -85.5zM788 362q-39 0 -60 24.5t-21 67.5v537q0 44 22 69t63 25h361q31 0 49.5 -17.5t18.5 -47.5t-18.5 -47.5t-49.5 -17.5h-282v-173h257q29 0 46.5 -16t17.5 -45
t-17.5 -44.5t-46.5 -15.5h-256v-207q0 -43 -22 -67.5t-62 -24.5z" />
    <glyph glyph-name="uni100010.small" unicode="G&#x20dd;" 
d="M957 -95q-165 0 -316 65.5t-260.5 175t-175 260.5t-65.5 316t65 316t174.5 260.5t260.5 175t316 65.5t316 -65.5t261 -175t175.5 -260.5t65.5 -316t-65.5 -316t-175 -260.5t-260.5 -175t-316 -65.5zM957 82q175 0 322 85.5t232 232.5t85 322q0 131 -50.5 249.5
t-136 203.5t-204 135.5t-249.5 50.5q-175 0 -321.5 -85t-231.5 -232t-85 -322t85 -322t232 -232.5t322 -85.5zM957 354q-158 0 -251 101t-93 273t92.5 274t249.5 102q106 0 183 -43.5t108 -119.5q9 -18 9 -42q0 -30 -18.5 -47.5t-50.5 -17.5q-44 0 -69 43q-50 96 -159 96
q-82 0 -131 -67.5t-49 -177.5q0 -111 50 -178t133 -67q74 0 113.5 33.5t39.5 89.5v45h-107q-26 0 -41.5 16t-15.5 39q0 25 15 40t42 15h185q39 0 60.5 -21.5t21.5 -61.5v-49q0 -122 -85 -198.5t-232 -76.5z" />
    <glyph glyph-name="uni100012.small" unicode="H&#x20dd;" 
d="M957 -95q-165 0 -316 65.5t-260.5 175t-175 260.5t-65.5 316t65 316t174.5 260.5t260.5 175t316 65.5t316 -65.5t261 -175t175.5 -260.5t65.5 -316t-65.5 -316t-175 -260.5t-260.5 -175t-316 -65.5zM957 82q175 0 322 85.5t232 232.5t85 322q0 131 -50.5 249.5
t-136 203.5t-204 135.5t-249.5 50.5q-175 0 -321.5 -85t-231.5 -232t-85 -322t85 -322t232 -232.5t322 -85.5zM715 362q-40 0 -61.5 24.5t-21.5 68.5v547q0 44 21.5 69t61.5 25t62 -24.5t22 -69.5v-202h313v202q0 44 22 69t61 25q41 0 63 -24.5t22 -69.5v-547
q0 -44 -22.5 -68.5t-62.5 -24.5q-39 0 -61 24.5t-22 68.5v218h-313v-218q0 -44 -22 -68.5t-62 -24.5z" />
    <glyph glyph-name="uni100014.small" unicode="I&#x20dd;" 
d="M957 -95q-165 0 -316 65.5t-260.5 175t-175 260.5t-65.5 316t65 316t174.5 260.5t260.5 175t316 65.5t316 -65.5t261 -175t175.5 -260.5t65.5 -316t-65.5 -316t-175 -260.5t-260.5 -175t-316 -65.5zM957 82q175 0 322 85.5t232 232.5t85 322q0 131 -50.5 249.5
t-136 203.5t-204 135.5t-249.5 50.5q-175 0 -321.5 -85t-231.5 -232t-85 -322t85 -322t232 -232.5t322 -85.5zM955 362q-40 0 -62 25.5t-22 69.5v543q0 44 22 70t62 26q42 0 64 -25.5t22 -70.5v-543q0 -45 -22 -70t-64 -25z" />
    <glyph glyph-name="uni100016.small" unicode="J&#x20dd;" 
d="M957 -95q-165 0 -316 65.5t-260.5 175t-175 260.5t-65.5 316t65 316t174.5 260.5t260.5 175t316 65.5t316 -65.5t261 -175t175.5 -260.5t65.5 -316t-65.5 -316t-175 -260.5t-260.5 -175t-316 -65.5zM957 82q175 0 322 85.5t232 232.5t85 322q0 131 -50.5 249.5
t-136 203.5t-204 135.5t-249.5 50.5q-175 0 -321.5 -85t-231.5 -232t-85 -322t85 -322t232 -232.5t322 -85.5zM918 354q-88 0 -151.5 37.5t-86.5 102.5q-7 20 -7 43q0 34 21 55t55 21q53 0 76 -54q29 -64 97 -64q42 0 65 28.5t23 80.5v398q0 43 21.5 68.5t60.5 25.5
q41 0 62.5 -25t21.5 -69v-401q0 -120 -66.5 -183.5t-191.5 -63.5z" />
    <glyph glyph-name="uni100018.small" unicode="&#x212a;&#x20dd;" 
d="M957 -95q-165 0 -316 65.5t-260.5 175t-175 260.5t-65.5 316t65 316t174.5 260.5t260.5 175t316 65.5t316 -65.5t261 -175t175.5 -260.5t65.5 -316t-65.5 -316t-175 -260.5t-260.5 -175t-316 -65.5zM957 82q175 0 322 85.5t232 232.5t85 322q0 131 -50.5 249.5
t-136 203.5t-204 135.5t-249.5 50.5q-175 0 -321.5 -85t-231.5 -232t-85 -322t85 -322t232 -232.5t322 -85.5zM751 364q-38 0 -59 24.5t-21 67.5v546q0 43 21 67t59 24q40 0 61.5 -24t21.5 -67v-229h5l271 286q30 34 66 34q31 0 52.5 -20t21.5 -48q0 -30 -24 -58l-188 -197
l204 -271q22 -29 22 -60q0 -32 -22 -53.5t-56 -21.5q-40 0 -70 40l-197 264l-85 -91v-123q0 -42 -22 -66t-61 -24z" />
    <glyph glyph-name="uni10001A.small" unicode="L&#x20dd;" 
d="M957 -95q-165 0 -316 65.5t-260.5 175t-175 260.5t-65.5 316t65 316t174.5 260.5t260.5 175t316 65.5t316 -65.5t261 -175t175.5 -260.5t65.5 -316t-65.5 -316t-175 -260.5t-260.5 -175t-316 -65.5zM957 82q175 0 322 85.5t232 232.5t85 322q0 131 -50.5 249.5
t-136 203.5t-204 135.5t-249.5 50.5q-175 0 -321.5 -85t-231.5 -232t-85 -322t85 -322t232 -232.5t322 -85.5zM817 372q-40 0 -62 26t-22 70v532q0 44 22 70t62 26q42 0 64 -25.5t22 -70.5v-492h260q32 0 51.5 -18t19.5 -50q0 -31 -19.5 -49.5t-51.5 -18.5h-346z" />
    <glyph glyph-name="uni10001C.small" unicode="M&#x20dd;" 
d="M957 -95q-165 0 -316 65.5t-260.5 175t-175 260.5t-65.5 316t65 316t174.5 260.5t260.5 175t316 65.5t316 -65.5t261 -175t175.5 -260.5t65.5 -316t-65.5 -316t-175 -260.5t-260.5 -175t-316 -65.5zM957 82q175 0 322 85.5t232 232.5t85 322q0 131 -50.5 249.5
t-136 203.5t-204 135.5t-249.5 50.5q-175 0 -321.5 -85t-231.5 -232t-85 -322t85 -322t232 -232.5t322 -85.5zM657 357q-32 0 -50.5 20.5t-18.5 57.5v571q0 40 25.5 65t66.5 25q71 0 95 -66l180 -460h4l178 460q24 66 95 66q41 0 66.5 -25t25.5 -65v-571q0 -37 -18.5 -57.5
t-51.5 -20.5q-32 0 -50.5 20.5t-18.5 57.5v395h-7l-154 -390q-19 -49 -69 -49q-51 0 -68 49l-153 390h-7v-395q0 -37 -18.5 -57.5t-51.5 -20.5z" />
    <glyph glyph-name="uni10001E.small" unicode="N&#x20dd;" 
d="M957 -95q-165 0 -316 65.5t-260.5 175t-175 260.5t-65.5 316t65 316t174.5 260.5t260.5 175t316 65.5t316 -65.5t261 -175t175.5 -260.5t65.5 -316t-65.5 -316t-175 -260.5t-260.5 -175t-316 -65.5zM957 82q175 0 322 85.5t232 232.5t85 322q0 131 -50.5 249.5
t-136 203.5t-204 135.5t-249.5 50.5q-175 0 -321.5 -85t-231.5 -232t-85 -322t85 -322t232 -232.5t322 -85.5zM725 362q-34 0 -54 21.5t-20 58.5v575q0 36 19.5 57.5t53.5 21.5q44 0 78 -46l303 -423h6v388q0 38 19.5 59.5t54.5 21.5q36 0 56 -21.5t20 -59.5v-576
q0 -37 -19.5 -57t-54.5 -20q-24 0 -40.5 9.5t-34.5 35.5l-306 418h-5v-383q0 -38 -20 -59t-56 -21z" />
    <glyph glyph-name="uni100020.small" unicode="O&#x20dd;" 
d="M957 -95q-165 0 -316 65.5t-260.5 175t-175 260.5t-65.5 316t65 316t174.5 260.5t260.5 175t316 65.5t316 -65.5t261 -175t175.5 -260.5t65.5 -316t-65.5 -316t-175 -260.5t-260.5 -175t-316 -65.5zM957 82q175 0 322 85.5t232 232.5t85 322q0 131 -50.5 249.5
t-136 203.5t-204 135.5t-249.5 50.5q-175 0 -321.5 -85t-231.5 -232t-85 -322t85 -322t232 -232.5t322 -85.5zM956 354q-152 0 -249 104t-97 270q0 168 97 272t249 104q153 0 250 -104t97 -272q0 -167 -97 -270.5t-250 -103.5zM956 483q83 0 132.5 66t49.5 179t-49.5 179.5
t-132.5 66.5q-82 0 -132 -66.5t-50 -179.5q0 -112 50 -178.5t132 -66.5z" />
    <glyph glyph-name="uni100022.small" unicode="P&#x20dd;" 
d="M957 -95q-165 0 -316 65.5t-260.5 175t-175 260.5t-65.5 316t65 316t174.5 260.5t260.5 175t316 65.5t316 -65.5t261 -175t175.5 -260.5t65.5 -316t-65.5 -316t-175 -260.5t-260.5 -175t-316 -65.5zM957 82q175 0 322 85.5t232 232.5t85 322q0 131 -50.5 249.5
t-136 203.5t-204 135.5t-249.5 50.5q-175 0 -321.5 -85t-231.5 -232t-85 -322t85 -322t232 -232.5t322 -85.5zM787 362q-40 0 -61 24.5t-21 67.5v537q0 44 22 69t63 25h215q119 0 192 -69t73 -182q0 -114 -73 -182.5t-194 -68.5h-133v-129q0 -43 -22 -67.5t-61 -24.5z
M870 705h109q63 0 97.5 33.5t34.5 95.5q0 61 -35 95t-97 34h-109v-258z" />
    <glyph glyph-name="uni100024.small" unicode="Q&#x20dd;" 
d="M957 -95q-165 0 -316 65.5t-260.5 175t-175 260.5t-65.5 316t65 316t174.5 260.5t260.5 175t316 65.5t316 -65.5t261 -175t175.5 -260.5t65.5 -316t-65.5 -316t-175 -260.5t-260.5 -175t-316 -65.5zM957 82q175 0 322 85.5t232 232.5t85 322q0 131 -50.5 249.5
t-136 203.5t-204 135.5t-249.5 50.5q-175 0 -321.5 -85t-231.5 -232t-85 -322t85 -322t232 -232.5t322 -85.5zM956 354q-152 0 -249 104t-97 270q0 167 97 271.5t249 104.5q153 0 250 -104.5t97 -271.5q0 -188 -122 -294l35 -46q22 -30 22 -53q0 -26 -17 -42.5t-44 -16.5
q-37 0 -63 37l-43 59q-53 -18 -115 -18zM956 483q26 0 45 6l-25 35q-15 19 -15 41t15.5 36.5t37.5 14.5q26 0 43 -21l31 -41q50 64 50 174q0 113 -49.5 179.5t-132.5 66.5q-82 0 -132 -66.5t-50 -179.5q0 -112 50 -178.5t132 -66.5z" />
    <glyph glyph-name="uni100026.small" unicode="R&#x20dd;" 
d="M957 -95q-165 0 -316 65.5t-260.5 175t-175 260.5t-65.5 316t65 316t174.5 260.5t260.5 175t316 65.5t316 -65.5t261 -175t175.5 -260.5t65.5 -316t-65.5 -316t-175 -260.5t-260.5 -175t-316 -65.5zM957 82q175 0 322 85.5t232 232.5t85 322q0 131 -50.5 249.5
t-136 203.5t-204 135.5t-249.5 50.5q-175 0 -321.5 -85t-231.5 -232t-85 -322t85 -322t232 -232.5t322 -85.5zM753 362q-38 0 -58.5 23.5t-20.5 65.5v540q0 44 22 69t63 25h221q128 0 201 -62.5t73 -172.5q0 -72 -39.5 -129t-106.5 -81l104 -155q17 -26 17 -55
q0 -30 -20.5 -49t-53.5 -19q-26 0 -43.5 12t-36.5 42l-123 198h-119v-163q0 -42 -20.5 -65.5t-59.5 -23.5zM833 730h123q64 0 100 30t36 86q0 57 -36 88.5t-97 31.5h-126v-236z" />
    <glyph glyph-name="uni100028.small" unicode="S&#x20dd;" 
d="M957 -95q-165 0 -316 65.5t-260.5 175t-175 260.5t-65.5 316t65 316t174.5 260.5t260.5 175t316 65.5t316 -65.5t261 -175t175.5 -260.5t65.5 -316t-65.5 -316t-175 -260.5t-260.5 -175t-316 -65.5zM957 82q175 0 322 85.5t232 232.5t85 322q0 131 -50.5 249.5
t-136 203.5t-204 135.5t-249.5 50.5q-175 0 -321.5 -85t-231.5 -232t-85 -322t85 -322t232 -232.5t322 -85.5zM946 354q-102 0 -173.5 38.5t-96.5 95.5q-11 21 -11 45q0 31 19 49t51 18q42 0 70 -42q48 -77 150 -77q58 0 93.5 22.5t35.5 64.5q0 35 -24 53t-90 35l-106 29
q-195 48 -195 195q0 98 79.5 160.5t205.5 62.5q97 0 166.5 -38t95.5 -98q11 -25 11 -44q0 -31 -19 -47.5t-49 -16.5q-45 0 -72 42q-23 41 -55.5 59.5t-81.5 18.5q-54 0 -84 -23t-30 -64q0 -31 23.5 -50t76.5 -32l99 -24q107 -26 161.5 -75.5t54.5 -128.5q0 -104 -83 -166
t-222 -62z" />
    <glyph glyph-name="uni10002A.small" unicode="T&#x20dd;" 
d="M957 -95q-165 0 -316 65.5t-260.5 175t-175 260.5t-65.5 316t65 316t174.5 260.5t260.5 175t316 65.5t316 -65.5t261 -175t175.5 -260.5t65.5 -316t-65.5 -316t-175 -260.5t-260.5 -175t-316 -65.5zM957 82q175 0 322 85.5t232 232.5t85 322q0 131 -50.5 249.5
t-136 203.5t-204 135.5t-249.5 50.5q-175 0 -321.5 -85t-231.5 -232t-85 -322t85 -322t232 -232.5t322 -85.5zM955 359q-41 0 -63 25.5t-22 69.5v496h-166q-31 0 -50.5 18.5t-19.5 49.5t19.5 49t50.5 18h503q32 0 51 -18t19 -49t-19 -49.5t-51 -18.5h-167v-496
q0 -45 -22 -70t-63 -25z" />
    <glyph glyph-name="uni10002C.small" unicode="U&#x20dd;" 
d="M957 -95q-165 0 -316 65.5t-260.5 175t-175 260.5t-65.5 316t65 316t174.5 260.5t260.5 175t316 65.5t316 -65.5t261 -175t175.5 -260.5t65.5 -316t-65.5 -316t-175 -260.5t-260.5 -175t-316 -65.5zM957 82q175 0 322 85.5t232 232.5t85 322q0 131 -50.5 249.5
t-136 203.5t-204 135.5t-249.5 50.5q-175 0 -321.5 -85t-231.5 -232t-85 -322t85 -322t232 -232.5t322 -85.5zM956 354q-143 0 -230.5 74.5t-87.5 197.5v378q0 44 21.5 68t60.5 24t60.5 -24t21.5 -68v-362q0 -70 42 -112t112 -42t112 42t42 112v362q0 43 21.5 67.5
t59.5 24.5q40 0 61.5 -24t21.5 -68v-378q0 -123 -87.5 -197.5t-230.5 -74.5z" />
    <glyph glyph-name="uni10002E.small" unicode="V&#x20dd;" 
d="M957 -95q-165 0 -316 65.5t-260.5 175t-175 260.5t-65.5 316t65 316t174.5 260.5t260.5 175t316 65.5t316 -65.5t261 -175t175.5 -260.5t65.5 -316t-65.5 -316t-175 -260.5t-260.5 -175t-316 -65.5zM957 82q175 0 322 85.5t232 232.5t85 322q0 131 -50.5 249.5
t-136 203.5t-204 135.5t-249.5 50.5q-175 0 -321.5 -85t-231.5 -232t-85 -322t85 -322t232 -232.5t322 -85.5zM956 354q-50 0 -78.5 22.5t-46.5 74.5l-196 522q-8 27 -8 43q0 35 23.5 57t61.5 22q34 0 54.5 -17t31.5 -55l155 -487h6l155 487q11 38 31.5 55t54.5 17
q37 0 60.5 -22t23.5 -56q0 -19 -7 -44l-195 -520q-18 -51 -48 -75t-78 -24z" />
    <glyph glyph-name="uni100030.small" unicode="W&#x20dd;" 
d="M957 -95q-165 0 -316 65.5t-260.5 175t-175 260.5t-65.5 316t65 316t174.5 260.5t260.5 175t316 65.5t316 -65.5t261 -175t175.5 -260.5t65.5 -316t-65.5 -316t-175 -260.5t-260.5 -175t-316 -65.5zM957 82q175 0 322 85.5t232 232.5t85 322q0 131 -50.5 249.5
t-136 203.5t-204 135.5t-249.5 50.5q-175 0 -321.5 -85t-231.5 -232t-85 -322t85 -322t232 -232.5t322 -85.5zM749 354q-77 0 -95 77l-141 564q-3 10 -3 27q0 32 20.5 52.5t53.5 20.5q34 0 52 -18t26 -59l95 -447h7l111 458q15 63 81 63q64 0 81 -63l111 -458h6l96 447
q8 41 26.5 59t52.5 18q33 0 53.5 -20.5t20.5 -52.5q0 -14 -4 -27l-142 -564q-18 -77 -95 -77q-79 0 -96 77l-107 431h-6l-107 -431q-18 -77 -97 -77z" />
    <glyph glyph-name="uni100032.small" unicode="X&#x20dd;" 
d="M957 -95q-165 0 -316 65.5t-260.5 175t-175 260.5t-65.5 316t65 316t174.5 260.5t260.5 175t316 65.5t316 -65.5t261 -175t175.5 -260.5t65.5 -316t-65.5 -316t-175 -260.5t-260.5 -175t-316 -65.5zM957 82q175 0 322 85.5t232 232.5t85 322q0 131 -50.5 249.5
t-136 203.5t-204 135.5t-249.5 50.5q-175 0 -321.5 -85t-231.5 -232t-85 -322t85 -322t232 -232.5t322 -85.5zM726 362q-32 0 -53 20t-21 50q0 28 19 54l183 247l-172 230q-22 30 -22 59q0 31 22.5 52.5t55.5 21.5q25 0 42 -10.5t35 -36.5l146 -212h5l141 211q17 27 34 37.5
t41 10.5q33 0 54.5 -20t21.5 -51q0 -28 -20 -55l-182 -241l181 -240q20 -26 20 -55q0 -31 -22 -51.5t-57 -20.5q-24 0 -40.5 10.5t-35.5 38.5l-147 210h-4l-148 -210q-19 -28 -35.5 -38.5t-41.5 -10.5z" />
    <glyph glyph-name="uni100034.small" unicode="Y&#x20dd;" 
d="M957 -95q-165 0 -316 65.5t-260.5 175t-175 260.5t-65.5 316t65 316t174.5 260.5t260.5 175t316 65.5t316 -65.5t261 -175t175.5 -260.5t65.5 -316t-65.5 -316t-175 -260.5t-260.5 -175t-316 -65.5zM957 82q175 0 322 85.5t232 232.5t85 322q0 131 -50.5 249.5
t-136 203.5t-204 135.5t-249.5 50.5q-175 0 -321.5 -85t-231.5 -232t-85 -322t85 -322t232 -232.5t322 -85.5zM956 362q-40 0 -61.5 25.5t-21.5 69.5v159l-208 360q-13 25 -13 47q0 31 22 52t55 21q29 0 46 -12t32 -44l148 -271h5l147 271q16 32 32.5 44t44.5 12
q33 0 54.5 -21t21.5 -53q0 -24 -13 -46l-206 -358v-161q0 -45 -22 -70t-63 -25z" />
    <glyph glyph-name="uni100036.small" unicode="Z&#x20dd;" 
d="M957 -95q-165 0 -316 65.5t-260.5 175t-175 260.5t-65.5 316t65 316t174.5 260.5t260.5 175t316 65.5t316 -65.5t261 -175t175.5 -260.5t65.5 -316t-65.5 -316t-175 -260.5t-260.5 -175t-316 -65.5zM957 82q175 0 322 85.5t232 232.5t85 322q0 131 -50.5 249.5
t-136 203.5t-204 135.5t-249.5 50.5q-175 0 -321.5 -85t-231.5 -232t-85 -322t85 -322t232 -232.5t322 -85.5zM739 372q-31 0 -51.5 19.5t-20.5 49.5q0 31 29 69l321 435v7h-286q-31 0 -50.5 18t-19.5 49q0 30 19.5 48t50.5 18h422q32 0 52.5 -20t20.5 -51q0 -33 -26 -66
l-321 -436v-7h303q32 0 51 -17.5t19 -48.5q0 -30 -19.5 -48.5t-50.5 -18.5h-443z" />
    <glyph glyph-name="uni100038.small" unicode="&#x30;&#x20dd;" 
d="M957 -95q-165 0 -316 65.5t-260.5 175t-175 260.5t-65.5 316t65 316t174.5 260.5t260.5 175t316 65.5t316 -65.5t261 -175t175.5 -260.5t65.5 -316t-65.5 -316t-175 -260.5t-260.5 -175t-316 -65.5zM957 82q175 0 322 85.5t232 232.5t85 322q0 131 -50.5 249.5
t-136 203.5t-204 135.5t-249.5 50.5q-175 0 -321.5 -85t-231.5 -232t-85 -322t85 -322t232 -232.5t322 -85.5zM955 349q-131 0 -210 102t-79 271t79 271t210 102t211 -102t80 -271t-80 -271t-211 -102zM956 477q60 0 96 66t36 179t-36 178.5t-96 65.5t-96 -65.5t-36 -178.5
t36 -179t96 -66z" />
    <glyph glyph-name="uni100039.small" unicode="&#x30;&#x20dd;&#x25cf;" 
d="M957 -95q-165 0 -316 65.5t-260.5 175t-175 260.5t-65.5 316t65 316t174.5 260.5t260.5 175t316 65.5t316 -65.5t261 -175t175.5 -260.5t65.5 -316t-65.5 -316t-175 -260.5t-260.5 -175t-316 -65.5zM955 337q135 0 217.5 105.5t82.5 279.5t-82.5 279.5t-217.5 105.5
q-134 0 -216 -105.5t-82 -279.5t82 -279.5t216 -105.5zM956 470q-61 0 -99 68t-38 184t38 184t99 68q62 0 99.5 -68t37.5 -184t-37.5 -184t-99.5 -68z" />
    <glyph glyph-name="uni1000F2.small" unicode="&#x2713;&#x20de;" horiz-adv-x="1876" 
d="M465 -17q-131 0 -198 66t-67 196v952q0 130 67 196t198 66h946q265 0 265 -262v-952q0 -262 -265 -262h-946zM475 153h926q105 0 105 107v922q0 107 -105 107h-926q-105 0 -105 -107v-922q0 -107 105 -107zM854 349q-47 0 -81 44l-176 217q-22 30 -22 59q0 32 22 54.5
t54 22.5q39 0 67 -37l132 -173l298 479q27 44 67 44q32 0 56 -20t24 -52q0 -23 -22 -59l-343 -534q-28 -45 -76 -45z" />
    <glyph glyph-name="uni1000F0.small" unicode="&#x2717;&#x20de;" horiz-adv-x="1876" 
d="M465 -17q-131 0 -198 66t-67 196v952q0 130 67 196t198 66h946q265 0 265 -262v-952q0 -262 -265 -262h-946zM475 153h926q105 0 105 107v922q0 107 -105 107h-926q-105 0 -105 -107v-922q0 -107 105 -107zM684 389q-32 0 -55 23t-23 56q0 32 24 54l198 199l-198 199
q-24 22 -24 54t23 54.5t55 22.5q33 0 55 -22l199 -199l201 200q25 23 54 23q33 0 56 -23t23 -55q0 -31 -24 -54l-199 -200l198 -198q24 -24 24 -55q0 -33 -23 -56t-55 -23q-33 0 -56 23l-199 198l-198 -198q-21 -23 -56 -23z" />
    <glyph glyph-name="uni10003B.small" unicode="&#x31;&#x20dd;&#x25cf;" 
d="M957 -95q-165 0 -316 65.5t-260.5 175t-175 260.5t-65.5 316t65 316t174.5 260.5t260.5 175t316 65.5t316 -65.5t261 -175t175.5 -260.5t65.5 -316t-65.5 -316t-175 -260.5t-260.5 -175t-316 -65.5zM1004 349q42 0 65 24.5t23 70.5v556q0 45 -25.5 70.5t-69.5 25.5
q-54 0 -111 -40l-137 -93q-34 -24 -34 -60q0 -25 17 -43.5t42 -18.5q23 0 50 18l87 58h6v-473q0 -46 23 -70.5t64 -24.5z" />
    <glyph glyph-name="uni10003D.small" unicode="&#x32;&#x20dd;&#x25cf;" 
d="M957 -95q-165 0 -316 65.5t-260.5 175t-175 260.5t-65.5 316t65 316t174.5 260.5t260.5 175t316 65.5t316 -65.5t261 -175t175.5 -260.5t65.5 -316t-65.5 -316t-175 -260.5t-260.5 -175t-316 -65.5zM770 352h416q33 0 53.5 19t20.5 51t-20 50.5t-54 18.5h-252v7l162 168
q65 64 97 116.5t32 115.5q0 96 -73.5 155t-194.5 59q-90 0 -162.5 -45.5t-95.5 -115.5q-6 -16 -6 -39q0 -30 19.5 -48t51.5 -18q25 0 40.5 12t31.5 35q15 24 28 39.5t39 29.5t57 14q48 0 77 -25.5t29 -66.5q0 -25 -16.5 -53t-31 -44t-48.5 -50l-244 -250q-31 -31 -31 -66
q0 -32 20.5 -50.5t54.5 -18.5z" />
    <glyph glyph-name="uni10003F.small" unicode="&#x33;&#x20dd;&#x25cf;" 
d="M957 -95q-165 0 -316 65.5t-260.5 175t-175 260.5t-65.5 316t65 316t174.5 260.5t260.5 175t316 65.5t316 -65.5t261 -175t175.5 -260.5t65.5 -316t-65.5 -316t-175 -260.5t-260.5 -175t-316 -65.5zM952 332q138 0 218.5 61.5t80.5 162.5q0 71 -47.5 122.5t-120.5 58.5v7
q60 8 102 57t42 111q0 89 -75 144.5t-194 55.5q-106 0 -178 -42t-91 -114q-5 -18 -5 -37q0 -31 20 -50t53 -19q49 0 71 47q32 83 128 83q52 0 81 -23t29 -63q0 -43 -32 -70t-82 -27h-39q-31 0 -50 -18t-19 -48q0 -28 19 -46t50 -18h42q60 0 96.5 -28.5t36.5 -74.5
q0 -45 -36.5 -72t-96.5 -27q-103 0 -140 84q-23 47 -71 47q-33 0 -53.5 -19.5t-20.5 -50.5q0 -20 5 -36q20 -71 96 -114.5t181 -43.5z" />
    <glyph glyph-name="uni100041.small" unicode="&#x34;&#x20dd;&#x25cf;" 
d="M957 -95q-165 0 -316 65.5t-260.5 175t-175 260.5t-65.5 316t65 316t174.5 260.5t260.5 175t316 65.5t316 -65.5t261 -175t175.5 -260.5t65.5 -316t-65.5 -316t-175 -260.5t-260.5 -175t-316 -65.5zM1065 348q37 0 57.5 22t20.5 63v55h45q32 0 52 18.5t20 49.5
q0 32 -19.5 50.5t-52.5 18.5h-45v376q0 49 -35.5 80t-91.5 31t-92.5 -21t-67.5 -70q-164 -253 -218 -343q-26 -46 -26 -90q0 -45 29 -72.5t77 -27.5h271v-55q0 -40 20.5 -62.5t55.5 -22.5zM989 625h-224v5q54 97 218 352h6v-357z" />
    <glyph glyph-name="uni100043.small" unicode="&#x35;&#x20dd;&#x25cf;" 
d="M957 -95q-165 0 -316 65.5t-260.5 175t-175 260.5t-65.5 316t65 316t174.5 260.5t260.5 175t316 65.5t316 -65.5t261 -175t175.5 -260.5t65.5 -316t-65.5 -316t-175 -260.5t-260.5 -175t-316 -65.5zM951 332q133 0 214 73t81 195q0 109 -70.5 177t-183.5 68
q-51 0 -97 -19t-65 -48h-7l15 186h311q29 0 47.5 18t18.5 46q0 29 -18 46.5t-48 17.5h-336q-48 0 -77 -25.5t-32 -68.5l-19 -243q-4 -46 20.5 -72t69.5 -26q46 0 93 32q45 34 92 34q55 0 88 -34.5t33 -92.5q0 -56 -38 -94t-96 -38q-87 0 -132 71q-26 40 -72 40
q-33 0 -52.5 -18.5t-19.5 -48.5q0 -23 10 -46q26 -61 97 -95.5t173 -34.5z" />
    <glyph glyph-name="uni100045.small" unicode="&#x36;&#x20dd;&#x25cf;" 
d="M957 -95q-165 0 -316 65.5t-260.5 175t-175 260.5t-65.5 316t65 316t174.5 260.5t260.5 175t316 65.5t316 -65.5t261 -175t175.5 -260.5t65.5 -316t-65.5 -316t-175 -260.5t-260.5 -175t-316 -65.5zM963 332q132 0 213 71.5t81 196.5q0 111 -71 175t-173 64
q-72 0 -120.5 -29.5t-69.5 -74.5h-7q-1 5 -1 14q0 104 45.5 167.5t119.5 63.5q51 0 96 -41q18 -15 27.5 -22t24 -13t30.5 -6q27 0 45.5 17t18.5 44q0 23 -11 45q-23 47 -85.5 77.5t-140.5 30.5q-157 0 -244 -102t-87 -300q0 -163 57 -252q79 -126 252 -126zM955 459
q-58 0 -95 38.5t-37 97.5q0 57 37 94t95 37q59 0 96.5 -37t37.5 -95q0 -61 -36.5 -98t-97.5 -37z" />
    <glyph glyph-name="uni100047.small" unicode="&#x37;&#x20dd;&#x25cf;" 
d="M957 -95q-165 0 -316 65.5t-260.5 175t-175 260.5t-65.5 316t65 316t174.5 260.5t260.5 175t316 65.5t316 -65.5t261 -175t175.5 -260.5t65.5 -316t-65.5 -316t-175 -260.5t-260.5 -175t-316 -65.5zM854 332q52 0 84 58l287 518q26 48 26 85q0 43 -31 71t-81 28h-393
q-31 0 -49.5 -18.5t-18.5 -48.5t19 -48t49 -18h318v-7l-279 -490q-15 -27 -15 -54q0 -33 24 -54.5t60 -21.5z" />
    <glyph glyph-name="uni100049.small" unicode="&#x38;&#x20dd;&#x25cf;" 
d="M957 -95q-165 0 -316 65.5t-260.5 175t-175 260.5t-65.5 316t65 316t174.5 260.5t260.5 175t316 65.5t316 -65.5t261 -175t175.5 -260.5t65.5 -316t-65.5 -316t-175 -260.5t-260.5 -175t-316 -65.5zM955 332q140 0 225 61t85 162q0 70 -45.5 120.5t-121.5 64.5v6
q64 18 99.5 62t35.5 103q0 90 -76.5 145.5t-200.5 55.5t-200.5 -55.5t-76.5 -145.5q0 -59 35 -102.5t100 -62.5v-6q-76 -14 -121.5 -65t-45.5 -121q0 -101 84 -161.5t224 -60.5zM956 792q-51 0 -83.5 29t-32.5 74q0 44 33 72.5t83 28.5q51 0 83.5 -28.5t32.5 -72.5
q0 -45 -32.5 -74t-83.5 -29zM957 447q-61 0 -101 33.5t-40 85.5q0 50 40.5 84t100.5 34q61 0 100 -33.5t39 -84.5q0 -52 -39.5 -85.5t-99.5 -33.5z" />
    <glyph glyph-name="uni10004B.small" unicode="&#x39;&#x20dd;&#x25cf;" 
d="M957 -95q-165 0 -316 65.5t-260.5 175t-175 260.5t-65.5 316t65 316t174.5 260.5t260.5 175t316 65.5t316 -65.5t261 -175t175.5 -260.5t65.5 -316t-65.5 -316t-175 -260.5t-260.5 -175t-316 -65.5zM939 332q155 0 237 105t82 303q0 179 -80 275.5t-227 96.5
q-133 0 -212.5 -72.5t-79.5 -193.5q0 -111 71 -175t174 -64q71 0 119 30t68 75h7q4 -113 -41 -180.5t-120 -67.5q-61 0 -111 56q-29 34 -69 34q-29 0 -49 -19.5t-20 -47.5q0 -15 7 -34q20 -50 82 -85.5t162 -35.5zM959 721q-59 0 -96.5 36.5t-37.5 94.5q0 61 36.5 98
t97.5 37q57 0 94.5 -38.5t37.5 -97.5q0 -56 -37 -93t-95 -37z" />
    <glyph glyph-name="dblemdash" unicode="&#x2014;&#x2014;" horiz-adv-x="3628" 
d="M78 482v199h3472v-199h-3472z" />
    <glyph glyph-name="trplemdash" unicode="&#x2014;&#x2014;&#x2014;" horiz-adv-x="5442" 
d="M78 482v199h5286v-199h-5286z" />
    <glyph glyph-name="uni10009D.small" unicode="E&#x20de;&#x25a0;" horiz-adv-x="1876" 
d="M465 -17q-131 0 -198 66t-67 196v952q0 130 67 196t198 66h946q265 0 265 -262v-952q0 -262 -265 -262h-946zM760 357h369q33 0 52.5 18.5t19.5 49.5q0 32 -19.5 50t-52.5 18h-289v178h272q30 0 48.5 16.5t18.5 45.5q0 30 -18.5 46.5t-48.5 16.5h-272v169h289
q33 0 52.5 18.5t19.5 49.5q0 32 -19.5 50t-52.5 18h-369q-44 0 -67 -26t-23 -72v-548q0 -47 23 -72.5t67 -25.5z" />
    <glyph glyph-name="uni100094.small" unicode="A&#x20de;" horiz-adv-x="1876" 
d="M465 -17q-131 0 -198 66t-67 196v952q0 130 67 196t198 66h946q265 0 265 -262v-952q0 -262 -265 -262h-946zM475 153h926q105 0 105 107v922q0 107 -105 107h-926q-105 0 -105 -107v-922q0 -107 105 -107zM689 354q-35 0 -55.5 19.5t-20.5 52.5q0 20 10 53l195 536
q31 88 119 88q90 0 121 -88l194 -536q11 -32 11 -53q0 -33 -20.5 -52.5t-55.5 -19.5q-58 0 -78 67l-44 133h-254l-44 -133q-20 -67 -78 -67zM846 673h183l-86 271h-10z" />
    <glyph glyph-name="uni100096.small" unicode="B&#x20de;" horiz-adv-x="1876" 
d="M465 -17q-131 0 -198 66t-67 196v952q0 130 67 196t198 66h946q265 0 265 -262v-952q0 -262 -265 -262h-946zM475 153h926q105 0 105 107v922q0 107 -105 107h-926q-105 0 -105 -107v-922q0 -107 105 -107zM758 372q-44 0 -68 24.5t-24 68.5v528q0 44 24 68.5t68 24.5
h233q103 0 164 -48t61 -128q0 -59 -34.5 -101t-95.5 -55v-6q79 -10 124.5 -56.5t45.5 -118.5q0 -91 -72.5 -146t-191.5 -55h-234zM822 791h95q144 0 144 94q0 41 -29.5 64.5t-80.5 23.5h-129v-182zM822 487h106q85 0 125 24t40 75q0 49 -35 76t-98 27h-138v-202z" />
    <glyph glyph-name="uni100098.small" unicode="C&#x20de;" horiz-adv-x="1876" 
d="M465 -17q-131 0 -198 66t-67 196v952q0 130 67 196t198 66h946q265 0 265 -262v-952q0 -262 -265 -262h-946zM475 153h926q105 0 105 107v922q0 107 -105 107h-926q-105 0 -105 -107v-922q0 -107 105 -107zM937 354q-157 0 -249.5 101t-92.5 274q0 172 92.5 273.5
t249.5 101.5q105 0 183.5 -44.5t109.5 -122.5q9 -19 9 -43q0 -31 -19 -49t-52 -18q-44 0 -69 46q-49 97 -160 97q-81 0 -130 -66t-49 -175t49 -175t130 -66q111 0 160 97q24 46 69 46q32 0 51.5 -18.5t19.5 -49.5q0 -24 -9 -43q-32 -77 -110 -121.5t-183 -44.5z" />
    <glyph glyph-name="uni10009A.small" unicode="D&#x20de;" horiz-adv-x="1876" 
d="M465 -17q-131 0 -198 66t-67 196v952q0 130 67 196t198 66h946q265 0 265 -262v-952q0 -262 -265 -262h-946zM475 153h926q105 0 105 107v922q0 107 -105 107h-926q-105 0 -105 -107v-922q0 -107 105 -107zM742 373q-42 0 -63.5 24.5t-21.5 68.5v526q0 44 22 68.5
t63 24.5h196q170 0 260 -91t90 -264q0 -172 -90.5 -264.5t-259.5 -92.5h-196zM815 497h101q206 0 206 231q0 233 -206 233h-101v-464z" />
    <glyph glyph-name="uni10009C.small" unicode="E&#x20de;" horiz-adv-x="1876" 
d="M465 -17q-131 0 -198 66t-67 196v952q0 130 67 196t198 66h946q265 0 265 -262v-952q0 -262 -265 -262h-946zM475 153h926q105 0 105 107v922q0 107 -105 107h-926q-105 0 -105 -107v-922q0 -107 105 -107zM765 373q-41 0 -62.5 24.5t-21.5 68.5v526q0 44 21.5 68.5
t62.5 24.5h354q31 0 49.5 -17.5t18.5 -47.5t-18.5 -47.5t-49.5 -17.5h-277v-162h260q29 0 47 -15.5t18 -44.5q0 -28 -18 -43.5t-47 -15.5h-260v-171h277q31 0 49.5 -17.5t18.5 -47.5t-18.5 -47.5t-49.5 -17.5h-354z" />
    <glyph glyph-name="uni10009E.small" unicode="F&#x20de;" horiz-adv-x="1876" 
d="M465 -17q-131 0 -198 66t-67 196v952q0 130 67 196t198 66h946q265 0 265 -262v-952q0 -262 -265 -262h-946zM475 153h926q105 0 105 107v922q0 107 -105 107h-926q-105 0 -105 -107v-922q0 -107 105 -107zM770 362q-39 0 -60 25t-21 68v537q0 44 22 68.5t63 24.5h361
q31 0 49.5 -17.5t18.5 -47.5t-19 -47.5t-49 -17.5h-282v-173h257q29 0 46.5 -16t17.5 -45t-17.5 -44.5t-46.5 -15.5h-256v-206q0 -44 -22 -68.5t-62 -24.5z" />
    <glyph glyph-name="uni1000A0.small" unicode="G&#x20de;" horiz-adv-x="1876" 
d="M465 -17q-131 0 -198 66t-67 196v952q0 130 67 196t198 66h946q265 0 265 -262v-952q0 -262 -265 -262h-946zM475 153h926q105 0 105 107v922q0 107 -105 107h-926q-105 0 -105 -107v-922q0 -107 105 -107zM939 354q-158 0 -251 101t-93 274q0 172 92.5 273.5
t249.5 101.5q106 0 183 -43.5t108 -118.5q9 -19 9 -42q0 -31 -18.5 -48.5t-50.5 -17.5q-45 0 -69 44q-51 95 -159 95q-82 0 -131 -67t-49 -177q0 -111 50 -178.5t133 -67.5q74 0 113.5 34t39.5 90v45h-107q-26 0 -41.5 15.5t-15.5 38.5q0 25 15 40t42 15h185
q39 0 60.5 -21.5t21.5 -61.5v-49q0 -122 -85 -198.5t-232 -76.5z" />
    <glyph glyph-name="uni1000A2.small" unicode="H&#x20de;" horiz-adv-x="1876" 
d="M465 -17q-131 0 -198 66t-67 196v952q0 130 67 196t198 66h946q265 0 265 -262v-952q0 -262 -265 -262h-946zM475 153h926q105 0 105 107v922q0 107 -105 107h-926q-105 0 -105 -107v-922q0 -107 105 -107zM696 362q-39 0 -60.5 24.5t-21.5 68.5v548q0 44 21.5 68.5
t60.5 24.5q40 0 62.5 -24.5t22.5 -68.5v-202h313v202q0 44 22 68.5t61 24.5q40 0 62.5 -24.5t22.5 -68.5v-548q0 -44 -22.5 -68.5t-62.5 -24.5q-39 0 -61 24.5t-22 68.5v218h-313v-218q0 -44 -22.5 -68.5t-62.5 -24.5z" />
    <glyph glyph-name="uni1000A4.small" unicode="I&#x20de;" horiz-adv-x="1876" 
d="M465 -17q-131 0 -198 66t-67 196v952q0 130 67 196t198 66h946q265 0 265 -262v-952q0 -262 -265 -262h-946zM475 153h926q105 0 105 107v922q0 107 -105 107h-926q-105 0 -105 -107v-922q0 -107 105 -107zM937 362q-40 0 -62 26t-22 69v543q0 44 22 70t62 26
q42 0 64 -25.5t22 -70.5v-543q0 -45 -22 -70t-64 -25z" />
    <glyph glyph-name="uni1000A6.small" unicode="J&#x20de;" horiz-adv-x="1876" 
d="M465 -17q-131 0 -198 66t-67 196v952q0 130 67 196t198 66h946q265 0 265 -262v-952q0 -262 -265 -262h-946zM475 153h926q105 0 105 107v922q0 107 -105 107h-926q-105 0 -105 -107v-922q0 -107 105 -107zM900 354q-87 0 -151 38t-87 103q-7 18 -7 42q0 34 21 55t55 21
q53 0 76 -54q29 -64 97 -64q42 0 65 28.5t23 80.5v398q0 43 21.5 68.5t60.5 25.5q41 0 62.5 -25t21.5 -69v-401q0 -120 -66.5 -183.5t-191.5 -63.5z" />
    <glyph glyph-name="uni1000A8.small" unicode="&#x212a;&#x20de;" horiz-adv-x="1876" 
d="M465 -17q-131 0 -198 66t-67 196v952q0 130 67 196t198 66h946q265 0 265 -262v-952q0 -262 -265 -262h-946zM475 153h926q105 0 105 107v922q0 107 -105 107h-926q-105 0 -105 -107v-922q0 -107 105 -107zM733 365q-38 0 -59 24t-21 67v546q0 43 21 67t59 24
q40 0 61.5 -24t21.5 -67v-229h5l271 286q30 34 66 34q31 0 52.5 -20t21.5 -48q0 -30 -24 -57l-188 -198l204 -270q22 -31 22 -60q0 -33 -22 -54t-56 -21q-41 0 -70 39l-197 265l-85 -91v-124q0 -42 -22 -65.5t-61 -23.5z" />
    <glyph glyph-name="uni1000AA.small" unicode="L&#x20de;" horiz-adv-x="1876" 
d="M465 -17q-131 0 -198 66t-67 196v952q0 130 67 196t198 66h946q265 0 265 -262v-952q0 -262 -265 -262h-946zM475 153h926q105 0 105 107v922q0 107 -105 107h-926q-105 0 -105 -107v-922q0 -107 105 -107zM799 373q-41 0 -62.5 25.5t-21.5 69.5v532q0 44 22 70t62 26
q42 0 64 -25.5t22 -70.5v-492h260q32 0 51.5 -18t19.5 -49q0 -32 -19.5 -50t-51.5 -18h-346z" />
    <glyph glyph-name="uni1000AC.small" unicode="M&#x20de;" horiz-adv-x="1876" 
d="M465 -17q-131 0 -198 66t-67 196v952q0 130 67 196t198 66h946q265 0 265 -262v-952q0 -262 -265 -262h-946zM475 153h926q105 0 105 107v922q0 107 -105 107h-926q-105 0 -105 -107v-922q0 -107 105 -107zM639 357q-32 0 -50.5 21t-18.5 57v572q0 40 25.5 64.5
t66.5 24.5q71 0 95 -66l180 -460h4l178 460q24 66 95 66q41 0 66.5 -24.5t25.5 -64.5v-572q0 -37 -18.5 -57.5t-51.5 -20.5q-32 0 -50.5 21t-18.5 57v395h-7l-154 -390q-19 -49 -69 -49t-68 49l-153 390h-7v-395q0 -37 -18.5 -57.5t-51.5 -20.5z" />
    <glyph glyph-name="uni1000AE.small" unicode="N&#x20de;" horiz-adv-x="1876" 
d="M465 -17q-131 0 -198 66t-67 196v952q0 130 67 196t198 66h946q265 0 265 -262v-952q0 -262 -265 -262h-946zM475 153h926q105 0 105 107v922q0 107 -105 107h-926q-105 0 -105 -107v-922q0 -107 105 -107zM707 362q-34 0 -54 21.5t-20 59.5v575q0 35 19.5 56.5
t53.5 21.5q44 0 78 -46l303 -422h6v387q0 38 19.5 59.5t54.5 21.5q36 0 56 -21.5t20 -59.5v-576q0 -37 -19.5 -57t-54.5 -20q-23 0 -39.5 10t-35.5 35l-306 418h-5v-382q0 -38 -20 -59.5t-56 -21.5z" />
    <glyph glyph-name="uni1000B0.small" unicode="O&#x20de;" horiz-adv-x="1876" 
d="M465 -17q-131 0 -198 66t-67 196v952q0 130 67 196t198 66h946q265 0 265 -262v-952q0 -262 -265 -262h-946zM475 153h926q105 0 105 107v922q0 107 -105 107h-926q-105 0 -105 -107v-922q0 -107 105 -107zM938 354q-152 0 -249 104t-97 271t97 271t249 104
q153 0 250 -104t97 -271t-97 -271t-250 -104zM938 484q83 0 132.5 66t49.5 179t-49.5 179t-132.5 66q-82 0 -132 -66t-50 -179t50 -179t132 -66z" />
    <glyph glyph-name="uni1000B2.small" unicode="P&#x20de;" horiz-adv-x="1876" 
d="M465 -17q-131 0 -198 66t-67 196v952q0 130 67 196t198 66h946q265 0 265 -262v-952q0 -262 -265 -262h-946zM475 153h926q105 0 105 107v922q0 107 -105 107h-926q-105 0 -105 -107v-922q0 -107 105 -107zM769 362q-40 0 -61 24.5t-21 68.5v537q0 44 22 68.5t63 24.5
h215q119 0 192 -69t73 -182q0 -114 -73 -182.5t-194 -68.5h-133v-128q0 -44 -21.5 -68.5t-61.5 -24.5zM852 705h109q63 0 97.5 34t34.5 95t-35 95t-97 34h-109v-258z" />
    <glyph glyph-name="uni1000B4.small" unicode="Q&#x20de;" horiz-adv-x="1876" 
d="M465 -17q-131 0 -198 66t-67 196v952q0 130 67 196t198 66h946q265 0 265 -262v-952q0 -262 -265 -262h-946zM475 153h926q105 0 105 107v922q0 107 -105 107h-926q-105 0 -105 -107v-922q0 -107 105 -107zM938 354q-152 0 -249 104t-97 271t97 271t249 104
q153 0 250 -104t97 -271q0 -190 -122 -294l35 -47q22 -30 22 -53q0 -26 -17 -42.5t-44 -16.5q-37 0 -63 37l-43 60q-51 -19 -115 -19zM938 484q29 0 45 5l-25 35q-15 20 -15 42q0 21 15.5 35.5t37.5 14.5q27 0 43 -21l31 -41q50 64 50 175q0 113 -49.5 179t-132.5 66
q-82 0 -132 -66t-50 -179t50 -179t132 -66z" />
    <glyph glyph-name="uni1000B6.small" unicode="R&#x20de;" horiz-adv-x="1876" 
d="M465 -17q-131 0 -198 66t-67 196v952q0 130 67 196t198 66h946q265 0 265 -262v-952q0 -262 -265 -262h-946zM475 153h926q105 0 105 107v922q0 107 -105 107h-926q-105 0 -105 -107v-922q0 -107 105 -107zM735 362q-38 0 -58.5 23.5t-20.5 65.5v541q0 44 22 68.5
t63 24.5h221q128 0 201 -62.5t73 -172.5q0 -72 -39.5 -129t-106.5 -80l104 -156q17 -26 17 -55q0 -30 -20.5 -49t-53.5 -19q-26 0 -43.5 12t-36.5 42l-123 199h-119v-164q0 -42 -20.5 -65.5t-59.5 -23.5zM815 730h123q64 0 100 30t36 86q0 57 -36 88.5t-97 31.5h-126v-236z
" />
    <glyph glyph-name="uni1000B8.small" unicode="S&#x20de;" horiz-adv-x="1876" 
d="M465 -17q-131 0 -198 66t-67 196v952q0 130 67 196t198 66h946q265 0 265 -262v-952q0 -262 -265 -262h-946zM475 153h926q105 0 105 107v922q0 107 -105 107h-926q-105 0 -105 -107v-922q0 -107 105 -107zM928 354q-102 0 -173.5 39t-96.5 95q-11 21 -11 45q0 31 19 49
t51 18q42 0 70 -42q49 -77 150 -77q58 0 93.5 22.5t35.5 65.5q0 35 -24 52.5t-90 35.5l-106 28q-97 25 -146 72.5t-49 123.5q0 98 79.5 160t205.5 62q97 0 166.5 -38t95.5 -98q11 -25 11 -44q0 -31 -19 -47.5t-49 -16.5q-45 0 -72 42q-23 41 -55.5 59.5t-81.5 18.5
q-54 0 -84 -22.5t-30 -63.5q0 -31 23.5 -50.5t76.5 -31.5l99 -25q216 -52 216 -203q0 -105 -83 -167t-222 -62z" />
    <glyph glyph-name="uni1000BA.small" unicode="T&#x20de;" horiz-adv-x="1876" 
d="M465 -17q-131 0 -198 66t-67 196v952q0 130 67 196t198 66h946q265 0 265 -262v-952q0 -262 -265 -262h-946zM475 153h926q105 0 105 107v922q0 107 -105 107h-926q-105 0 -105 -107v-922q0 -107 105 -107zM937 359q-41 0 -63 25.5t-22 69.5v497h-166q-31 0 -50.5 18
t-19.5 49t19.5 49t50.5 18h503q32 0 51 -18t19 -49t-19 -49t-51 -18h-167v-497q0 -45 -22 -70t-63 -25z" />
    <glyph glyph-name="uni1000BC.small" unicode="U&#x20de;" horiz-adv-x="1876" 
d="M465 -17q-131 0 -198 66t-67 196v952q0 130 67 196t198 66h946q265 0 265 -262v-952q0 -262 -265 -262h-946zM475 153h926q105 0 105 107v922q0 107 -105 107h-926q-105 0 -105 -107v-922q0 -107 105 -107zM938 354q-143 0 -230.5 74.5t-87.5 197.5v378q0 44 21.5 68
t60.5 24t60.5 -24t21.5 -68v-362q0 -70 42 -112t112 -42t112 42t42 112v362q0 43 21.5 67.5t59.5 24.5q40 0 61.5 -24t21.5 -68v-378q0 -123 -87.5 -197.5t-230.5 -74.5z" />
    <glyph glyph-name="uni1000BE.small" unicode="V&#x20de;" horiz-adv-x="1876" 
d="M465 -17q-131 0 -198 66t-67 196v952q0 130 67 196t198 66h946q265 0 265 -262v-952q0 -262 -265 -262h-946zM475 153h926q105 0 105 107v922q0 107 -105 107h-926q-105 0 -105 -107v-922q0 -107 105 -107zM938 354q-50 0 -78.5 22.5t-46.5 74.5l-196 523q-8 26 -8 43
q0 34 23.5 56t60.5 22q35 0 55.5 -17t31.5 -55l155 -486h6l155 486q11 38 31.5 55t54.5 17q37 0 60.5 -22t23.5 -56q0 -19 -7 -43l-195 -521q-18 -51 -48 -75t-78 -24z" />
    <glyph glyph-name="uni1000C0.small" unicode="W&#x20de;" horiz-adv-x="1876" 
d="M465 -17q-131 0 -198 66t-67 196v952q0 130 67 196t198 66h946q265 0 265 -262v-952q0 -262 -265 -262h-946zM475 153h926q105 0 105 107v922q0 107 -105 107h-926q-105 0 -105 -107v-922q0 -107 105 -107zM731 354q-77 0 -95 77l-141 564q-4 13 -4 27q0 32 20.5 52.5
t54.5 20.5t52 -18t26 -59l95 -447h7l111 459q15 62 81 62q64 0 81 -63l111 -458h6l96 447q8 41 26.5 59t52.5 18q33 0 53.5 -20.5t20.5 -52.5q0 -14 -4 -27l-142 -564q-18 -77 -95 -77q-79 0 -96 77l-107 432h-6l-107 -432q-18 -77 -97 -77z" />
    <glyph glyph-name="uni1000C2.small" unicode="X&#x20de;" horiz-adv-x="1876" 
d="M465 -17q-131 0 -198 66t-67 196v952q0 130 67 196t198 66h946q265 0 265 -262v-952q0 -262 -265 -262h-946zM475 153h926q105 0 105 107v922q0 107 -105 107h-926q-105 0 -105 -107v-922q0 -107 105 -107zM708 362q-32 0 -53 20t-21 50q0 28 19 55l183 246l-172 231
q-22 29 -22 59q0 31 22.5 52t55.5 21q26 0 42.5 -10t34.5 -37l146 -212h5l141 212q31 47 75 47q33 0 54.5 -20t21.5 -51q0 -28 -20 -55l-182 -241l181 -239q20 -27 20 -55q0 -32 -22 -52.5t-57 -20.5q-24 0 -40 10.5t-36 38.5l-147 210h-4l-148 -210q-19 -28 -35.5 -38.5
t-41.5 -10.5z" />
    <glyph glyph-name="uni1000C4.small" unicode="Y&#x20de;" horiz-adv-x="1876" 
d="M465 -17q-131 0 -198 66t-67 196v952q0 130 67 196t198 66h946q265 0 265 -262v-952q0 -262 -265 -262h-946zM475 153h926q105 0 105 107v922q0 107 -105 107h-926q-105 0 -105 -107v-922q0 -107 105 -107zM938 362q-40 0 -61.5 25.5t-21.5 69.5v159l-208 360
q-13 25 -13 48q0 30 22 51t55 21q29 0 46 -12t32 -43l148 -272h5l147 272q16 31 32.5 43t44.5 12q34 0 55 -21t21 -53q0 -24 -13 -46l-206 -358v-161q0 -45 -22 -70t-63 -25z" />
    <glyph glyph-name="uni1000C6.small" unicode="Z&#x20de;" horiz-adv-x="1876" 
d="M465 -17q-131 0 -198 66t-67 196v952q0 130 67 196t198 66h946q265 0 265 -262v-952q0 -262 -265 -262h-946zM475 153h926q105 0 105 107v922q0 107 -105 107h-926q-105 0 -105 -107v-922q0 -107 105 -107zM721 373q-32 0 -52 19t-20 49q0 31 29 69l321 436v7h-286
q-31 0 -50.5 17.5t-19.5 48.5q0 30 19.5 48t50.5 18h422q32 0 52.5 -19.5t20.5 -50.5q0 -34 -26 -66l-321 -437v-7h303q32 0 51 -17.5t19 -48.5q0 -30 -19.5 -48t-50.5 -18h-443z" />
    <glyph glyph-name="uni100005.small" unicode="A&#x20dd;&#x25cf;" 
d="M957 -95q-165 0 -316 65.5t-260.5 175t-175 260.5t-65.5 316t65 316t174.5 260.5t260.5 175t316 65.5t316 -65.5t261 -175t175.5 -260.5t65.5 -316t-65.5 -316t-175 -260.5t-260.5 -175t-316 -65.5zM697 340q61 0 82 70l45 137h263l46 -137q20 -70 81 -70q37 0 58.5 20.5
t21.5 54.5q0 22 -11 55l-203 556q-32 92 -125 92q-91 0 -124 -92l-202 -556q-11 -33 -11 -55q0 -34 21.5 -54.5t57.5 -20.5zM860 670l91 284h10l91 -284h-192z" />
    <glyph glyph-name="uni100007.small" unicode="B&#x20dd;&#x25cf;" 
d="M957 -95q-165 0 -316 65.5t-260.5 175t-175 260.5t-65.5 316t65 316t174.5 260.5t260.5 175t316 65.5t316 -65.5t261 -175t175.5 -260.5t65.5 -316t-65.5 -316t-175 -260.5t-260.5 -175t-316 -65.5zM768 357h244q125 0 200.5 57t75.5 152q0 75 -47 123.5t-130 59.5v6
q63 14 99.5 58t36.5 105q0 85 -63.5 134t-172.5 49h-243q-47 0 -72.5 -25t-25.5 -72v-550q0 -46 25.5 -71.5t72.5 -25.5zM835 794v190h135q53 0 83.5 -25t30.5 -68q0 -97 -149 -97h-100zM835 477v210h144q66 0 102.5 -28t36.5 -80t-42 -77t-131 -25h-110z" />
    <glyph glyph-name="uni100009.small" unicode="C&#x20dd;&#x25cf;" 
d="M957 -95q-165 0 -316 65.5t-260.5 175t-175 260.5t-65.5 316t65 316t174.5 260.5t260.5 175t316 65.5t316 -65.5t261 -175t175.5 -260.5t65.5 -316t-65.5 -316t-175 -260.5t-260.5 -175t-316 -65.5zM956 337q110 0 191.5 46t115.5 128q8 20 8 45q0 33 -20 52t-55 19
q-45 0 -71 -48q-51 -101 -167 -101q-85 0 -135.5 68.5t-50.5 182.5t50.5 182.5t135.5 68.5q116 0 167 -101q27 -49 71 -49q35 0 55 19t20 52q0 25 -8 46q-34 81 -116 127.5t-191 46.5q-165 0 -262 -106.5t-97 -285.5q0 -180 97 -286t262 -106z" />
    <glyph glyph-name="uni10000B.small" unicode="D&#x20dd;&#x25cf;" 
d="M957 -95q-165 0 -316 65.5t-260.5 175t-175 260.5t-65.5 316t65 316t174.5 260.5t260.5 175t316 65.5t316 -65.5t261 -175t175.5 -260.5t65.5 -316t-65.5 -316t-175 -260.5t-260.5 -175t-316 -65.5zM751 357h205q177 0 271.5 96.5t94.5 276.5t-94 275.5t-272 95.5h-205
q-44 0 -67 -26t-23 -72v-548q0 -46 23 -72t67 -26zM828 487v483h106q214 0 214 -242q0 -241 -214 -241h-106z" />
    <glyph glyph-name="uni10000D.small" unicode="E&#x20dd;&#x25cf;" 
d="M957 -95q-165 0 -316 65.5t-260.5 175t-175 260.5t-65.5 316t65 316t174.5 260.5t260.5 175t316 65.5t316 -65.5t261 -175t175.5 -260.5t65.5 -316t-65.5 -316t-175 -260.5t-260.5 -175t-316 -65.5zM776 357h369q33 0 52.5 18.5t19.5 49.5q0 32 -19.5 50t-52.5 18h-288
v178h271q31 0 49 16.5t18 45.5q0 30 -18 46.5t-49 16.5h-271v169h288q33 0 52.5 18.5t19.5 49.5q0 32 -19.5 50t-52.5 18h-369q-44 0 -67 -26t-23 -72v-548q0 -46 23 -72t67 -26z" />
    <glyph glyph-name="uni10000F.small" unicode="F&#x20dd;&#x25cf;" 
d="M957 -96q-165 0 -316 65.5t-260.5 175t-175 260.5t-65.5 316t65 316t174.5 260.5t260.5 175t316 65.5t316 -65.5t261 -175t175.5 -260.5t65.5 -316t-65.5 -316t-175 -260.5t-260.5 -175t-316 -65.5zM781 344q42 0 64.5 26t22.5 72v215h268q30 0 48.5 16.5t18.5 46.5
t-18.5 47t-48.5 17h-268v180h293q33 0 52.5 18.5t19.5 49.5q0 33 -19.5 51t-52.5 18h-377q-43 0 -66 -26.5t-23 -72.5v-560q0 -45 22.5 -71.5t63.5 -26.5z" />
    <glyph glyph-name="uni100011.small" unicode="G&#x20dd;&#x25cf;" 
d="M957 -95q-165 0 -316 65.5t-260.5 175t-175 260.5t-65.5 316t65 316t174.5 260.5t260.5 175t316 65.5t316 -65.5t261 -175t175.5 -260.5t65.5 -316t-65.5 -316t-175 -260.5t-260.5 -175t-316 -65.5zM958 336q153 0 242 80.5t89 208.5v50q0 43 -22.5 65.5t-63.5 22.5h-193
q-28 0 -44.5 -16t-16.5 -42q0 -24 16.5 -40.5t44.5 -16.5h112v-47q0 -59 -41.5 -94t-118.5 -35q-87 0 -139 70.5t-52 186.5q0 115 51.5 185t136.5 70q114 0 166 -100q25 -45 72 -45q34 0 53.5 18.5t19.5 50.5q0 22 -9 44q-33 79 -114 124.5t-192 45.5q-164 0 -261 -106.5
t-97 -286.5q0 -181 97.5 -287t263.5 -106z" />
    <glyph glyph-name="uni100013.small" unicode="H&#x20dd;&#x25cf;" 
d="M957 -95q-165 0 -316 65.5t-260.5 175t-175 260.5t-65.5 316t65 316t174.5 260.5t260.5 175t316 65.5t316 -65.5t261 -175t175.5 -260.5t65.5 -316t-65.5 -316t-175 -260.5t-260.5 -175t-316 -65.5zM704 345q42 0 65.5 26t23.5 73v226h326v-226q0 -47 23 -73t64 -26
q42 0 65.5 26t23.5 73v570q0 47 -23.5 73t-65.5 26q-41 0 -64 -26t-23 -73v-210h-326v210q0 47 -23.5 73t-65.5 26q-41 0 -64.5 -26.5t-23.5 -72.5v-570q0 -46 23.5 -72.5t64.5 -26.5z" />
    <glyph glyph-name="uni100015.small" unicode="I&#x20dd;&#x25cf;" 
d="M957 -95q-165 0 -316 65.5t-260.5 175t-175 260.5t-65.5 316t65 316t174.5 260.5t260.5 175t316 65.5t316 -65.5t261 -175t175.5 -260.5t65.5 -316t-65.5 -316t-175 -260.5t-260.5 -175t-316 -65.5zM955 345q44 0 67.5 26.5t23.5 74.5v566q0 48 -23.5 74.5t-67.5 26.5
q-42 0 -65.5 -27.5t-23.5 -73.5v-566q0 -46 23.5 -73.5t65.5 -27.5z" />
    <glyph glyph-name="uni100017.small" unicode="J&#x20dd;&#x25cf;" 
d="M957 -95q-165 0 -316 65.5t-260.5 175t-175 260.5t-65.5 316t65 316t174.5 260.5t260.5 175t316 65.5t316 -65.5t261 -175t175.5 -260.5t65.5 -316t-65.5 -316t-175 -260.5t-260.5 -175t-316 -65.5zM917 343q129 0 197.5 65t68.5 189v414q0 46 -22.5 71.5t-63.5 25.5
t-63 -26t-22 -71v-411q0 -54 -24 -83.5t-66 -29.5q-71 0 -101 67q-23 55 -78 55q-35 0 -57 -21.5t-22 -56.5q0 -25 8 -44q23 -67 89 -105.5t156 -38.5z" />
    <glyph glyph-name="uni100019.small" unicode="&#x212a;&#x20dd;&#x25cf;" 
d="M957 -95q-165 0 -316 65.5t-260.5 175t-175 260.5t-65.5 316t65 316t174.5 260.5t260.5 175t316 65.5t316 -65.5t261 -175t175.5 -260.5t65.5 -316t-65.5 -316t-175 -260.5t-260.5 -175t-316 -65.5zM742 348q41 0 64 25t23 70v127l89 95l205 -275q30 -42 73 -42
q37 0 60 22t23 57q0 29 -23 63l-213 282l195 205q26 29 26 61q0 30 -23 51t-56 21q-34 0 -69 -36l-282 -298h-5v237q0 46 -23 71.5t-64 25.5q-40 0 -62 -25.5t-22 -71.5v-568q0 -46 22 -71.5t62 -25.5z" />
    <glyph glyph-name="uni10001B.small" unicode="L&#x20dd;&#x25cf;" 
d="M957 -95q-165 0 -316 65.5t-260.5 175t-175 260.5t-65.5 316t65 316t174.5 260.5t260.5 175t316 65.5t316 -65.5t261 -175t175.5 -260.5t65.5 -316t-65.5 -316t-175 -260.5t-260.5 -175t-316 -65.5zM811 357h360q34 0 54.5 19.5t20.5 52.5t-20.5 52t-54.5 19h-270v513
q0 47 -23.5 73.5t-66.5 26.5t-66 -26.5t-23 -73.5v-555q0 -47 23 -74t66 -27z" />
    <glyph glyph-name="uni10001D.small" unicode="M&#x20dd;&#x25cf;" 
d="M957 -95q-165 0 -316 65.5t-260.5 175t-175 260.5t-65.5 316t65 316t174.5 260.5t260.5 175t316 65.5t316 -65.5t261 -175t175.5 -260.5t65.5 -316t-65.5 -316t-175 -260.5t-260.5 -175t-316 -65.5zM644 340q35 0 54 21.5t19 60.5v412h8l158 -407q21 -51 72 -51
q53 0 73 51l159 407h8v-412q0 -38 19 -60t53 -22q35 0 54.5 21.5t19.5 60.5v597q0 42 -26.5 68t-69.5 26q-75 0 -100 -69l-186 -480h-4l-188 480q-25 69 -100 69q-43 0 -69.5 -26t-26.5 -68v-597q0 -38 19.5 -60t53.5 -22z" />
    <glyph glyph-name="uni10001F.small" unicode="N&#x20dd;&#x25cf;" 
d="M957 -95q-165 0 -316 65.5t-260.5 175t-175 260.5t-65.5 316t65 316t174.5 260.5t260.5 175t316 65.5t316 -65.5t261 -175t175.5 -260.5t65.5 -316t-65.5 -316t-175 -260.5t-260.5 -175t-316 -65.5zM715 345q38 0 58.5 22.5t20.5 62.5v398h6l319 -435q33 -48 79 -48
q36 0 56.5 21.5t20.5 59.5v602q0 40 -21 62.5t-59 22.5q-36 0 -56.5 -23t-20.5 -62v-403h-7l-316 439q-20 28 -38 38.5t-43 10.5q-36 0 -56.5 -22.5t-20.5 -60.5v-600q0 -39 20.5 -62t57.5 -23z" />
    <glyph glyph-name="uni100021.small" unicode="O&#x20dd;&#x25cf;" 
d="M957 -95q-165 0 -316 65.5t-260.5 175t-175 260.5t-65.5 316t65 316t174.5 260.5t260.5 175t316 65.5t316 -65.5t261 -175t175.5 -260.5t65.5 -316t-65.5 -316t-175 -260.5t-260.5 -175t-316 -65.5zM956 337q160 0 261.5 108.5t101.5 283.5t-101.5 283.5t-261.5 108.5
q-159 0 -260.5 -108.5t-101.5 -283.5t101.5 -283.5t260.5 -108.5zM956 473q-86 0 -137.5 69t-51.5 187t51.5 187t137.5 69t138 -69t52 -187t-52 -187t-138 -69z" />
    <glyph glyph-name="uni100023.small" unicode="P&#x20dd;&#x25cf;" 
d="M957 -95q-165 0 -316 65.5t-260.5 175t-175 260.5t-65.5 316t65 316t174.5 260.5t260.5 175t316 65.5t316 -65.5t261 -175t175.5 -260.5t65.5 -316t-65.5 -316t-175 -260.5t-260.5 -175t-316 -65.5zM779 345q42 0 65 26t23 72v134h138q127 0 203.5 71.5t76.5 190.5
q0 118 -76.5 190.5t-201.5 72.5h-224q-43 0 -66.5 -26.5t-23.5 -72.5v-560q0 -45 22.5 -71.5t63.5 -26.5zM867 705v268h114q65 0 100.5 -35t35.5 -99t-35.5 -99t-100.5 -35h-114z" />
    <glyph glyph-name="uni100025.small" unicode="Q&#x20dd;&#x25cf;" 
d="M957 -95q-165 0 -316 65.5t-260.5 175t-175 260.5t-65.5 316t65 316t174.5 260.5t260.5 175t316 65.5t316 -65.5t261 -175t175.5 -260.5t65.5 -316t-65.5 -316t-175 -260.5t-260.5 -175t-316 -65.5zM956 337q64 0 119 20l46 -61q28 -40 66 -40q29 0 46.5 17t17.5 45
q0 24 -23 55l-37 49q128 109 128 307q0 175 -101.5 284t-261.5 109q-159 0 -260.5 -109t-101.5 -284q0 -174 101.5 -283t260.5 -109zM956 474q-86 0 -137.5 68.5t-51.5 186.5t51.5 187t137.5 69t138 -69t52 -187q0 -113 -52 -181l-33 42q-17 22 -44 22q-23 0 -39.5 -15.5
t-16.5 -37.5q0 -23 16 -43l26 -37q-17 -5 -47 -5z" />
    <glyph glyph-name="uni100027.small" unicode="R&#x20dd;&#x25cf;" 
d="M957 -95q-165 0 -316 65.5t-260.5 175t-175 260.5t-65.5 316t65 316t174.5 260.5t260.5 175t316 65.5t316 -65.5t261 -175t175.5 -260.5t65.5 -316t-65.5 -316t-175 -260.5t-260.5 -175t-316 -65.5zM743 345q40 0 62 24.5t22 69.5v171h125l128 -208q20 -32 38 -44.5
t46 -12.5q34 0 55.5 20t21.5 52q0 30 -18 58l-108 162q70 25 111.5 84t41.5 134q0 115 -77 181t-210 66h-232q-43 0 -66 -26.5t-23 -72.5v-564q0 -44 21.5 -69t61.5 -25zM827 731v245h132q63 0 100.5 -33t37.5 -92q0 -58 -37.5 -89t-103.5 -31h-129z" />
    <glyph glyph-name="uni100029.small" unicode="S&#x20dd;&#x25cf;" 
d="M957 -95q-165 0 -316 65.5t-260.5 175t-175 260.5t-65.5 316t65 316t174.5 260.5t260.5 175t316 65.5t316 -65.5t261 -175t175.5 -260.5t65.5 -316t-65.5 -316t-175 -260.5t-260.5 -175t-316 -65.5zM946 337q145 0 232 65t87 174q0 83 -57 134.5t-169 78.5l-104 25
q-55 13 -79 33.5t-24 52.5q0 43 30.5 66.5t86.5 23.5q52 0 85.5 -19t58.5 -62q29 -45 75 -45q32 0 51.5 18t19.5 50q0 23 -11 46q-27 63 -100 102.5t-174 39.5q-133 0 -216 -65t-83 -168q0 -153 205 -204l110 -30q69 -18 94 -37t25 -55q0 -44 -36.5 -67t-97.5 -23
q-106 0 -156 80q-29 44 -74 44q-34 0 -54 -19.5t-20 -51.5q0 -24 12 -48q27 -58 101.5 -98.5t181.5 -40.5z" />
    <glyph glyph-name="uni10002B.small" unicode="T&#x20dd;&#x25cf;" 
d="M957 -95q-165 0 -316 65.5t-260.5 175t-175 260.5t-65.5 316t65 316t174.5 260.5t260.5 175t316 65.5t316 -65.5t261 -175t175.5 -260.5t65.5 -316t-65.5 -316t-175 -260.5t-260.5 -175t-316 -65.5zM955 342q43 0 66.5 27t23.5 74v517h173q33 0 53.5 19t20.5 52t-20 52
t-54 19h-525q-34 0 -54 -19t-20 -52t20.5 -52t53.5 -19h173v-517q0 -47 23 -74t66 -27z" />
    <glyph glyph-name="uni10002D.small" unicode="U&#x20dd;&#x25cf;" 
d="M957 -95q-165 0 -316 65.5t-260.5 175t-175 260.5t-65.5 316t65 316t174.5 260.5t260.5 175t316 65.5t316 -65.5t261 -175t175.5 -260.5t65.5 -316t-65.5 -316t-175 -260.5t-260.5 -175t-316 -65.5zM956 337q150 0 241.5 78t91.5 207v395q0 46 -23 71t-65 25
q-41 0 -63 -25t-22 -71v-378q0 -74 -43 -117.5t-117 -43.5t-117 43.5t-43 117.5v378q0 46 -22.5 71t-64.5 25q-41 0 -63.5 -25t-22.5 -71v-395q0 -129 91.5 -207t241.5 -78z" />
    <glyph glyph-name="uni10002F.small" unicode="V&#x20dd;&#x25cf;" 
d="M957 -95q-165 0 -316 65.5t-260.5 175t-175 260.5t-65.5 316t65 316t174.5 260.5t260.5 175t316 65.5t316 -65.5t261 -175t175.5 -260.5t65.5 -316t-65.5 -316t-175 -260.5t-260.5 -175t-316 -65.5zM956 337q51 0 82 25t50 80l204 543q8 27 8 45q0 37 -25 59.5t-64 22.5
q-36 0 -57.5 -18t-33.5 -58l-161 -507h-6l-162 507q-12 40 -33 58t-57 18q-39 0 -64 -23t-25 -60q0 -21 8 -44l204 -546q20 -55 50 -78.5t82 -23.5z" />
    <glyph glyph-name="uni100031.small" unicode="W&#x20dd;&#x25cf;" 
d="M957 -95q-165 0 -316 65.5t-260.5 175t-175 260.5t-65.5 316t65 316t174.5 260.5t260.5 175t316 65.5t316 -65.5t261 -175t175.5 -260.5t65.5 -316t-65.5 -316t-175 -260.5t-260.5 -175t-316 -65.5zM739 337q84 0 102 81l112 450h6l111 -450q18 -81 101 -81q82 0 100 82
l148 588q4 13 4 28q0 34 -21.5 55.5t-56.5 21.5t-54.5 -19t-27.5 -61l-100 -468h-7l-116 479q-15 66 -84 66q-70 0 -85 -65l-116 -480h-6l-100 468q-8 42 -27 61t-55 19q-35 0 -56 -21.5t-21 -55.5q0 -18 3 -28l147 -588q18 -82 99 -82z" />
    <glyph glyph-name="uni100033.small" unicode="X&#x20dd;&#x25cf;" 
d="M957 -95q-165 0 -316 65.5t-260.5 175t-175 260.5t-65.5 316t65 316t174.5 260.5t260.5 175t316 65.5t316 -65.5t261 -175t175.5 -260.5t65.5 -316t-65.5 -316t-175 -260.5t-260.5 -175t-316 -65.5zM717 345q25 0 42 11t38 41l154 219h4l153 -219q20 -29 37.5 -40.5
t42.5 -11.5q36 0 59.5 21.5t23.5 55.5q0 30 -22 58l-187 249l188 251q22 29 22 58q0 32 -23 53.5t-57 21.5q-47 0 -78 -50l-148 -220h-5l-152 221q-19 27 -36.5 38t-44.5 11q-34 0 -58 -22.5t-24 -54.5q0 -31 24 -62l179 -241l-190 -257q-21 -26 -21 -57q0 -32 22.5 -53
t56.5 -21z" />
    <glyph glyph-name="uni100035.small" unicode="Y&#x20dd;&#x25cf;" 
d="M957 -95q-165 0 -316 65.5t-260.5 175t-175 260.5t-65.5 316t65 316t174.5 260.5t260.5 175t316 65.5t316 -65.5t261 -175t175.5 -260.5t65.5 -316t-65.5 -316t-175 -260.5t-260.5 -175t-316 -65.5zM956 345q43 0 66.5 26.5t23.5 74.5v167l215 374q14 25 14 48
q0 34 -23 56t-58 22q-29 0 -46.5 -13t-33.5 -45l-154 -284h-5l-153 284q-16 33 -34.5 45.5t-48.5 12.5q-34 0 -57.5 -22.5t-23.5 -54.5q0 -25 14 -49l216 -376v-165q0 -47 23 -74t65 -27z" />
    <glyph glyph-name="uni100037.small" unicode="Z&#x20dd;&#x25cf;" 
d="M957 -95q-165 0 -316 65.5t-260.5 175t-175 260.5t-65.5 316t65 316t174.5 260.5t260.5 175t316 65.5t316 -65.5t261 -175t175.5 -260.5t65.5 -316t-65.5 -316t-175 -260.5t-260.5 -175t-316 -65.5zM730 357h462q33 0 53.5 19t20.5 50q0 32 -20 50.5t-54 18.5h-316v8
l335 455q28 36 28 69t-21.5 53.5t-56.5 20.5h-440q-33 0 -53.5 -18.5t-20.5 -50.5q0 -33 20.5 -51.5t53.5 -18.5h298v-8l-335 -453q-30 -40 -30 -73q0 -32 21 -51.5t55 -19.5z" />
    <glyph glyph-name="uni100095.small" unicode="A&#x20de;&#x25a0;" horiz-adv-x="1876" 
d="M465 -17q-131 0 -198 66t-67 196v952q0 130 67 196t198 66h946q265 0 265 -262v-952q0 -262 -265 -262h-946zM681 340q61 0 82 70l45 137h263l46 -137q20 -70 81 -70q36 0 57.5 20.5t21.5 54.5q0 26 -11 55l-202 556q-32 92 -126 92q-90 0 -123 -92l-202 -556
q-11 -29 -11 -55q0 -34 21.5 -54.5t57.5 -20.5zM844 670l91 284h9l91 -284h-191z" />
    <glyph glyph-name="uni100097.small" unicode="B&#x20de;&#x25a0;" horiz-adv-x="1876" 
d="M465 -17q-131 0 -198 66t-67 196v952q0 130 67 196t198 66h946q265 0 265 -262v-952q0 -262 -265 -262h-946zM752 357h244q125 0 200.5 57t75.5 152q0 75 -47.5 124t-130.5 59v6q64 14 100.5 57.5t36.5 105.5q0 85 -63.5 134t-172.5 49h-243q-47 0 -72.5 -25t-25.5 -72
v-550q0 -46 25.5 -71.5t72.5 -25.5zM819 794v190h135q53 0 83.5 -25t30.5 -68q0 -97 -150 -97h-99zM819 477v210h143q66 0 102.5 -28t36.5 -80t-41.5 -77t-130.5 -25h-110z" />
    <glyph glyph-name="uni100099.small" unicode="C&#x20de;&#x25a0;" horiz-adv-x="1876" 
d="M465 -17q-131 0 -198 66t-67 196v952q0 130 67 196t198 66h946q265 0 265 -262v-952q0 -262 -265 -262h-946zM939 337q110 0 192 46t115 128q9 19 9 45q0 33 -20 52t-55 19q-44 0 -72 -48q-51 -101 -166 -101q-85 0 -136 68.5t-51 182.5q0 113 51 182t136 69
q115 0 166 -101q27 -49 72 -49q35 0 55 19t20 52q0 25 -9 46q-33 81 -115 127.5t-192 46.5q-164 0 -261 -106.5t-97 -285.5q0 -180 96.5 -286t261.5 -106z" />
    <glyph glyph-name="uni10009B.small" unicode="D&#x20de;&#x25a0;" horiz-adv-x="1876" 
d="M465 -17q-131 0 -198 66t-67 196v952q0 130 67 196t198 66h946q265 0 265 -262v-952q0 -262 -265 -262h-946zM735 357h205q177 0 271.5 96.5t94.5 276.5t-94 275.5t-272 95.5h-205q-44 0 -67 -26t-23 -72v-548q0 -47 23 -72.5t67 -25.5zM812 487v483h106q214 0 214 -242
q0 -241 -214 -241h-106z" />
    <glyph glyph-name="uni10009F.small" unicode="F&#x20de;&#x25a0;" horiz-adv-x="1876" 
d="M465 -17q-131 0 -198 66t-67 196v952q0 130 67 196t198 66h946q265 0 265 -262v-952q0 -262 -265 -262h-946zM765 345q42 0 64.5 26t22.5 72v215h268q30 0 48.5 16.5t18.5 46.5t-18.5 47t-48.5 17h-268v180h293q33 0 52.5 18.5t19.5 49.5q0 33 -19.5 51t-52.5 18h-377
q-43 0 -66 -26.5t-23 -72.5v-560q0 -45 22.5 -71.5t63.5 -26.5z" />
    <glyph glyph-name="uni1000A1.small" unicode="G&#x20de;&#x25a0;" horiz-adv-x="1876" 
d="M465 -17q-131 0 -198 66t-67 196v952q0 130 67 196t198 66h946q265 0 265 -262v-952q0 -262 -265 -262h-946zM942 336q153 0 242 80.5t89 208.5v50q0 43 -22.5 65.5t-63.5 22.5h-194q-28 0 -44 -15.5t-16 -42.5q0 -24 16.5 -40.5t43.5 -16.5h113v-47q0 -59 -41.5 -94
t-119.5 -35q-86 0 -138 70.5t-52 186.5q0 115 51.5 185t136.5 70q113 0 166 -100q25 -45 72 -45q33 0 53 18.5t20 50.5q0 23 -10 44q-32 79 -113 124.5t-192 45.5q-164 0 -261 -106.5t-97 -286.5q0 -181 97.5 -287t263.5 -106z" />
    <glyph glyph-name="uni1000A3.small" unicode="H&#x20de;&#x25a0;" horiz-adv-x="1876" 
d="M465 -17q-131 0 -198 66t-67 196v952q0 130 67 196t198 66h946q265 0 265 -262v-952q0 -262 -265 -262h-946zM687 345q43 0 66.5 26t23.5 73v226h325v-226q0 -46 23.5 -72.5t64.5 -26.5q42 0 65.5 26t23.5 73v570q0 47 -23.5 73t-65.5 26q-41 0 -64.5 -26.5t-23.5 -72.5
v-210h-325v210q0 47 -23.5 73t-66.5 26q-41 0 -64 -26t-23 -73v-570q0 -47 23 -73t64 -26z" />
    <glyph glyph-name="uni1000A5.small" unicode="I&#x20de;&#x25a0;" horiz-adv-x="1876" 
d="M465 -17q-131 0 -198 66t-67 196v952q0 130 67 196t198 66h946q265 0 265 -262v-952q0 -262 -265 -262h-946zM939 345q43 0 66.5 26.5t23.5 74.5v566q0 48 -23.5 74.5t-66.5 26.5t-66 -27t-23 -74v-566q0 -47 23 -74t66 -27z" />
    <glyph glyph-name="uni1000A7.small" unicode="J&#x20de;&#x25a0;" horiz-adv-x="1876" 
d="M465 -17q-131 0 -198 66t-67 196v952q0 130 67 196t198 66h946q265 0 265 -262v-952q0 -262 -265 -262h-946zM901 343q129 0 197.5 65t68.5 189v414q0 46 -22.5 71.5t-63.5 25.5t-63 -26t-22 -71v-411q0 -54 -24 -83.5t-67 -29.5q-70 0 -100 67q-23 55 -79 55
q-34 0 -56 -21.5t-22 -56.5q0 -25 8 -44q23 -67 88.5 -105.5t156.5 -38.5z" />
    <glyph glyph-name="uni1000A9.small" unicode="&#x212a;&#x20de;&#x25a0;" horiz-adv-x="1876" 
d="M465 -17q-131 0 -198 66t-67 196v952q0 130 67 196t198 66h946q265 0 265 -262v-952q0 -262 -265 -262h-946zM726 348q41 0 63.5 25t22.5 70v127l90 95l204 -275q32 -42 74 -42q36 0 59 22t23 57q0 31 -22 63l-213 282l195 205q26 29 26 61q0 30 -23 51t-56 21
q-36 0 -69 -36l-282 -298h-6v237q0 47 -22.5 72t-63.5 25q-40 0 -62.5 -25.5t-22.5 -71.5v-568q0 -46 22.5 -71.5t62.5 -25.5z" />
    <glyph glyph-name="uni1000AB.small" unicode="L&#x20de;&#x25a0;" horiz-adv-x="1876" 
d="M465 -17q-131 0 -198 66t-67 196v952q0 130 67 196t198 66h946q265 0 265 -262v-952q0 -262 -265 -262h-946zM794 357h361q34 0 54.5 19.5t20.5 52.5t-20.5 52t-54.5 19h-270v513q0 47 -23.5 73.5t-67.5 26.5q-42 0 -65 -27t-23 -73v-555q0 -47 23 -74t65 -27z" />
    <glyph glyph-name="uni1000AD.small" unicode="M&#x20de;&#x25a0;" horiz-adv-x="1876" 
d="M465 -17q-131 0 -198 66t-67 196v952q0 130 67 196t198 66h946q265 0 265 -262v-952q0 -262 -265 -262h-946zM627 340q35 0 54.5 21.5t19.5 60.5v412h8l158 -407q19 -51 71 -51q53 0 73 51l160 407h8v-412q0 -38 19 -60t53 -22q35 0 54.5 21.5t19.5 60.5v597
q0 42 -26.5 68t-69.5 26q-75 0 -101 -69l-185 -480h-5l-187 480q-26 69 -100 69q-43 0 -69.5 -26t-26.5 -68v-597q0 -38 19 -60t53 -22z" />
    <glyph glyph-name="uni1000AF.small" unicode="N&#x20de;&#x25a0;" horiz-adv-x="1876" 
d="M465 -17q-131 0 -198 66t-67 196v952q0 130 67 196t198 66h946q265 0 265 -262v-952q0 -262 -265 -262h-946zM699 345q37 0 58 22.5t21 62.5v398h6l318 -435q19 -27 36.5 -37.5t42.5 -10.5q37 0 57 21.5t20 59.5v602q0 40 -20.5 62.5t-58.5 22.5q-36 0 -56.5 -23
t-20.5 -62v-403h-7l-316 439q-20 28 -38 38.5t-44 10.5q-35 0 -55.5 -22.5t-20.5 -60.5v-600q0 -39 20.5 -62t57.5 -23z" />
    <glyph glyph-name="uni1000B1.small" unicode="O&#x20de;&#x25a0;" horiz-adv-x="1876" 
d="M465 -17q-131 0 -198 66t-67 196v952q0 130 67 196t198 66h946q265 0 265 -262v-952q0 -262 -265 -262h-946zM940 337q160 0 261 108.5t101 283.5t-101 283.5t-261 108.5t-261 -108.5t-101 -283.5t101 -283.5t261 -108.5zM940 473q-86 0 -137.5 69t-51.5 187t51.5 187
t137.5 69t138 -69t52 -187t-52 -187t-138 -69z" />
    <glyph glyph-name="uni1000B3.small" unicode="P&#x20de;&#x25a0;" horiz-adv-x="1876" 
d="M465 -17q-131 0 -198 66t-67 196v952q0 130 67 196t198 66h946q265 0 265 -262v-952q0 -262 -265 -262h-946zM763 345q42 0 65 26t23 72v134h138q127 0 203.5 71.5t76.5 190.5t-76.5 191t-202.5 72h-223q-43 0 -66.5 -26.5t-23.5 -72.5v-560q0 -45 22.5 -71.5t63.5 -26.5
zM851 705v268h113q65 0 101 -35t36 -99t-36 -99t-101 -35h-113z" />
    <glyph glyph-name="uni1000B5.small" unicode="Q&#x20de;&#x25a0;" horiz-adv-x="1876" 
d="M465 -17q-131 0 -198 66t-67 196v952q0 130 67 196t198 66h946q265 0 265 -262v-952q0 -262 -265 -262h-946zM940 337q64 0 119 20l46 -61q28 -40 66 -40q29 0 46.5 17t17.5 45q0 24 -23 55l-37 49q127 108 127 307q0 175 -101 284t-261 109t-261 -109t-101 -284
q0 -174 101 -283t261 -109zM940 474q-86 0 -137.5 68.5t-51.5 186.5t51.5 187t137.5 69t138 -69t52 -187q0 -113 -52 -181l-33 42q-17 22 -44 22q-23 0 -39.5 -15.5t-16.5 -37.5q0 -23 16 -43l26 -37q-19 -5 -47 -5z" />
    <glyph glyph-name="uni1000B7.small" unicode="R&#x20de;&#x25a0;" horiz-adv-x="1876" 
d="M465 -17q-131 0 -198 66t-67 196v952q0 130 67 196t198 66h946q265 0 265 -262v-952q0 -262 -265 -262h-946zM726 345q41 0 63 24.5t22 69.5v171h125l127 -208q20 -32 39 -44.5t46 -12.5q34 0 55.5 20t21.5 52q0 28 -18 58l-108 162q70 25 111 84t41 134q0 115 -76.5 181
t-209.5 66h-232q-43 0 -66 -26.5t-23 -72.5v-564q0 -43 21.5 -68.5t60.5 -25.5zM811 731v245h132q63 0 100.5 -33t37.5 -92q0 -58 -37.5 -89t-103.5 -31h-129z" />
    <glyph glyph-name="uni1000B9.small" unicode="S&#x20de;&#x25a0;" horiz-adv-x="1876" 
d="M465 -17q-131 0 -198 66t-67 196v952q0 130 67 196t198 66h946q265 0 265 -262v-952q0 -262 -265 -262h-946zM930 337q144 0 231 65t87 174q0 83 -57 134.5t-168 78.5l-104 25q-55 13 -79.5 33.5t-24.5 52.5q0 43 31 66.5t87 23.5q52 0 85.5 -19t58.5 -62q29 -45 75 -45
q32 0 51.5 18t19.5 50q0 23 -11 46q-27 63 -100 102.5t-174 39.5q-133 0 -216 -65t-83 -168q0 -153 204 -204l111 -30q69 -18 94 -37t25 -55q0 -44 -37 -67t-97 -23q-106 0 -156 80q-31 44 -74 44q-34 0 -54 -19.5t-20 -51.5q0 -27 12 -48q26 -58 101 -98.5t182 -40.5z" />
    <glyph glyph-name="uni1000BB.small" unicode="T&#x20de;&#x25a0;" horiz-adv-x="1876" 
d="M465 -17q-131 0 -198 66t-67 196v952q0 130 67 196t198 66h946q265 0 265 -262v-952q0 -262 -265 -262h-946zM938 342q44 0 67.5 27t23.5 74v517h173q33 0 53.5 19t20.5 52t-20 52t-54 19h-525q-34 0 -54 -19t-20 -52t20.5 -52t53.5 -19h173v-517q0 -47 23 -74t65 -27z
" />
    <glyph glyph-name="uni1000BD.small" unicode="U&#x20de;&#x25a0;" horiz-adv-x="1876" 
d="M465 -17q-131 0 -198 66t-67 196v952q0 130 67 196t198 66h946q265 0 265 -262v-952q0 -262 -265 -262h-946zM940 337q150 0 241 78t91 207v395q0 46 -22.5 71t-64.5 25q-41 0 -63 -25t-22 -71v-378q0 -74 -43 -117.5t-117 -43.5t-117 43.5t-43 117.5v378q0 46 -23 71
t-64 25t-63.5 -25t-22.5 -71v-395q0 -129 91.5 -207t241.5 -78z" />
    <glyph glyph-name="uni1000BF.small" unicode="V&#x20de;&#x25a0;" horiz-adv-x="1876" 
d="M465 -17q-131 0 -198 66t-67 196v952q0 130 67 196t198 66h946q265 0 265 -262v-952q0 -262 -265 -262h-946zM940 337q96 0 132 105l203 543q8 23 8 45q0 37 -25 59.5t-64 22.5q-36 0 -57 -18t-33 -58l-161 -507h-7l-161 507q-12 40 -33.5 58t-57.5 18q-39 0 -63.5 -23
t-24.5 -60q0 -21 8 -44l204 -546q20 -55 50 -78.5t82 -23.5z" />
    <glyph glyph-name="uni1000C1.small" unicode="W&#x20de;&#x25a0;" horiz-adv-x="1876" 
d="M465 -17q-131 0 -198 66t-67 196v952q0 130 67 196t198 66h946q265 0 265 -262v-952q0 -262 -265 -262h-946zM723 337q84 0 102 81l111 450h7l111 -450q18 -81 101 -81q82 0 100 82l148 588q3 10 3 28q0 34 -21 55.5t-56 21.5q-36 0 -55 -19t-27 -61l-101 -468h-6
l-116 479q-15 66 -85 66q-69 0 -84 -65l-116 -480h-6l-100 468q-8 42 -27.5 61t-54.5 19t-56.5 -21.5t-21.5 -55.5q0 -15 4 -28l147 -588q18 -82 99 -82z" />
    <glyph glyph-name="uni1000C3.small" unicode="X&#x20de;&#x25a0;" horiz-adv-x="1876" 
d="M465 -17q-131 0 -198 66t-67 196v952q0 130 67 196t198 66h946q265 0 265 -262v-952q0 -262 -265 -262h-946zM700 345q26 0 42.5 11t37.5 41l155 219h4l153 -219q20 -29 37.5 -40.5t42.5 -11.5q36 0 59 21.5t23 55.5q0 30 -21 58l-188 249l189 251q22 29 22 58
q0 32 -23 53.5t-57 21.5q-47 0 -78 -50l-148 -220h-5l-152 221q-19 27 -37 38t-44 11q-34 0 -58 -22.5t-24 -54.5q0 -31 23 -62l180 -241l-191 -257q-20 -27 -20 -57q0 -32 22 -53t56 -21z" />
    <glyph glyph-name="uni1000C5.small" unicode="Y&#x20de;&#x25a0;" horiz-adv-x="1876" 
d="M465 -17q-131 0 -198 66t-67 196v952q0 130 67 196t198 66h946q265 0 265 -262v-952q0 -262 -265 -262h-946zM940 345q43 0 66.5 26.5t23.5 74.5v167l214 374q14 22 14 48q0 34 -22.5 56t-57.5 22q-29 0 -46.5 -13t-33.5 -45l-154 -284h-6l-153 284q-16 33 -34 45.5
t-48 12.5q-35 0 -58.5 -22.5t-23.5 -54.5q0 -24 15 -49l216 -376v-165q0 -47 23 -74t65 -27z" />
    <glyph glyph-name="uni1000C7.small" unicode="Z&#x20de;&#x25a0;" horiz-adv-x="1876" 
d="M465 -17q-131 0 -198 66t-67 196v952q0 130 67 196t198 66h946q265 0 265 -262v-952q0 -262 -265 -262h-946zM714 357h462q33 0 53.5 19t20.5 50q0 32 -20 50.5t-54 18.5h-316v8l335 455q28 36 28 69t-21.5 53.5t-56.5 20.5h-440q-33 0 -53.5 -18.5t-20.5 -50.5
q0 -33 20.5 -51.5t53.5 -18.5h297v-8l-334 -453q-30 -40 -30 -73q0 -32 21 -51.5t55 -19.5z" />
    <glyph glyph-name="uni10005C.small" unicode="&#x3f;&#x20dd;" 
d="M957 -95q-165 0 -316 65.5t-260.5 175t-175 260.5t-65.5 316t65 316t174.5 260.5t260.5 175t316 65.5t316 -65.5t261 -175t175.5 -260.5t65.5 -316t-65.5 -316t-175 -260.5t-260.5 -175t-316 -65.5zM957 82q175 0 322 85.5t232 232.5t85 322q0 131 -50.5 249.5
t-136 203.5t-204 135.5t-249.5 50.5q-175 0 -321.5 -85t-231.5 -232t-85 -322t85 -322t232 -232.5t322 -85.5zM939 565q-82 0 -82 74v5q0 50 25 84.5t72 66.5q57 39 78 61.5t21 55.5q0 38 -26.5 60.5t-69.5 22.5q-54 0 -96 -49q-4 -4 -17.5 -19.5t-19.5 -20t-20.5 -10.5
t-32.5 -6q-30 0 -50.5 18.5t-20.5 49.5q0 19 8 43q21 56 89.5 93.5t167.5 37.5q112 0 188.5 -56.5t76.5 -155.5q0 -65 -32 -105.5t-98 -83.5q-40 -26 -59.5 -48t-20.5 -49q-1 -2 -1 -6q-2 -28 -23.5 -45.5t-56.5 -17.5zM937 319q-40 0 -69 26.5t-29 65.5t28.5 65t69.5 26
t69.5 -26t28.5 -65t-28.5 -65.5t-69.5 -26.5z" />
    <glyph glyph-name="uni10005D.small" unicode="&#x3f;&#x20dd;&#x25cf;" 
d="M957 -95q-165 0 -316 65.5t-260.5 175t-175 260.5t-65.5 316t65 316t174.5 260.5t260.5 175t316 65.5t316 -65.5t261 -175t175.5 -260.5t65.5 -316t-65.5 -316t-175 -260.5t-260.5 -175t-316 -65.5zM938 558q37 0 59.5 19t24.5 47v6q2 29 22.5 52t61.5 50q70 44 103.5 87
t33.5 111q0 103 -80.5 162t-197.5 59q-103 0 -175 -39t-94 -98q-9 -27 -9 -46q0 -31 22 -50.5t53 -19.5q19 0 34 6t21.5 10.5t20.5 20.5t18 21q44 51 101 51q45 0 72 -23.5t27 -62.5q0 -34 -22 -57.5t-81 -64.5q-50 -35 -76 -70t-26 -88v-5q0 -78 87 -78zM936 301
q43 0 73 27.5t30 68.5t-30 68.5t-73 27.5t-73 -27.5t-30 -68.5t30 -68.5t73 -27.5z" />
    <glyph glyph-name="uni1000EC.small" unicode="&#x3f;&#x20de;" horiz-adv-x="1876" 
d="M465 -17q-131 0 -198 66t-67 196v952q0 130 67 196t198 66h946q265 0 265 -262v-952q0 -262 -265 -262h-946zM475 153h926q105 0 105 107v922q0 107 -105 107h-926q-105 0 -105 -107v-922q0 -107 105 -107zM921 565q-82 0 -82 74v5q0 50 25 84.5t72 66.5q57 39 78 61.5
t21 55.5q0 38 -26.5 60.5t-69.5 22.5q-54 0 -96 -48q-5 -5 -15 -17t-15 -16.5t-14 -11t-20 -9t-26 -2.5q-30 0 -50.5 18.5t-20.5 48.5q0 21 8 43q21 57 89.5 94t167.5 37q112 0 188.5 -56.5t76.5 -155.5q0 -65 -31.5 -105t-98.5 -84q-78 -49 -80 -97q-1 -2 -1 -6
q-2 -27 -23.5 -45t-56.5 -18zM919 319q-40 0 -69 26.5t-29 65.5t28.5 65t69.5 26t69.5 -26t28.5 -65t-28.5 -65.5t-69.5 -26.5z" />
    <glyph glyph-name="uni1000ED.small" unicode="&#x3f;&#x20de;&#x25a0;" horiz-adv-x="1876" 
d="M465 -17q-131 0 -198 66t-67 196v952q0 130 67 196t198 66h946q265 0 265 -262v-952q0 -262 -265 -262h-946zM921 558q37 0 60 18.5t25 47.5v6q2 29 22.5 52t61.5 50q70 44 103.5 87t33.5 111q0 103 -80.5 162t-197.5 59q-104 0 -175.5 -39t-93.5 -98q-9 -27 -9 -46
q0 -31 22 -50.5t53 -19.5q19 0 33.5 6t21 11t20.5 20.5t19 20.5q44 51 101 51q44 0 71.5 -23.5t27.5 -62.5q0 -24 -14 -45t-31 -34.5t-58 -42.5q-50 -35 -76 -70t-26 -88v-5q0 -78 86 -78zM920 301q43 0 73 27.5t30 68.5t-30 68.5t-73 27.5t-73 -27.5t-30 -68.5t30 -68.5
t73 -27.5z" />
    <glyph glyph-name="uni10005E.small" unicode="&#x21;&#x20dd;" 
d="M957 -95q-165 0 -316 65.5t-260.5 175t-175 260.5t-65.5 316t65 316t174.5 260.5t260.5 175t316 65.5t316 -65.5t261 -175t175.5 -260.5t65.5 -316t-65.5 -316t-175 -260.5t-260.5 -175t-316 -65.5zM957 82q175 0 322 85.5t232 232.5t85 322q0 131 -50.5 249.5
t-136 203.5t-204 135.5t-249.5 50.5q-175 0 -321.5 -85t-231.5 -232t-85 -322t85 -322t232 -232.5t322 -85.5zM956 592q-74 0 -77 74l-12 377q-1 37 23.5 61t64.5 24q39 0 64.5 -24.5t24.5 -61.5l-13 -375q-1 -75 -75 -75zM956 326q-40 0 -69 26t-29 65t28.5 65.5t69.5 26.5
t69.5 -26.5t28.5 -65.5t-28.5 -65t-69.5 -26z" />
    <glyph glyph-name="uni10005F.small" unicode="&#x21;&#x20dd;&#x25cf;" 
d="M957 -95q-165 0 -316 65.5t-260.5 175t-175 260.5t-65.5 316t65 316t174.5 260.5t260.5 175t316 65.5t316 -65.5t261 -175t175.5 -260.5t65.5 -316t-65.5 -316t-175 -260.5t-260.5 -175t-316 -65.5zM956 586q77 0 79 79l13 391q1 39 -25.5 64.5t-67.5 25.5t-67 -25
t-25 -65l12 -391q3 -79 81 -79zM956 308q43 0 73 27.5t30 68.5t-30 68.5t-73 27.5t-73 -27.5t-30 -68.5t30 -68.5t73 -27.5z" />
    <glyph glyph-name="uni1000EE.small" unicode="&#x21;&#x20de;" horiz-adv-x="1876" 
d="M465 -17q-131 0 -198 66t-67 196v952q0 130 67 196t198 66h946q265 0 265 -262v-952q0 -262 -265 -262h-946zM475 153h926q105 0 105 107v922q0 107 -105 107h-926q-105 0 -105 -107v-922q0 -107 105 -107zM938 592q-74 0 -77 75l-12 376q-1 38 23.5 61.5t64.5 23.5
q39 0 64.5 -24.5t24.5 -61.5l-13 -375q-1 -75 -75 -75zM938 326q-40 0 -69 26.5t-29 65.5t28.5 65t69.5 26t69.5 -26t28.5 -65q0 -40 -28.5 -66t-69.5 -26z" />
    <glyph glyph-name="uni1000EF.small" unicode="&#x21;&#x20de;&#x25a0;" horiz-adv-x="1876" 
d="M465 -17q-131 0 -198 66t-67 196v952q0 130 67 196t198 66h946q265 0 265 -262v-952q0 -262 -265 -262h-946zM940 586q76 0 79 79l13 391q1 39 -25.5 64.5t-67.5 25.5t-67 -25t-25 -65l12 -391q3 -79 81 -79zM940 308q43 0 73 27.5t30 68.5t-30 68.5t-73 27.5t-73 -27.5
t-30 -68.5t30 -68.5t73 -27.5z" />
    <glyph glyph-name="uni10004D.small" unicode="&#x2b;&#x20dd;&#x25cf;" 
d="M957 -95q-165 0 -316 65.5t-260.5 175t-175 260.5t-65.5 316t65 316t174.5 260.5t260.5 175t316 65.5t316 -65.5t261 -175t175.5 -260.5t65.5 -316t-65.5 -316t-175 -260.5t-260.5 -175t-316 -65.5zM573 721q0 -37 24.5 -60.5t62.5 -23.5h211v-212q0 -38 23.5 -62
t60.5 -24q38 0 62 24t24 62v212h212q38 0 62 23.5t24 60.5q0 38 -24 62t-62 24h-212v212q0 38 -24 62t-62 24q-37 0 -60.5 -24t-23.5 -62v-212h-211q-38 0 -62.5 -24t-24.5 -62z" />
    <glyph glyph-name="uni1000DC.small" unicode="&#x2b;&#x20de;" horiz-adv-x="1876" 
d="M465 -17q-131 0 -198 66t-67 196v952q0 130 67 196t198 66h946q265 0 265 -262v-952q0 -262 -265 -262h-946zM475 153h926q105 0 105 107v922q0 107 -105 107h-926q-105 0 -105 -107v-922q0 -107 105 -107zM654 641q-36 0 -59 22.5t-23 57.5q0 37 23 60t59 23h203v202
q0 36 22.5 59t57.5 23q37 0 60 -23t23 -59v-202h202q36 0 59 -23t23 -60q0 -35 -23 -57.5t-59 -22.5h-202v-203q0 -36 -23 -59t-60 -23q-35 0 -57.5 23t-22.5 59v203h-203z" />
    <glyph glyph-name="uni1000DD.small" unicode="&#x2b;&#x20de;&#x25a0;" horiz-adv-x="1876" 
d="M465 -17q-131 0 -198 66t-67 196v952q0 130 67 196t198 66h946q265 0 265 -262v-952q0 -262 -265 -262h-946zM557 721q0 -37 24 -60.5t62 -23.5h211v-212q0 -38 24 -62t61 -24q38 0 62 24t24 62v212h212q38 0 62 23.5t24 60.5q0 38 -24 62t-62 24h-212v212q0 38 -24 62
t-62 24q-37 0 -61 -24t-24 -62v-212h-211q-38 0 -62 -24t-24 -62z" />
    <glyph glyph-name="uni10004F.small" unicode="&#x2212;&#x20dd;&#x25cf;" 
d="M957 -95q-165 0 -316 65.5t-260.5 175t-175 260.5t-65.5 316t65 316t174.5 260.5t260.5 175t316 65.5t316 -65.5t261 -175t175.5 -260.5t65.5 -316t-65.5 -316t-175 -260.5t-260.5 -175t-316 -65.5zM658 635h597q42 0 67.5 23t25.5 62q0 40 -25 63t-68 23h-597
q-43 0 -68.5 -23t-25.5 -63q0 -39 26 -62t68 -23z" />
    <glyph glyph-name="uni1000DE.small" unicode="&#x2212;&#x20de;" horiz-adv-x="1876" 
d="M465 -17q-131 0 -198 66t-67 196v952q0 130 67 196t198 66h946q265 0 265 -262v-952q0 -262 -265 -262h-946zM475 153h926q105 0 105 107v922q0 107 -105 107h-926q-105 0 -105 -107v-922q0 -107 105 -107zM653 639q-40 0 -65 21.5t-25 59.5t24.5 60t65.5 22h571
q41 0 65 -22t24 -60t-24.5 -59.5t-64.5 -21.5h-571z" />
    <glyph glyph-name="uni1000DF.small" unicode="&#x2212;&#x20de;&#x25a0;" horiz-adv-x="1876" 
d="M465 -17q-131 0 -198 66t-67 196v952q0 130 67 196t198 66h946q265 0 265 -262v-952q0 -262 -265 -262h-946zM642 635h597q42 0 67.5 23t25.5 62q0 40 -25 63t-68 23h-597q-43 0 -68.5 -23t-25.5 -63q0 -39 26 -62t68 -23z" />
    <glyph glyph-name="uni100051.small" unicode="&#xd7;&#x20dd;&#x25cf;" 
d="M957 -95q-165 0 -316 65.5t-260.5 175t-175 260.5t-65.5 316t65 316t174.5 260.5t260.5 175t316 65.5t316 -65.5t261 -175t175.5 -260.5t65.5 -316t-65.5 -316t-175 -260.5t-260.5 -175t-316 -65.5zM691 374q37 0 59 24l206 207l207 -207q24 -24 58 -24q35 0 59 24t24 59
q0 31 -24 57l-207 207l207 208q24 25 24 57q0 34 -23.5 58t-57.5 24q-33 0 -57 -24l-210 -208l-208 207q-23 23 -57 23t-57.5 -23.5t-23.5 -57.5t23 -57l208 -207l-208 -207q-23 -25 -23 -57q0 -35 23.5 -59t57.5 -24z" />
    <glyph glyph-name="uni1000E0.small" unicode="&#xd7;&#x20de;" horiz-adv-x="1876" 
d="M465 -17q-131 0 -198 66t-67 196v952q0 130 67 196t198 66h946q265 0 265 -262v-952q0 -262 -265 -262h-946zM475 153h926q105 0 105 107v922q0 107 -105 107h-926q-105 0 -105 -107v-922q0 -107 105 -107zM684 389q-32 0 -55 23t-23 56q0 32 24 54l198 199l-198 199
q-24 22 -24 54t23 54.5t55 22.5q33 0 55 -22l199 -199l201 200q25 23 54 23q33 0 56 -23t23 -55q0 -31 -24 -54l-199 -200l198 -198q24 -24 24 -55q0 -33 -23 -56t-55 -23q-33 0 -56 23l-199 198l-198 -198q-21 -23 -56 -23z" />
    <glyph glyph-name="uni1000E1.small" unicode="&#xd7;&#x20de;&#x25a0;" horiz-adv-x="1876" 
d="M465 -17q-131 0 -198 66t-67 196v952q0 130 67 196t198 66h946q265 0 265 -262v-952q0 -262 -265 -262h-946zM675 374q37 0 59 24l206 207l206 -207q26 -24 59 -24q34 0 58 24t24 59q0 33 -24 57l-206 207l207 208q24 25 24 57q0 34 -23.5 58t-57.5 24q-33 0 -57 -24
l-210 -208l-208 207q-23 23 -57 23q-35 0 -58.5 -23.5t-23.5 -57.5q0 -33 24 -57l207 -207l-207 -207q-24 -26 -24 -57q0 -35 24 -59t58 -24z" />
    <glyph glyph-name="uni100052.small" unicode="&#xf7;&#x20dd;" 
d="M957 -95q-165 0 -316 65.5t-260.5 175t-175 260.5t-65.5 316t65 316t174.5 260.5t260.5 175t316 65.5t316 -65.5t261 -175t175.5 -260.5t65.5 -316t-65.5 -316t-175 -260.5t-260.5 -175t-316 -65.5zM957 82q175 0 322 85.5t232 232.5t85 322q0 131 -50.5 249.5
t-136 203.5t-204 135.5t-249.5 50.5q-175 0 -321.5 -85t-231.5 -232t-85 -322t85 -322t232 -232.5t322 -85.5zM954 899q-45 0 -76.5 28t-31.5 70q0 46 31 75.5t77 29.5q50 0 81 -29.5t31 -75.5q0 -42 -31.5 -70t-80.5 -28zM666 642q-39 0 -62.5 21t-23.5 57q0 37 23 58
t63 21h581q39 0 62 -21t23 -58q0 -36 -23 -57t-62 -21h-581zM954 340q-45 0 -76.5 28.5t-31.5 69.5q0 46 31 75.5t77 29.5q50 0 81 -29.5t31 -75.5q0 -42 -32 -70t-80 -28z" />
    <glyph glyph-name="uni100053.small" unicode="&#xf7;&#x20dd;&#x25cf;" 
d="M957 -95q-165 0 -316 65.5t-260.5 175t-175 260.5t-65.5 316t65 316t174.5 260.5t260.5 175t316 65.5t316 -65.5t261 -175t175.5 -260.5t65.5 -316t-65.5 -316t-175 -260.5t-260.5 -175t-316 -65.5zM954 906q51 0 83.5 29.5t32.5 73.5q0 49 -32 80t-84 31
q-48 0 -80.5 -31.5t-32.5 -79.5q0 -43 33 -73t80 -30zM653 638h607q40 0 64.5 22t24.5 60q0 39 -24 61t-65 22h-607q-42 0 -66 -22t-24 -61q0 -38 24.5 -60t65.5 -22zM954 322q51 0 83.5 30t32.5 74q0 49 -32 79.5t-84 30.5q-48 0 -80.5 -31t-32.5 -79q0 -43 33 -73.5
t80 -30.5z" />
    <glyph glyph-name="uni1000E2.small" unicode="&#xf7;&#x20de;" horiz-adv-x="1876" 
d="M465 -17q-131 0 -198 66t-67 196v952q0 130 67 196t198 66h946q265 0 265 -262v-952q0 -262 -265 -262h-946zM475 153h926q105 0 105 107v922q0 107 -105 107h-926q-105 0 -105 -107v-922q0 -107 105 -107zM936 899q-45 0 -76.5 28.5t-31.5 69.5q0 46 31 76t77 30
q49 0 80.5 -29.5t31.5 -76.5q0 -42 -32 -70t-80 -28zM648 642q-39 0 -62.5 21t-23.5 57q0 37 23 58t63 21h581q39 0 62 -21t23 -58q0 -36 -23 -57t-62 -21h-581zM936 340q-45 0 -76.5 28.5t-31.5 70.5q0 46 31 75t77 29q50 0 81 -29t31 -75q0 -42 -32 -70.5t-80 -28.5z" />
    <glyph glyph-name="uni1000E3.small" unicode="&#xf7;&#x20de;&#x25a0;" horiz-adv-x="1876" 
d="M465 -17q-131 0 -198 66t-67 196v952q0 130 67 196t198 66h946q265 0 265 -262v-952q0 -262 -265 -262h-946zM938 906q51 0 83.5 29.5t32.5 73.5q0 49 -32 80t-84 31q-48 0 -80.5 -31.5t-32.5 -79.5q0 -43 33 -73t80 -30zM637 638h607q40 0 64.5 22t24.5 60q0 39 -24 61
t-65 22h-607q-42 0 -66.5 -22t-24.5 -61q0 -38 25 -60t66 -22zM938 322q50 0 83 30t33 74q0 49 -32 79.5t-84 30.5q-48 0 -80.5 -31t-32.5 -79q0 -43 33 -73.5t80 -30.5z" />
    <glyph glyph-name="uni100055.small" unicode="&#x3d;&#x20dd;&#x25cf;" 
d="M957 -95q-165 0 -316 65.5t-260.5 175t-175 260.5t-65.5 316t65 316t174.5 260.5t260.5 175t316 65.5t316 -65.5t261 -175t175.5 -260.5t65.5 -316t-65.5 -316t-175 -260.5t-260.5 -175t-316 -65.5zM668 796h575q41 0 65.5 20t24.5 57q0 38 -24 58.5t-66 20.5h-575
q-42 0 -66 -20.5t-24 -58.5q0 -37 24.5 -57t65.5 -20zM668 489h575q41 0 65.5 20.5t24.5 57.5q0 38 -24 58.5t-66 20.5h-575q-42 0 -66 -20.5t-24 -58.5q0 -37 24.5 -57.5t65.5 -20.5z" />
    <glyph glyph-name="uni1000E4.small" unicode="&#x3d;&#x20de;" horiz-adv-x="1876" 
d="M465 -17q-131 0 -198 66t-67 196v952q0 130 67 196t198 66h946q265 0 265 -262v-952q0 -262 -265 -262h-946zM475 153h926q105 0 105 107v922q0 107 -105 107h-926q-105 0 -105 -107v-922q0 -107 105 -107zM662 793q-39 0 -62.5 19t-23.5 55t23 55.5t63 19.5h551
q40 0 62.5 -19.5t22.5 -55.5t-23 -55t-62 -19h-551zM662 500q-39 0 -62.5 19t-23.5 54q0 37 23 56.5t63 19.5h551q40 0 62.5 -20t22.5 -56q0 -35 -23 -54t-62 -19h-551z" />
    <glyph glyph-name="uni1000E5.small" unicode="&#x3d;&#x20de;&#x25a0;" horiz-adv-x="1876" 
d="M465 -17q-131 0 -198 66t-67 196v952q0 130 67 196t198 66h946q265 0 265 -262v-952q0 -262 -265 -262h-946zM652 796h575q41 0 65.5 20t24.5 57q0 38 -24 58.5t-66 20.5h-575q-43 0 -67 -20.5t-24 -58.5q0 -37 25 -57t66 -20zM652 489h575q41 0 65.5 20.5t24.5 57.5
q0 38 -24 58.5t-66 20.5h-575q-43 0 -67 -20.5t-24 -58.5q0 -37 24.5 -57.5t66.5 -20.5z" />
    <glyph glyph-name="uni100058.small" unicode="&#x3c;&#x20dd;" 
d="M957 -95q-165 0 -316 65.5t-260.5 175t-175 260.5t-65.5 316t65 316t174.5 260.5t260.5 175t316 65.5t316 -65.5t261 -175t175.5 -260.5t65.5 -316t-65.5 -316t-175 -260.5t-260.5 -175t-316 -65.5zM957 82q175 0 322 85.5t232 232.5t85 322q0 131 -50.5 249.5
t-136 203.5t-204 135.5t-249.5 50.5q-175 0 -321.5 -85t-231.5 -232t-85 -322t85 -322t232 -232.5t322 -85.5zM1159 392q-24 0 -48 11l-464 235q-57 29 -57 83q0 53 57 83l464 245q25 11 49 11q34 0 57 -22.5t23 -56.5q0 -29 -14 -47.5t-47 -33.5l-361 -173v-6l361 -169
q61 -26 61 -80q0 -35 -23 -57.5t-58 -22.5z" />
    <glyph glyph-name="uni100059.small" unicode="&#x3c;&#x20dd;&#x25cf;" 
d="M957 -95q-165 0 -316 65.5t-260.5 175t-175 260.5t-65.5 316t65 316t174.5 260.5t260.5 175t316 65.5t316 -65.5t261 -175t175.5 -260.5t65.5 -316t-65.5 -316t-175 -260.5t-260.5 -175t-316 -65.5zM1170 377q37 0 61.5 24t24.5 60q0 56 -64 84l-377 176v6l377 181
q64 28 64 84q0 35 -24 59t-61 24q-26 0 -51 -11l-485 -255q-60 -33 -60 -88q0 -57 60 -86l485 -246q24 -12 50 -12z" />
    <glyph glyph-name="uni1000E6.small" unicode="&#x3c;&#x20de;" horiz-adv-x="1876" 
d="M465 -17q-131 0 -198 66t-67 196v952q0 130 67 196t198 66h946q265 0 265 -262v-952q0 -262 -265 -262h-946zM475 153h926q105 0 105 107v922q0 107 -105 107h-926q-105 0 -105 -107v-922q0 -107 105 -107zM1141 393q-27 0 -48 11l-464 235q-57 29 -57 82q0 54 57 84
l464 244q22 11 49 11q34 0 57 -22.5t23 -56.5q0 -53 -61 -81l-361 -173v-6l361 -169q33 -14 47 -32.5t14 -47.5q0 -34 -23 -56.5t-58 -22.5z" />
    <glyph glyph-name="uni1000E7.small" unicode="&#x3c;&#x20de;&#x25a0;" horiz-adv-x="1876" 
d="M465 -17q-131 0 -198 66t-67 196v952q0 130 67 196t198 66h946q265 0 265 -262v-952q0 -262 -265 -262h-946zM1154 377q37 0 61 24t24 60q0 30 -15 49.5t-49 34.5l-376 176v6l376 181q64 28 64 84q0 36 -23.5 59.5t-60.5 23.5q-26 0 -51 -11l-486 -255q-59 -33 -59 -88
q0 -57 59 -86l486 -246q22 -12 50 -12z" />
    <glyph glyph-name="uni100056.small" unicode="&#x3e;&#x20dd;" 
d="M957 -95q-165 0 -316 65.5t-260.5 175t-175 260.5t-65.5 316t65 316t174.5 260.5t260.5 175t316 65.5t316 -65.5t261 -175t175.5 -260.5t65.5 -316t-65.5 -316t-175 -260.5t-260.5 -175t-316 -65.5zM957 82q175 0 322 85.5t232 232.5t85 322q0 131 -50.5 249.5
t-136 203.5t-204 135.5t-249.5 50.5q-175 0 -321.5 -85t-231.5 -232t-85 -322t85 -322t232 -232.5t322 -85.5zM756 397q-35 0 -57.5 22t-22.5 56q0 28 14 46t46 32l358 168v6l-358 172q-60 27 -60 79q0 33 22.5 55t56.5 22q27 0 48 -10l458 -242q56 -29 56 -82
q0 -54 -56 -81l-458 -233q-20 -10 -47 -10z" />
    <glyph glyph-name="uni100057.small" unicode="&#x3e;&#x20dd;&#x25cf;" 
d="M957 -95q-165 0 -316 65.5t-260.5 175t-175 260.5t-65.5 316t65 316t174.5 260.5t260.5 175t316 65.5t316 -65.5t261 -175t175.5 -260.5t65.5 -316t-65.5 -316t-175 -260.5t-260.5 -175t-316 -65.5zM747 382q25 0 49 11l479 243q59 30 59 85q0 54 -59 86l-479 252
q-24 12 -50 12q-36 0 -59.5 -23.5t-23.5 -58.5q0 -54 63 -83l373 -179v-6l-373 -175q-34 -14 -48.5 -33t-14.5 -49q0 -35 24 -58.5t60 -23.5z" />
    <glyph glyph-name="uni1000E8.small" unicode="&#x3e;&#x20de;" horiz-adv-x="1876" 
d="M465 -17q-131 0 -198 66t-67 196v952q0 130 67 196t198 66h946q265 0 265 -262v-952q0 -262 -265 -262h-946zM475 153h926q105 0 105 107v922q0 107 -105 107h-926q-105 0 -105 -107v-922q0 -107 105 -107zM738 397q-35 0 -57.5 22t-22.5 56q0 28 14 46t46 32l358 168v6
l-358 172q-60 29 -60 79q0 33 22.5 55.5t56.5 22.5q24 0 48 -11l458 -242q56 -29 56 -82q0 -52 -56 -81l-458 -232q-19 -11 -47 -11z" />
    <glyph glyph-name="uni1000E9.small" unicode="&#x3e;&#x20de;&#x25a0;" horiz-adv-x="1876" 
d="M465 -17q-131 0 -198 66t-67 196v952q0 130 67 196t198 66h946q265 0 265 -262v-952q0 -262 -265 -262h-946zM731 382q24 0 49 11l479 243q59 30 59 85q0 54 -59 86l-479 252q-24 12 -51 12q-35 0 -58.5 -23.5t-23.5 -58.5q0 -55 63 -83l373 -179v-6l-373 -175
q-34 -14 -48.5 -33t-14.5 -49q0 -35 23.5 -58.5t60.5 -23.5z" />
    <glyph glyph-name="uni10005A.small" unicode="&#x23;&#x20dd;" 
d="M957 -95q-165 0 -316 65.5t-260.5 175t-175 260.5t-65.5 316t65 316t174.5 260.5t260.5 175t316 65.5t316 -65.5t261 -175t175.5 -260.5t65.5 -316t-65.5 -316t-175 -260.5t-260.5 -175t-316 -65.5zM957 82q175 0 322 85.5t232 232.5t85 322q0 131 -50.5 249.5
t-136 203.5t-204 135.5t-249.5 50.5q-175 0 -321.5 -85t-231.5 -232t-85 -322t85 -322t232 -232.5t322 -85.5zM753 336q-30 0 -47.5 21.5t-12.5 51.5l27 132h-53q-24 0 -39.5 16t-15.5 41q0 28 19 47t47 19h68l28 135h-53q-24 0 -39.5 16t-15.5 41q0 29 18.5 47.5t47.5 18.5
h67l29 139q10 57 70 57q30 0 48 -22t12 -51l-26 -123h125l29 139q10 57 70 57q30 0 48 -22t12 -51l-25 -123h54q24 0 39.5 -16t15.5 -41q0 -29 -19 -47.5t-47 -18.5h-67l-29 -135h53q24 0 39.5 -16t15.5 -41q0 -29 -19 -47.5t-47 -18.5h-67l-31 -148q-12 -57 -73 -57
q-30 0 -47 21.5t-11 51.5l27 131h-124l-31 -147q-12 -57 -70 -57zM869 650h142l33 160h-143z" />
    <glyph glyph-name="uni10005B.small" unicode="&#x23;&#x20dd;&#x25cf;" 
d="M957 -95q-165 0 -316 65.5t-260.5 175t-175 260.5t-65.5 316t65 316t174.5 260.5t260.5 175t316 65.5t316 -65.5t261 -175t175.5 -260.5t65.5 -316t-65.5 -316t-175 -260.5t-260.5 -175t-316 -65.5zM744 319q61 0 73 59l33 154h129l-28 -137q-7 -31 11 -53.5t50 -22.5
q64 0 76 60l32 154h70q31 0 50.5 19.5t19.5 49.5q0 26 -16.5 43t-41.5 17h-55l29 140h70q31 0 50.5 20t19.5 50q0 26 -16.5 43t-41.5 17h-56l27 128q5 31 -14 53.5t-50 22.5q-62 0 -74 -60l-30 -144h-129l26 128q6 30 -12.5 53t-49.5 23q-63 0 -75 -60l-29 -144h-70
q-31 0 -50.5 -20t-19.5 -50q0 -26 16.5 -43t41.5 -17h55l-29 -140h-70q-31 0 -50.5 -20t-19.5 -50q0 -26 16 -42.5t42 -16.5h56l-29 -138q-6 -31 12.5 -53.5t50.5 -22.5zM865 647l34 167h149l-35 -167h-148z" />
    <glyph glyph-name="uni1000EA.small" unicode="&#x23;&#x20de;" horiz-adv-x="1876" 
d="M465 -17q-131 0 -198 66t-67 196v952q0 130 67 196t198 66h946q265 0 265 -262v-952q0 -262 -265 -262h-946zM475 153h926q105 0 105 107v922q0 107 -105 107h-926q-105 0 -105 -107v-922q0 -107 105 -107zM735 337q-30 0 -47.5 21.5t-12.5 50.5l27 132h-53
q-24 0 -39.5 16t-15.5 41q0 28 19 47t47 19h68l28 135h-53q-24 0 -39.5 16t-15.5 41q0 29 18.5 47.5t47.5 18.5h67l29 140q11 56 70 56q30 0 48 -21.5t12 -50.5l-26 -124h125l29 140q11 56 70 56q30 0 48 -21.5t12 -50.5l-25 -124h54q24 0 39.5 -16t15.5 -41
q0 -29 -19 -47.5t-47 -18.5h-67l-29 -135h53q24 0 39.5 -16t15.5 -41q0 -29 -19 -47.5t-47 -18.5h-67l-31 -147q-12 -57 -73 -57q-30 0 -47 21t-11 51l27 131h-124l-31 -147q-12 -56 -70 -56zM851 650h142l33 160h-143z" />
    <glyph glyph-name="uni1000EB.small" unicode="&#x23;&#x20de;&#x25a0;" horiz-adv-x="1876" 
d="M465 -17q-131 0 -198 66t-67 196v952q0 130 67 196t198 66h946q265 0 265 -262v-952q0 -262 -265 -262h-946zM728 319q61 0 73 59l32 154h129l-28 -137q-6 -31 12 -53.5t50 -22.5q64 0 76 60l32 154h70q31 0 50.5 19.5t19.5 49.5q0 26 -16.5 43t-41.5 17h-55l29 140h70
q31 0 50.5 20t19.5 50q0 26 -16.5 43t-41.5 17h-56l27 128q5 31 -14 53.5t-50 22.5q-62 0 -74 -60l-30 -144h-130l27 128q6 30 -13 53t-50 23q-62 0 -74 -60l-30 -144h-69q-31 0 -50.5 -20t-19.5 -50q0 -26 16 -43t41 -17h56l-29 -140h-70q-31 0 -50.5 -20t-19.5 -50
q0 -26 16 -42.5t42 -16.5h56l-29 -138q-6 -31 12.5 -53.5t50.5 -22.5zM849 647l34 167h149l-35 -167h-148z" />
    <glyph glyph-name="uni100060.small" unicode="&#x2717;&#x20dd;" 
d="M957 -95q-165 0 -316 65.5t-260.5 175t-175 260.5t-65.5 316t65 316t174.5 260.5t260.5 175t316 65.5t316 -65.5t261 -175t175.5 -260.5t65.5 -316t-65.5 -316t-175 -260.5t-260.5 -175t-316 -65.5zM957 82q175 0 322 85.5t232 232.5t85 322q0 131 -50.5 249.5
t-136 203.5t-204 135.5t-249.5 50.5q-175 0 -321.5 -85t-231.5 -232t-85 -322t85 -322t232 -232.5t322 -85.5zM702 389q-32 0 -55 23t-23 56q0 31 24 53l198 200l-198 199q-24 22 -24 54t23 54.5t55 22.5q33 0 55 -23l199 -198l201 199q23 23 54 23q33 0 56 -22.5t23 -55.5
q0 -30 -24 -54l-199 -199l198 -199q24 -24 24 -54q0 -33 -23 -56t-55 -23q-33 0 -56 23l-199 198l-198 -198q-21 -23 -56 -23z" />
    <glyph glyph-name="uni100061.small" unicode="&#x2717;&#x20dd;&#x25cf;" 
d="M957 -95q-165 0 -316 65.5t-260.5 175t-175 260.5t-65.5 316t65 316t174.5 260.5t260.5 175t316 65.5t316 -65.5t261 -175t175.5 -260.5t65.5 -316t-65.5 -316t-175 -260.5t-260.5 -175t-316 -65.5zM691 374q37 0 59 24l206 207l207 -207q24 -24 58 -24q35 0 59 24t24 59
q0 31 -24 57l-207 207l207 208q24 25 24 57q0 34 -23.5 58t-57.5 24q-33 0 -57 -24l-210 -208l-208 207q-23 23 -57 23t-57.5 -23.5t-23.5 -57.5t23 -57l208 -207l-208 -207q-23 -25 -23 -57q0 -35 23.5 -59t57.5 -24z" />
    <glyph glyph-name="uni1000F1.small" unicode="&#x2717;&#x20de;&#x25a0;" horiz-adv-x="1876" 
d="M465 -17q-131 0 -198 66t-67 196v952q0 130 67 196t198 66h946q265 0 265 -262v-952q0 -262 -265 -262h-946zM675 374q37 0 59 24l206 207l206 -207q26 -24 59 -24q34 0 58 24t24 59q0 33 -24 57l-206 207l207 208q24 25 24 57q0 34 -23.5 58t-57.5 24q-33 0 -57 -24
l-210 -208l-208 207q-23 23 -57 23q-35 0 -58.5 -23.5t-23.5 -57.5q0 -33 24 -57l207 -207l-207 -207q-24 -26 -24 -57q0 -35 24 -59t58 -24z" />
    <glyph glyph-name="uni100062.small" unicode="&#x2713;&#x20dd;" 
d="M957 -95q-165 0 -316 65.5t-260.5 175t-175 260.5t-65.5 316t65 316t174.5 260.5t260.5 175t316 65.5t316 -65.5t261 -175t175.5 -260.5t65.5 -316t-65.5 -316t-175 -260.5t-260.5 -175t-316 -65.5zM957 82q175 0 322 85.5t232 232.5t85 322q0 131 -50.5 249.5
t-136 203.5t-204 135.5t-249.5 50.5q-175 0 -321.5 -85t-231.5 -232t-85 -322t85 -322t232 -232.5t322 -85.5zM872 349q-47 0 -81 44l-176 217q-22 28 -22 58q0 32 22 54.5t54 22.5q40 0 67 -36l132 -173l298 479q27 44 67 44q32 0 56 -20.5t24 -51.5q0 -23 -22 -59
l-343 -534q-28 -45 -76 -45z" />
    <glyph glyph-name="uni100063.small" unicode="&#x2713;&#x20dd;&#x25cf;" 
d="M957 -95q-165 0 -316 65.5t-260.5 175t-175 260.5t-65.5 316t65 316t174.5 260.5t260.5 175t316 65.5t316 -65.5t261 -175t175.5 -260.5t65.5 -316t-65.5 -316t-175 -260.5t-260.5 -175t-316 -65.5zM868 333q51 0 81 47l357 557q23 35 23 62q0 33 -24.5 54.5t-58.5 21.5
q-43 0 -71 -46l-310 -500l-138 180q-30 39 -71 39q-33 0 -56 -24t-23 -57q0 -35 23 -62l183 -226q36 -46 85 -46z" />
    <glyph glyph-name="uni1000F3.small" unicode="&#x2713;&#x20de;&#x25a0;" horiz-adv-x="1876" 
d="M465 -17q-131 0 -198 66t-67 196v952q0 130 67 196t198 66h946q265 0 265 -262v-952q0 -262 -265 -262h-946zM852 333q51 0 80 47l358 557q23 38 23 62q0 33 -24.5 54.5t-58.5 21.5q-43 0 -71 -46l-310 -500l-138 180q-31 39 -71 39q-33 0 -56.5 -24t-23.5 -57t24 -62
l183 -226q36 -46 85 -46z" />
    <glyph glyph-name="uni10006A.small" unicode="&#x25c0;&#x20dd;" 
d="M957 -95q-165 0 -316 65.5t-260.5 175t-175 260.5t-65.5 316t65 316t174.5 260.5t260.5 175t316 65.5t316 -65.5t261 -175t175.5 -260.5t65.5 -316t-65.5 -316t-175 -260.5t-260.5 -175t-316 -65.5zM957 82q175 0 322 85.5t232 232.5t85 322q0 131 -50.5 249.5
t-136 203.5t-204 135.5t-249.5 50.5q-175 0 -321.5 -85t-231.5 -232t-85 -322t85 -322t232 -232.5t322 -85.5zM636 676q-25 15 -25 45t25 45l451 264q26 16 54.5 4t28.5 -41v-543q0 -31 -27 -42.5t-56 5.5z" />
    <glyph glyph-name="uni10006B.small" unicode="&#x25c0;&#x20dd;&#x25cf;" 
d="M957 -95q-165 0 -316 65.5t-260.5 175t-175 260.5t-65.5 316t65 316t174.5 260.5t260.5 175t316 65.5t316 -65.5t261 -175t175.5 -260.5t65.5 -316t-65.5 -316t-175 -260.5t-260.5 -175t-316 -65.5zM624 674l471 -275q31 -18 59.5 -5.5t28.5 43.5v568q0 31 -29.5 43.5
t-58.5 -4.5l-471 -276q-26 -15 -26 -46.5t26 -47.5z" />
    <glyph glyph-name="uni1000FA.small" unicode="&#x25c0;&#x20de;" horiz-adv-x="1876" 
d="M465 -17q-131 0 -198 66t-67 196v952q0 130 67 196t198 66h946q265 0 265 -262v-952q0 -262 -265 -262h-946zM475 153h926q105 0 105 107v922q0 107 -105 107h-926q-105 0 -105 -107v-922q0 -107 105 -107zM618 677q-25 15 -25 45t25 44l451 264q26 16 54.5 4t28.5 -41
v-543q0 -30 -27 -42t-56 5z" />
    <glyph glyph-name="uni1000FB.small" unicode="&#x25c0;&#x20de;&#x25a0;" horiz-adv-x="1876" 
d="M465 -17q-131 0 -198 66t-67 196v952q0 130 67 196t198 66h946q265 0 265 -262v-952q0 -262 -265 -262h-946zM608 674l471 -275q31 -18 59.5 -5.5t28.5 43.5v568q0 31 -29.5 43.5t-58.5 -4.5l-471 -276q-26 -15 -26.5 -46t26.5 -48z" />
    <glyph glyph-name="uni10006C.small" unicode="&#x25b6;&#x20dd;" 
d="M957 -95q-165 0 -316 65.5t-260.5 175t-175 260.5t-65.5 316t65 316t174.5 260.5t260.5 175t316 65.5t316 -65.5t261 -175t175.5 -260.5t65.5 -316t-65.5 -316t-175 -260.5t-260.5 -175t-316 -65.5zM957 82q175 0 322 85.5t232 232.5t85 322q0 131 -50.5 249.5
t-136 203.5t-204 135.5t-249.5 50.5q-175 0 -321.5 -85t-231.5 -232t-85 -322t85 -322t232 -232.5t322 -85.5zM1260 676l-450 -263q-29 -17 -56.5 -5.5t-27.5 42.5v543q0 29 28.5 41t55.5 -4l450 -264q26 -15 26 -45t-26 -45z" />
    <glyph glyph-name="uni10006D.small" unicode="&#x25b6;&#x20dd;&#x25cf;" 
d="M957 -95q-165 0 -316 65.5t-260.5 175t-175 260.5t-65.5 316t65 316t174.5 260.5t260.5 175t316 65.5t316 -65.5t261 -175t175.5 -260.5t65.5 -316t-65.5 -316t-175 -260.5t-260.5 -175t-316 -65.5zM1275 674q27 16 26.5 47t-26.5 47l-471 276q-28 17 -57.5 4.5
t-29.5 -43.5v-568q0 -31 28.5 -43.5t58.5 5.5z" />
    <glyph glyph-name="uni1000FC.small" unicode="&#x25b6;&#x20de;" horiz-adv-x="1876" 
d="M465 -17q-131 0 -198 66t-67 196v952q0 130 67 196t198 66h946q265 0 265 -262v-952q0 -262 -265 -262h-946zM475 153h926q105 0 105 107v922q0 107 -105 107h-926q-105 0 -105 -107v-922q0 -107 105 -107zM1242 677l-450 -264q-29 -17 -56.5 -5t-27.5 42v543
q0 29 28.5 41t55.5 -4l450 -264q26 -15 26 -44.5t-26 -44.5z" />
    <glyph glyph-name="uni1000FD.small" unicode="&#x25b6;&#x20de;&#x25a0;" horiz-adv-x="1876" 
d="M465 -17q-131 0 -198 66t-67 196v952q0 130 67 196t198 66h946q265 0 265 -262v-952q0 -262 -265 -262h-946zM1259 674q27 16 26.5 47t-26.5 47l-471 276q-28 17 -57.5 4.5t-29.5 -43.5v-568q0 -31 28.5 -43.5t58.5 5.5z" />
    <glyph glyph-name="uni100066.small" unicode="&#x25b2;&#x20dd;" 
d="M957 -95q-165 0 -316 65.5t-260.5 175t-175 260.5t-65.5 316t65 316t174.5 260.5t260.5 175t316 65.5t316 -65.5t261 -175t175.5 -260.5t65.5 -316t-65.5 -316t-175 -260.5t-260.5 -175t-316 -65.5zM957 82q175 0 322 85.5t232 232.5t85 322q0 131 -50.5 249.5
t-136 203.5t-204 135.5t-249.5 50.5q-175 0 -321.5 -85t-231.5 -232t-85 -322t85 -322t232 -232.5t322 -85.5zM1226 478h-540q-29 0 -40.5 28t4.5 55l262 447q15 25 44.5 25.5t44.5 -25.5l261 -447q17 -29 5.5 -56t-41.5 -27z" />
    <glyph glyph-name="uni100067.small" unicode="&#x25b2;&#x20dd;&#x25cf;" 
d="M957 -95q-165 0 -316 65.5t-260.5 175t-175 260.5t-65.5 316t65 316t174.5 260.5t260.5 175t316 65.5t316 -65.5t261 -175t175.5 -260.5t65.5 -316t-65.5 -316t-175 -260.5t-260.5 -175t-316 -65.5zM1238 465q31 0 43 28.5t-6 58.5l-272 468q-17 27 -47.5 26.5
t-46.5 -26.5l-273 -468q-17 -28 -5 -57.5t43 -29.5h564z" />
    <glyph glyph-name="uni1000F6.small" unicode="&#x25b2;&#x20de;" horiz-adv-x="1876" 
d="M465 -17q-131 0 -198 66t-67 196v952q0 130 67 196t198 66h946q265 0 265 -262v-952q0 -262 -265 -262h-946zM475 153h926q105 0 105 107v922q0 107 -105 107h-926q-105 0 -105 -107v-922q0 -107 105 -107zM1208 478h-540q-29 0 -40.5 28.5t4.5 54.5l262 447
q15 26 44.5 26t44.5 -26l261 -447q17 -29 5.5 -56t-41.5 -27z" />
    <glyph glyph-name="uni1000F7.small" unicode="&#x25b2;&#x20de;&#x25a0;" horiz-adv-x="1876" 
d="M465 -17q-131 0 -198 66t-67 196v952q0 130 67 196t198 66h946q265 0 265 -262v-952q0 -262 -265 -262h-946zM1222 465q31 0 43 28.5t-6 58.5l-272 468q-17 27 -47.5 26.5t-46.5 -26.5l-274 -468q-16 -28 -4 -57.5t42 -29.5h565z" />
    <glyph glyph-name="uni100068.small" unicode="&#x25bc;&#x20dd;" 
d="M957 -95q-165 0 -316 65.5t-260.5 175t-175 260.5t-65.5 316t65 316t174.5 260.5t260.5 175t316 65.5t316 -65.5t261 -175t175.5 -260.5t65.5 -316t-65.5 -316t-175 -260.5t-260.5 -175t-316 -65.5zM957 82q175 0 322 85.5t232 232.5t85 322q0 131 -50.5 249.5
t-136 203.5t-204 135.5t-249.5 50.5q-175 0 -321.5 -85t-231.5 -232t-85 -322t85 -322t232 -232.5t322 -85.5zM1226 956q30 0 41.5 -27t-5.5 -56l-261 -447q-15 -26 -44.5 -26t-44.5 26l-262 447q-16 27 -4.5 55t40.5 28h540z" />
    <glyph glyph-name="uni100069.small" unicode="&#x25bc;&#x20dd;&#x25cf;" 
d="M957 -95q-165 0 -316 65.5t-260.5 175t-175 260.5t-65.5 316t65 316t174.5 260.5t260.5 175t316 65.5t316 -65.5t261 -175t175.5 -260.5t65.5 -316t-65.5 -316t-175 -260.5t-260.5 -175t-316 -65.5zM1237 969h-564q-31 0 -43 -29.5t5 -57.5l273 -467q16 -27 47 -27t47 27
l273 467q17 30 5 58.5t-43 28.5z" />
    <glyph glyph-name="uni1000F8.small" unicode="&#x25bc;&#x20de;" horiz-adv-x="1876" 
d="M465 -17q-131 0 -198 66t-67 196v952q0 130 67 196t198 66h946q265 0 265 -262v-952q0 -262 -265 -262h-946zM475 153h926q105 0 105 107v922q0 107 -105 107h-926q-105 0 -105 -107v-922q0 -107 105 -107zM1208 956q30 0 41.5 -27t-5.5 -56l-261 -447q-15 -26 -45 -25.5
t-44 25.5l-262 447q-16 27 -4.5 55t40.5 28h540z" />
    <glyph glyph-name="uni1000F9.small" unicode="&#x25bc;&#x20de;&#x25a0;" horiz-adv-x="1876" 
d="M465 -17q-131 0 -198 66t-67 196v952q0 130 67 196t198 66h946q265 0 265 -262v-952q0 -262 -265 -262h-946zM1221 969h-564q-31 0 -43 -29.5t5 -57.5l273 -467q16 -27 46.5 -27t47.5 27l272 467q18 30 6 58.5t-43 28.5z" />
    <glyph glyph-name="uni1000C8.small" unicode="&#x30;&#x20de;" horiz-adv-x="1876" 
d="M465 -17q-131 0 -198 66t-67 196v952q0 130 67 196t198 66h946q265 0 265 -262v-952q0 -262 -265 -262h-946zM475 153h926q105 0 105 107v922q0 107 -105 107h-926q-105 0 -105 -107v-922q0 -107 105 -107zM937 349q-131 0 -210 102t-79 271t79 271t210 102t211 -102
t80 -271t-80 -271t-211 -102zM938 478q60 0 96 65.5t36 178.5t-36 178.5t-96 65.5t-96 -65.5t-36 -178.5t36 -178.5t96 -65.5z" />
    <glyph glyph-name="uni1000C9.small" unicode="&#x30;&#x20de;&#x25a0;" horiz-adv-x="1876" 
d="M465 -17q-131 0 -198 66t-67 196v952q0 130 67 196t198 66h946q265 0 265 -262v-952q0 -262 -265 -262h-946zM939 337q135 0 217.5 105.5t82.5 279.5t-82.5 279.5t-217.5 105.5t-216.5 -105.5t-81.5 -279.5t81.5 -279.5t216.5 -105.5zM940 470q-62 0 -99.5 68t-37.5 184
t37.5 184t99.5 68q61 0 99 -68t38 -184t-38 -184t-99 -68z" />
    <glyph glyph-name="uni1000CA.small" unicode="&#x31;&#x20de;" horiz-adv-x="1876" 
d="M465 -17q-131 0 -198 66t-67 196v952q0 130 67 196t198 66h946q265 0 265 -262v-952q0 -262 -265 -262h-946zM475 153h926q105 0 105 107v922q0 107 -105 107h-926q-105 0 -105 -107v-922q0 -107 105 -107zM983 365q-38 0 -60 23.5t-22 67.5v453h-6l-83 -56
q-26 -17 -48 -17q-24 0 -40 17.5t-16 41.5q0 35 33 58l130 89q56 38 106 38q42 0 66 -24.5t24 -67.5v-532q0 -44 -22 -67.5t-62 -23.5z" />
    <glyph glyph-name="uni1000CB.small" unicode="&#x31;&#x20de;&#x25a0;" horiz-adv-x="1876" 
d="M465 -17q-131 0 -198 66t-67 196v952q0 130 67 196t198 66h946q265 0 265 -262v-952q0 -262 -265 -262h-946zM988 349q42 0 65 24.5t23 70.5v556q0 45 -25.5 70.5t-69.5 25.5q-54 0 -111 -40l-137 -93q-34 -23 -34 -60q0 -25 17 -43.5t41 -18.5t51 18l87 58h6v-473
q0 -46 23 -70.5t64 -24.5z" />
    <glyph glyph-name="uni1000CC.small" unicode="&#x32;&#x20de;" horiz-adv-x="1876" 
d="M465 -17q-131 0 -198 66t-67 196v952q0 130 67 196t198 66h946q265 0 265 -262v-952q0 -262 -265 -262h-946zM475 153h926q105 0 105 107v922q0 107 -105 107h-926q-105 0 -105 -107v-922q0 -107 105 -107zM760 369q-32 0 -51.5 17.5t-19.5 46.5q0 35 30 64l233 240
q32 31 46.5 46.5t30 42.5t15.5 51q0 40 -28 64.5t-74 24.5q-43 0 -69.5 -22t-49.5 -58q-30 -45 -69 -45q-30 0 -48.5 17t-18.5 47q0 20 5 36q23 67 92 110.5t155 43.5q115 0 185.5 -56t70.5 -148q0 -60 -30.5 -110t-92.5 -113l-156 -161v-6h242q32 0 51 -17.5t19 -48.5
q0 -30 -19.5 -48t-50.5 -18h-398z" />
    <glyph glyph-name="uni1000CD.small" unicode="&#x32;&#x20de;&#x25a0;" horiz-adv-x="1876" 
d="M465 -17q-131 0 -198 66t-67 196v952q0 130 67 196t198 66h946q265 0 265 -262v-952q0 -262 -265 -262h-946zM754 352h416q33 0 53.5 19t20.5 51t-20 50.5t-54 18.5h-252v7l162 168q65 64 96.5 116.5t31.5 115.5q0 96 -73 155t-194 59q-90 0 -162.5 -45.5t-95.5 -115.5
q-6 -16 -6 -39q0 -30 19.5 -48t51.5 -18q25 0 40.5 12t31.5 35q15 24 28 39.5t38.5 29.5t56.5 14q48 0 77.5 -25.5t29.5 -66.5q0 -25 -16.5 -53t-31 -44t-48.5 -50l-244 -250q-31 -31 -31 -66q0 -32 20.5 -50.5t54.5 -18.5z" />
    <glyph glyph-name="uni1000CE.small" unicode="&#x33;&#x20de;" horiz-adv-x="1876" 
d="M465 -17q-131 0 -198 66t-67 196v952q0 130 67 196t198 66h946q265 0 265 -262v-952q0 -262 -265 -262h-946zM475 153h926q105 0 105 107v922q0 107 -105 107h-926q-105 0 -105 -107v-922q0 -107 105 -107zM933 349q-99 0 -172 42t-92 109q-4 16 -4 34q0 30 19.5 48.5
t50.5 18.5q45 0 67 -45q35 -81 135 -81q57 0 92.5 26.5t35.5 69.5q0 45 -35 72t-93 27h-41q-29 0 -47 17t-18 44q0 28 18 45t47 17h38q48 0 79 26.5t31 67.5q0 39 -28 61t-78 22q-92 0 -124 -81q-19 -44 -66 -44q-32 0 -51.5 17.5t-19.5 47.5q0 15 5 35q19 70 88 110t170 40
q114 0 185 -53.5t71 -137.5q0 -59 -40 -106t-97 -55v-7q70 -7 115.5 -55.5t45.5 -117.5q0 -96 -77.5 -155t-209.5 -59z" />
    <glyph glyph-name="uni1000CF.small" unicode="&#x33;&#x20de;&#x25a0;" horiz-adv-x="1876" 
d="M465 -17q-131 0 -198 66t-67 196v952q0 130 67 196t198 66h946q265 0 265 -262v-952q0 -262 -265 -262h-946zM935 332q139 0 219.5 61.5t80.5 162.5q0 71 -48 122.5t-121 58.5v7q61 8 103 57t42 111q0 89 -75 144.5t-194 55.5q-106 0 -178 -42t-92 -114q-5 -23 -5 -37
q0 -31 20.5 -50t53.5 -19q49 0 70 47q32 83 129 83q52 0 81 -23t29 -63q0 -43 -32 -70t-82 -27h-40q-30 0 -49 -18t-19 -48q0 -28 19 -46t49 -18h43q60 0 96.5 -28.5t36.5 -74.5q0 -45 -36.5 -72t-96.5 -27q-103 0 -141 84q-22 47 -70 47q-33 0 -53.5 -19.5t-20.5 -50.5
q0 -20 5 -36q19 -70 95.5 -114t180.5 -44z" />
    <glyph glyph-name="uni1000D0.small" unicode="&#x34;&#x20de;" horiz-adv-x="1876" 
d="M465 -17q-131 0 -198 66t-67 196v952q0 130 67 196t198 66h946q265 0 265 -262v-952q0 -262 -265 -262h-946zM475 153h926q105 0 105 107v922q0 107 -105 107h-926q-105 0 -105 -107v-922q0 -107 105 -107zM1043 365q-34 0 -53 21t-19 60v53h-260q-46 0 -74 26t-28 69
t25 85q40 68 209 329q30 47 65 67t88 20t86.5 -29t33.5 -76v-361h44q31 0 49.5 -18t18.5 -47q0 -30 -18.5 -47.5t-49.5 -17.5h-44v-53q0 -39 -19 -60t-54 -21zM971 629v343h-7q-165 -260 -209 -338v-5h216z" />
    <glyph glyph-name="uni1000D1.small" unicode="&#x34;&#x20de;&#x25a0;" horiz-adv-x="1876" 
d="M465 -17q-131 0 -198 66t-67 196v952q0 130 67 196t198 66h946q265 0 265 -262v-952q0 -262 -265 -262h-946zM1049 348q37 0 57.5 22t20.5 63v55h45q32 0 51.5 18.5t19.5 49.5q0 32 -19 50.5t-52 18.5h-45v376q0 49 -35.5 80t-91.5 31t-92.5 -21t-67.5 -70
q-164 -253 -218 -343q-26 -46 -26 -90q0 -45 29 -72.5t77 -27.5h271v-55q0 -40 20.5 -62.5t55.5 -22.5zM973 625h-224v5q54 97 218 352h6v-357z" />
    <glyph glyph-name="uni1000D2.small" unicode="&#x35;&#x20de;" horiz-adv-x="1876" 
d="M465 -17q-131 0 -198 66t-67 196v952q0 130 67 196t198 66h946q265 0 265 -262v-952q0 -262 -265 -262h-946zM475 153h926q105 0 105 107v922q0 107 -105 107h-926q-105 0 -105 -107v-922q0 -107 105 -107zM933 349q-98 0 -165.5 33t-92.5 91q-9 21 -9 44q0 29 18.5 46.5
t49.5 17.5q42 0 69 -38q43 -69 126 -69q55 0 92 36.5t37 91.5t-32 88t-84 33q-46 0 -89 -32q-44 -31 -89 -31q-43 0 -65.5 24.5t-19.5 67.5l18 234q3 41 31 65t73 24h322q29 0 45.5 -16t16.5 -44q0 -27 -17.5 -44t-44.5 -17h-298l-15 -179h7q19 28 62.5 46.5t91.5 18.5
q109 0 176.5 -65t67.5 -170q0 -117 -77.5 -186.5t-204.5 -69.5z" />
    <glyph glyph-name="uni1000D3.small" unicode="&#x35;&#x20de;&#x25a0;" horiz-adv-x="1876" 
d="M465 -17q-131 0 -198 66t-67 196v952q0 130 67 196t198 66h946q265 0 265 -262v-952q0 -262 -265 -262h-946zM935 332q133 0 214 73t81 195q0 109 -71 177t-184 68q-50 0 -96 -19t-65 -48h-8l16 186h311q29 0 47.5 18t18.5 46q0 29 -18 46.5t-48 17.5h-336
q-48 0 -77 -25.5t-32 -68.5l-20 -243q-3 -46 21 -72t70 -26t93 32q45 34 92 34q55 0 88 -34.5t33 -92.5q0 -56 -38.5 -94t-95.5 -38q-87 0 -132 71q-28 40 -72 40q-33 0 -52.5 -18.5t-19.5 -48.5q0 -26 10 -46q26 -61 96.5 -95.5t173.5 -34.5z" />
    <glyph glyph-name="uni1000D4.small" unicode="&#x36;&#x20de;" horiz-adv-x="1876" 
d="M465 -17q-131 0 -198 66t-67 196v952q0 130 67 196t198 66h946q265 0 265 -262v-952q0 -262 -265 -262h-946zM475 153h926q105 0 105 107v922q0 107 -105 107h-926q-105 0 -105 -107v-922q0 -107 105 -107zM945 349q-165 0 -241 120q-55 86 -55 241q0 190 83.5 287.5
t232.5 97.5q75 0 134.5 -29t81.5 -74q11 -22 11 -43q0 -26 -17 -42t-44 -16q-22 0 -38 9t-40 30q-44 40 -92 40q-71 0 -114.5 -61.5t-43.5 -161.5v-13h7q20 42 66.5 71t115.5 29q97 0 165.5 -61t68.5 -167q0 -121 -77.5 -189t-203.5 -68zM937 470q58 0 93 35.5t35 94.5
q0 56 -35.5 91t-92.5 35q-56 0 -91.5 -35t-35.5 -90q0 -58 35.5 -94.5t91.5 -36.5z" />
    <glyph glyph-name="uni1000D5.small" unicode="&#x36;&#x20de;&#x25a0;" horiz-adv-x="1876" 
d="M465 -17q-131 0 -198 66t-67 196v952q0 130 67 196t198 66h946q265 0 265 -262v-952q0 -262 -265 -262h-946zM947 332q132 0 213 71.5t81 196.5q0 111 -71 175t-173 64q-72 0 -120.5 -29.5t-69.5 -74.5h-8v14q0 104 45.5 167.5t119.5 63.5q51 0 96 -41q25 -22 42 -31.5
t40 -9.5q27 0 45.5 17t18.5 44q0 23 -11 45q-24 47 -86.5 77.5t-140.5 30.5q-156 0 -243.5 -102t-87.5 -300q0 -161 58 -252q79 -126 252 -126zM939 459q-58 0 -95.5 38.5t-37.5 97.5q0 57 37.5 94t95.5 37q59 0 96.5 -37t37.5 -95q0 -61 -36.5 -98t-97.5 -37z" />
    <glyph glyph-name="uni1000D6.small" unicode="&#x37;&#x20de;" horiz-adv-x="1876" 
d="M465 -17q-131 0 -198 66t-67 196v952q0 130 67 196t198 66h946q265 0 265 -262v-952q0 -262 -265 -262h-946zM475 153h926q105 0 105 107v922q0 107 -105 107h-926q-105 0 -105 -107v-922q0 -107 105 -107zM841 349q-35 0 -58 20t-23 52q0 26 14 51l268 470v7h-304
q-29 0 -47 17.5t-18 45.5t18 45.5t47 17.5h375q48 0 77.5 -26t29.5 -68q0 -34 -25 -80l-274 -497q-17 -30 -35.5 -42.5t-44.5 -12.5z" />
    <glyph glyph-name="uni1000D7.small" unicode="&#x37;&#x20de;&#x25a0;" horiz-adv-x="1876" 
d="M465 -17q-131 0 -198 66t-67 196v952q0 130 67 196t198 66h946q265 0 265 -262v-952q0 -262 -265 -262h-946zM838 332q52 0 84 58l286 518q27 48 27 85q0 43 -31 71t-81 28h-393q-31 0 -49.5 -18.5t-18.5 -48.5t19 -48t49 -18h318v-7l-279 -490q-15 -27 -15 -54
q0 -33 24 -54.5t60 -21.5z" />
    <glyph glyph-name="uni1000D8.small" unicode="&#x38;&#x20de;" horiz-adv-x="1876" 
d="M465 -17q-131 0 -198 66t-67 196v952q0 130 67 196t198 66h946q265 0 265 -262v-952q0 -262 -265 -262h-946zM475 153h926q105 0 105 107v922q0 107 -105 107h-926q-105 0 -105 -107v-922q0 -107 105 -107zM937 349q-134 0 -214 58t-80 155q0 66 44 115t116 62v6
q-63 18 -96.5 59.5t-33.5 99.5q0 85 73.5 138t191.5 53t191.5 -53t73.5 -138q0 -58 -34 -100t-95 -59v-6q72 -14 115.5 -62t43.5 -115q0 -96 -81.5 -154.5t-214.5 -58.5zM938 789q49 0 80 28t31 71q0 42 -31 69.5t-80 27.5t-80 -27.5t-31 -69.5q0 -43 31 -71t80 -28z
M939 458q58 0 96 32.5t38 81.5q0 50 -37.5 82t-96.5 32q-58 0 -96.5 -32.5t-38.5 -81.5t38 -81.5t97 -32.5z" />
    <glyph glyph-name="uni1000D9.small" unicode="&#x38;&#x20de;&#x25a0;" horiz-adv-x="1876" 
d="M465 -17q-131 0 -198 66t-67 196v952q0 130 67 196t198 66h946q265 0 265 -262v-952q0 -262 -265 -262h-946zM938 332q140 0 225.5 61t85.5 162q0 70 -46 120.5t-121 64.5v6q64 18 99.5 62t35.5 103q0 90 -76.5 145.5t-200.5 55.5t-200.5 -55.5t-76.5 -145.5
q0 -59 35 -102.5t100 -62.5v-6q-76 -14 -122 -65t-46 -121q0 -101 84 -161.5t224 -60.5zM940 792q-51 0 -83.5 29t-32.5 74q0 44 32.5 72.5t83.5 28.5q50 0 83 -28.5t33 -72.5q0 -45 -32.5 -74t-83.5 -29zM941 447q-61 0 -101 33.5t-40 85.5q0 50 40.5 84t100.5 34
q61 0 100 -33.5t39 -84.5q0 -52 -39.5 -85.5t-99.5 -33.5z" />
    <glyph glyph-name="uni1000DA.small" unicode="&#x39;&#x20de;" horiz-adv-x="1876" 
d="M465 -17q-131 0 -198 66t-67 196v952q0 130 67 196t198 66h946q265 0 265 -262v-952q0 -262 -265 -262h-946zM475 153h926q105 0 105 107v922q0 107 -105 107h-926q-105 0 -105 -107v-922q0 -107 105 -107zM922 349q-96 0 -155.5 34t-77.5 81q-7 15 -7 33q0 28 18.5 46
t47.5 18q37 0 65 -32q47 -55 107 -55q71 0 114.5 65t40.5 173h-7q-20 -43 -65 -71.5t-114 -28.5q-98 0 -166.5 61.5t-68.5 167.5q0 115 76 184.5t203 69.5q140 0 217 -92.5t77 -263.5q0 -190 -78.5 -290t-226.5 -100zM941 720q55 0 90.5 35.5t35.5 89.5q0 57 -35.5 94
t-90.5 37q-58 0 -93 -35.5t-35 -94.5q0 -55 35.5 -90.5t92.5 -35.5z" />
    <glyph glyph-name="uni1000DB.small" unicode="&#x39;&#x20de;&#x25a0;" horiz-adv-x="1876" 
d="M465 -17q-131 0 -198 66t-67 196v952q0 130 67 196t198 66h946q265 0 265 -262v-952q0 -262 -265 -262h-946zM923 332q155 0 237 105t82 303q0 179 -80 275.5t-227 96.5q-133 0 -212.5 -72.5t-79.5 -193.5q0 -111 71 -175t174 -64q71 0 119 30t68 75h7q3 -113 -42 -180.5
t-119 -67.5q-63 0 -111 56q-30 34 -69 34q-30 0 -49.5 -19t-19.5 -48q0 -19 7 -34q20 -50 82 -85.5t162 -35.5zM942 721q-59 0 -96 36.5t-37 94.5q0 61 36.5 98t97.5 37q57 0 94.5 -38.5t37.5 -97.5q0 -56 -37.5 -93t-95.5 -37z" />
    <glyph glyph-name=".notdef" horiz-adv-x="2048" 
d="M100 1704v246h1848v-246h-1848zM100 1265v246h1848v-246h-1848zM100 825v246h1848v-246h-1848zM100 385v246h1848v-246h-1848zM100 -55v246h1848v-246h-1848zM100 -494v246h1848v-246h-1848z" />
    <glyph glyph-name=".null" horiz-adv-x="0" 
 />
    <glyph glyph-name="nonmarkingreturn" unicode="&#x2029;" horiz-adv-x="0" 
 />
    <glyph glyph-name="nonmarkingreturn" unicode="&#x2028;" horiz-adv-x="0" 
 />
    <glyph glyph-name="space" unicode=" " horiz-adv-x="559" 
 />
    <glyph glyph-name="exclamationmark" unicode="!" horiz-adv-x="670" 
d="M234 478l-21 966h243l-20 -966h-202zM336 -22q-70 0 -112.5 41t-42.5 108t42.5 108.5t112.5 41.5q69 0 111 -41t42 -109q0 -67 -42 -108t-111 -41z" />
    <glyph glyph-name="quotedbl" unicode="&#x22;" horiz-adv-x="1045" 
d="M237 856l-24 587h219l-24 -587h-171zM637 856l-24 587h219l-24 -587h-171z" />
    <glyph glyph-name="numbersign" unicode="#" horiz-adv-x="1321" 
d="M355 0h-171l80 393h-232l33 169h234l67 335h-243l34 168h244l76 378h171l-77 -378h302l77 378h172l-77 -378h244l-32 -168h-247l-68 -335h254l-32 -169h-256l-80 -393h-171l80 393h-302zM463 557h312l70 344h-312z" />
    <glyph glyph-name="dollarsign" unicode="$" horiz-adv-x="1321" 
d="M605 -144v167q-197 16 -326 122.5t-135 279.5v1l208 1v-2q29 -196 253 -220v437l-39 10q-194 45 -292 136t-98 239v2q0 165 119 270.5t310 120.5v168h118v-168q188 -16 308.5 -124.5t127.5 -275.5v-1l-207 -1v2q-10 91 -71 147.5t-158 70.5v-419l45 -11
q205 -48 306 -137.5t101 -243.5v-2q0 -176 -127 -281.5t-325 -120.5v-167h-118zM387 1043q0 -69 51.5 -118t166.5 -78v391q-103 -14 -160.5 -68t-57.5 -125v-2zM963 407q0 80 -53 128t-187 80v-411q122 10 181 63.5t59 137.5v2z" />
    <glyph glyph-name="percent" unicode="%" horiz-adv-x="1976" 
d="M444 672q-145 0 -228.5 106.5t-83.5 289.5v1q0 183 83.5 288.5t228.5 105.5t228.5 -105.5t83.5 -288.5v-1q0 -183 -83.5 -289.5t-228.5 -106.5zM593 0h-187l978 1443h187zM444 806q71 0 110.5 69t39.5 193v1q0 123 -39.5 191.5t-110.5 68.5t-110 -68.5t-39 -191.5v-1
q0 -124 39 -193t110 -69zM1532 -20q-145 0 -228.5 106t-83.5 289v1q0 183 83.5 289t228.5 106t228.5 -106t83.5 -289v-1q0 -183 -83.5 -289t-228.5 -106zM1532 114q71 0 110 69t39 192v1q0 124 -39 192.5t-110 68.5t-110 -68.5t-39 -192.5v-1q0 -123 39 -192t110 -69z" />
    <glyph glyph-name="ampersand" unicode="&#x26;" horiz-adv-x="1481" 
d="M606 -27q-220 0 -357 113t-137 295v2q0 130 69.5 227.5t213.5 170.5l57 29q-102 113 -142 186.5t-40 147.5v2q0 141 109.5 234t274.5 93q166 0 273.5 -92t107.5 -234v-2q0 -108 -71 -196.5t-236 -177.5l326 -346q68 146 68 346v33h195v-41q0 -292 -121 -488l258 -274v-1
h-262l-119 130q-182 -157 -467 -157zM471 1135q0 -52 31.5 -104t117.5 -144q121 64 170 120.5t49 127.5v2q0 77 -51.5 126t-132.5 49q-80 0 -132 -49.5t-52 -125.5v-2zM326 398q0 -113 83 -182t218 -69q195 0 319 122l-381 417l-46 -23q-193 -95 -193 -263v-2z" />
    <glyph glyph-name="quotesingle" unicode="'" horiz-adv-x="645" 
d="M237 856l-24 587h219l-24 -587h-171z" />
    <glyph glyph-name="parenleft" unicode="(" horiz-adv-x="817" 
d="M524 -362q-289 372 -289 937q0 566 289 937h190q-110 -140 -183.5 -407t-73.5 -530q0 -264 73 -530t184 -407h-190z" />
    <glyph glyph-name="parenright" unicode=")" horiz-adv-x="817" 
d="M293 -362h-190q111 141 184 407t73 530q0 263 -73.5 530t-183.5 407h190q288 -369 288 -937q0 -564 -288 -937z" />
    <glyph glyph-name="asterisk" unicode="*" horiz-adv-x="975" 
d="M407 693l11 252l-204 -132l-81 127l228 121l-228 120l81 127l205 -132l-12 253h163l-12 -252l204 131l81 -126l-228 -121l228 -121l-81 -127l-204 131l12 -251h-163z" />
    <glyph glyph-name="plus" unicode="+" horiz-adv-x="1321" 
d="M119 482v199h442v444h198v-444h443v-199h-443v-444h-198v444h-442z" />
    <glyph glyph-name="comma" unicode="," horiz-adv-x="645" 
d="M118 -375l88 587h231l-166 -587h-153z" />
    <glyph glyph-name="hyphen" unicode="&#x2011;" horiz-adv-x="975" 
d="M153 482v199h669v-199h-669z" />
    <glyph glyph-name="hyphen" unicode="&#x2010;" horiz-adv-x="975" 
d="M153 482v199h669v-199h-669z" />
    <glyph glyph-name="hyphen" unicode="-" horiz-adv-x="975" 
d="M153 482v199h669v-199h-669z" />
    <glyph glyph-name="period" unicode="." horiz-adv-x="645" 
d="M323 -15q-62 0 -104.5 42t-42.5 103q0 62 42.5 104t104.5 42t104 -42t42 -104q0 -61 -42 -103t-104 -42z" />
    <glyph glyph-name="slash" unicode="/" horiz-adv-x="646" 
d="M645 1512l-441 -1874h-204l441 1874h204z" />
    <glyph glyph-name="zero" unicode="0" horiz-adv-x="1330" 
d="M665 -35q-249 0 -391 203t-142 553v2q0 350 142 552.5t391 202.5q248 0 390.5 -202.5t142.5 -552.5v-2q0 -350 -142.5 -553t-390.5 -203zM665 151q144 0 225.5 152t81.5 418v2q0 265 -81.5 416.5t-225.5 151.5q-145 0 -226 -151t-81 -417v-2q0 -266 81 -418t226 -152z
" />
    <glyph glyph-name="one" unicode="1" horiz-adv-x="985" 
d="M509 0v1212h-17l-363 -259v220l380 270h224v-1443h-224z" />
    <glyph glyph-name="two" unicode="2" horiz-adv-x="1265" 
d="M156 0v152l479 503q149 155 197.5 230t48.5 160v3q0 108 -69 176.5t-186 68.5q-121 0 -195.5 -72.5t-74.5 -191.5l-1 -3h-210l-2 2q1 198 139.5 324t355.5 126q202 0 334.5 -115.5t132.5 -293.5v-3q0 -123 -71 -239.5t-267 -310.5l-306 -305v-20h667v-191h-972z" />
    <glyph glyph-name="three" unicode="3" horiz-adv-x="1315" 
d="M664 -27q-228 0 -371 113t-157 295l-1 12h214l1 -10q11 -99 96 -161t218 -62q132 0 213.5 67t81.5 174v2q0 121 -82.5 187.5t-227.5 66.5h-176v174h169q123 0 200 65t77 166v2q0 105 -67.5 163.5t-189.5 58.5q-120 0 -198 -59.5t-88 -161.5l-1 -10h-210l1 11
q17 183 151.5 293.5t344.5 110.5q214 0 344.5 -104.5t130.5 -272.5v-2q0 -130 -84 -218.5t-220 -117.5v-5q161 -14 257.5 -107t96.5 -242v-2q0 -186 -147 -306t-376 -120z" />
    <glyph glyph-name="four" unicode="4" horiz-adv-x="1350" 
d="M818 0v287h-704v190q295 507 601 966h319v-966h199v-190h-199v-287h-216zM329 473h492v781h-13q-251 -378 -479 -767v-14z" />
    <glyph glyph-name="five" unicode="5" horiz-adv-x="1299" 
d="M656 -35q-210 0 -347.5 116t-152.5 295l-1 13h210l1 -8q15 -98 95.5 -163t196.5 -65q133 0 217.5 86t84.5 222v2q0 133 -84.5 218.5t-215.5 85.5q-134 0 -220 -78q-42 -37 -66 -84h-193l72 838h839v-190h-663l-44 -460h17q46 73 126.5 113t180.5 40q203 0 334 -135.5
t131 -343.5v-2q0 -222 -145 -361t-373 -139z" />
    <glyph glyph-name="six" unicode="6" horiz-adv-x="1339" 
d="M689 -35q-74 0 -142.5 18t-132 54.5t-115.5 96.5t-90.5 139t-60 188.5t-21.5 238.5v2q0 366 151 571t419 205q189 0 323 -101.5t170 -266.5l2 -12h-222l-4 10q-31 84 -100.5 132t-169.5 48q-88 0 -156 -41t-109 -114t-63.5 -165.5t-26.5 -204.5q-1 -11 -1 -33h19
q43 94 142 156.5t238 62.5q206 0 339 -136t133 -344v-2q0 -218 -147.5 -360t-374.5 -142zM384 467q0 -132 88 -223t215 -91t215 89t88 219v2q0 133 -85 219t-216 86q-130 0 -217.5 -85t-87.5 -215v-1z" />
    <glyph glyph-name="seven" unicode="7" horiz-adv-x="1192" 
d="M217 0l636 1238v16h-756v189h983v-194l-628 -1249h-235z" />
    <glyph glyph-name="eight" unicode="8" horiz-adv-x="1349" 
d="M674 -27q-240 0 -393 116.5t-153 300.5v2q0 135 88.5 236t231.5 132v5q-123 35 -195.5 120.5t-72.5 199.5v2q0 166 139.5 274.5t354.5 108.5t354.5 -108.5t139.5 -274.5v-2q0 -114 -72.5 -199.5t-194.5 -120.5v-5q143 -31 231.5 -132t88.5 -236v-2q0 -184 -153 -300.5
t-394 -116.5zM674 840q121 0 196.5 63.5t75.5 162.5v2q0 99 -75.5 161.5t-196.5 62.5t-196.5 -62.5t-75.5 -161.5v-2q0 -99 76 -162.5t196 -63.5zM674 153q139 0 227.5 70.5t88.5 180.5v2q0 111 -88.5 183t-227.5 72q-138 0 -226.5 -72t-88.5 -183v-2q0 -110 88.5 -180.5
t226.5 -70.5z" />
    <glyph glyph-name="nine" unicode="9" horiz-adv-x="1339" 
d="M650 1478q89 0 169.5 -25t153 -81.5t125 -140t83.5 -208.5t31 -279v-2q0 -366 -151 -571.5t-419 -205.5q-190 0 -323.5 101.5t-169.5 266.5l-3 12h223l3 -10q31 -84 101 -132t169 -48q88 0 156 41t109.5 114t64 165.5t26.5 204.5q0 6 0.5 16.5t0.5 16.5h-20
q-42 -94 -141 -156.5t-238 -62.5q-206 0 -339.5 136t-133.5 344v2q0 218 148 360t375 142zM649 675q131 0 218.5 85t87.5 215v1q0 132 -88 223t-215 91t-215.5 -89.5t-88.5 -218.5v-2q0 -133 85 -219t216 -86z" />
    <glyph glyph-name="colon" unicode=":" horiz-adv-x="645" 
d="M323 741q-62 0 -104.5 42t-42.5 103q0 62 42.5 104t104.5 42t104 -42t42 -104q0 -61 -42 -103t-104 -42zM323 -15q-62 0 -104.5 42t-42.5 103q0 62 42.5 104t104.5 42t104 -42t42 -104q0 -61 -42 -103t-104 -42z" />
    <glyph glyph-name="semicolon" unicode=";" horiz-adv-x="645" 
d="M323 741q-62 0 -104.5 42t-42.5 103q0 62 42.5 104t104.5 42t104 -42t42 -104q0 -61 -42 -103t-104 -42zM118 -375l88 587h231l-166 -587h-153z" />
    <glyph glyph-name="less" unicode="&#x3c;" horiz-adv-x="1321" 
d="M144 468v226l1033 421v-201l-857 -330l857 -329v-207z" />
    <glyph glyph-name="equal" unicode="=" horiz-adv-x="1321" 
d="M132 754v199h1057v-199h-1057zM132 211v199h1057v-199h-1057z" />
    <glyph glyph-name="greater" unicode="&#x3e;" horiz-adv-x="1321" 
d="M1177 694v-226l-1033 -420v200l857 330l-857 330v207z" />
    <glyph glyph-name="questionmark" unicode="?" horiz-adv-x="1083" 
d="M392 448l-1 80q-4 104 42.5 177t150.5 136q92 55 128 106t36 127v2q0 85 -62.5 140t-163.5 55q-103 0 -166 -58t-69 -157h-2l-206 -1v2q7 176 125.5 287t328.5 111q196 0 319 -104.5t123 -265.5v-2q0 -216 -210 -342q-96 -57 -131 -105.5t-35 -126.5v-61h-207zM508 -22
q-69 0 -112 41t-43 108t43 108.5t112 41.5t111.5 -41.5t42.5 -108.5t-42.5 -108t-111.5 -41z" />
    <glyph glyph-name="at" unicode="@" horiz-adv-x="1887" 
d="M987 -228q-388 0 -619 226.5t-231 606.5v2q0 183 61 338t170 264t264 170t338 61q235 0 418 -93t284.5 -261t101.5 -383v-2q0 -242 -103 -384.5t-279 -142.5q-89 0 -150.5 43t-75.5 115l-1 6h-17q-31 -76 -94.5 -116.5t-151.5 -40.5q-156 0 -251.5 116.5t-95.5 306.5v2
q0 182 95.5 296t248.5 114q79 0 141.5 -37.5t91.5 -103.5h17v121h170v-568q0 -53 27.5 -82t78.5 -29q88 0 140.5 103t52.5 276v2q0 271 -182 437.5t-477 166.5q-192 0 -344 -89t-237 -249.5t-85 -362.5v-2q0 -314 190.5 -501t510.5 -187q214 0 312 44v-139
q-135 -44 -319 -44zM934 337q95 0 151 71t56 191v2q0 120 -55.5 191t-149.5 71q-93 0 -145 -69.5t-52 -192.5v-2q0 -122 52 -192t143 -70z" />
    <glyph glyph-name="A" unicode="A" horiz-adv-x="1423" 
d="M70 0l521 1443h242l521 -1443h-236l-130 390h-552l-131 -390h-235zM703 1190l-207 -620h432l-208 620h-17z" />
    <glyph glyph-name="B" unicode="B" horiz-adv-x="1373" 
d="M181 0v1443h580q203 0 318.5 -96.5t115.5 -262.5v-2q0 -112 -73 -201.5t-180 -107.5v-17q146 -16 235.5 -111t89.5 -236v-2q0 -190 -131 -298.5t-362 -108.5h-593zM709 1260h-304v-431h266q148 0 224.5 54.5t76.5 159.5v2q0 102 -69 158.5t-194 56.5zM716 658h-311v-475
h324q151 0 230 61t79 177v2q0 116 -81.5 175.5t-240.5 59.5z" />
    <glyph glyph-name="C" unicode="C" horiz-adv-x="1485" 
d="M773 -35q-301 0 -476 203t-175 552v2q0 350 174.5 553t475.5 203q238 0 404.5 -136t195.5 -352l-1 -5h-222v3q-32 133 -133.5 212.5t-243.5 79.5q-194 0 -307.5 -150.5t-113.5 -407.5v-2q0 -257 113.5 -407t308.5 -150q143 0 243.5 71.5t131.5 193.5l2 4h222v-6
q-32 -208 -195 -334.5t-404 -126.5z" />
    <glyph glyph-name="D" unicode="D" horiz-adv-x="1503" 
d="M181 0v1443h521q321 0 500 -188.5t179 -528.5v-2q0 -344 -178.5 -534t-500.5 -190h-521zM405 193h272q227 0 351.5 138.5t124.5 389.5v2q0 249 -126 388t-350 139h-272v-1057z" />
    <glyph glyph-name="E" unicode="E" horiz-adv-x="1239" 
d="M181 0v1443h916v-193h-692v-422h655v-186h-655v-449h692v-193h-916z" />
    <glyph glyph-name="F" unicode="F" horiz-adv-x="1191" 
d="M181 0v1443h901v-193h-677v-457h620v-189h-620v-604h-224z" />
    <glyph glyph-name="G" unicode="G" horiz-adv-x="1539" 
d="M789 -35q-307 0 -487 204t-180 552v2q0 344 181 549.5t484 205.5q244 0 409 -127t204 -338l2 -10h-224l-3 10q-39 128 -139.5 197.5t-248.5 69.5q-200 0 -318 -150.5t-118 -405.5v-2q0 -258 119 -408.5t322 -150.5q177 0 287.5 102.5t111.5 268.5v32h-371v181h592v-179
q0 -274 -169.5 -438.5t-453.5 -164.5z" />
    <glyph glyph-name="H" unicode="H" horiz-adv-x="1550" 
d="M181 0v1443h224v-610h741v610h223v-1443h-223v639h-741v-639h-224z" />
    <glyph glyph-name="I" unicode="I" horiz-adv-x="585" 
d="M181 0v1443h224v-1443h-224z" />
    <glyph glyph-name="J" unicode="J" horiz-adv-x="1148" 
d="M518 -35q-196 0 -311 108t-124 285l-1 12h221l1 -9q7 -87 61.5 -141.5t150.5 -54.5q111 0 169.5 65t58.5 188v1025h224v-1027q0 -213 -119 -332t-331 -119z" />
    <glyph glyph-name="K" unicode="&#x212a;" horiz-adv-x="1386" 
d="M181 0v1443h224v-682h16l597 682h265l-558 -626l606 -817h-280l-484 665l-162 -184v-481h-224z" />
    <glyph glyph-name="K" unicode="K" horiz-adv-x="1386" 
d="M181 0v1443h224v-682h16l597 682h265l-558 -626l606 -817h-280l-484 665l-162 -184v-481h-224z" />
    <glyph glyph-name="L" unicode="L" horiz-adv-x="1183" 
d="M181 0v1443h224v-1250h676v-193h-900z" />
    <glyph glyph-name="M" unicode="M" horiz-adv-x="1814" 
d="M181 0v1443h258l460 -1151h16l460 1151h258v-1443h-204v1059h-15l-424 -1059h-166l-423 1059h-16v-1059h-204z" />
    <glyph glyph-name="N" unicode="N" horiz-adv-x="1539" 
d="M181 0v1443h202l742 -1050h15v1050h218v-1443h-202l-741 1048h-16v-1048h-218z" />
    <glyph glyph-name="O" unicode="O" horiz-adv-x="1591" 
d="M796 -35q-314 0 -494 203.5t-180 552.5v2q0 348 181.5 551.5t492.5 203.5t492 -203.5t181 -551.5v-2q0 -348 -180.5 -552t-492.5 -204zM796 163q205 0 324.5 151.5t119.5 406.5v2q0 256 -119.5 406.5t-324.5 150.5t-325 -150.5t-120 -406.5v-2q0 -255 119 -406.5
t326 -151.5z" />
    <glyph glyph-name="P" unicode="P" horiz-adv-x="1329" 
d="M181 0v1443h562q213 0 346 -130.5t133 -342.5v-2q0 -211 -133.5 -343t-345.5 -132h-338v-493h-224zM687 1254h-282v-573h282q146 0 226.5 75t80.5 211v2q0 135 -81 210t-226 75z" />
    <glyph glyph-name="Q" unicode="Q" horiz-adv-x="1591" 
d="M796 -35q-314 0 -494 203.5t-180 552.5v2q0 348 181.5 551.5t492.5 203.5t492 -203.5t181 -551.5v-2q0 -204 -64.5 -362.5t-185.5 -255.5l190 -259h-231l-122 166q-116 -45 -260 -45zM796 163q70 0 133 20l-186 252h231l115 -156q151 151 151 442v2q0 256 -119.5 406.5
t-324.5 150.5t-325 -150.5t-120 -406.5v-2q0 -255 119 -406.5t326 -151.5z" />
    <glyph glyph-name="R" unicode="R" horiz-adv-x="1368" 
d="M181 0v1443h569q221 0 350.5 -119t129.5 -321v-2q0 -146 -74.5 -256.5t-205.5 -154.5l324 -590h-259l-294 555h-316v-555h-224zM405 737h323q129 0 200.5 67.5t71.5 190.5v2q0 120 -74.5 189t-204.5 69h-316v-518z" />
    <glyph glyph-name="S" unicode="S" horiz-adv-x="1333" 
d="M669 -35q-242 0 -391 112t-164 296l-1 13h220l1 -11q9 -98 103.5 -156.5t240.5 -58.5q138 0 226.5 63t88.5 163v1q0 85 -64 139.5t-205 84.5l-158 34q-217 46 -318 147.5t-101 263.5v1q1 186 147 303.5t376 117.5q225 0 367.5 -112.5t154.5 -284.5l1 -14h-217l-2 13
q-15 91 -97 147.5t-210 55.5q-130 0 -212 -57.5t-82 -157.5v-1q0 -82 62.5 -134.5t200.5 -82.5l157 -35q226 -48 326.5 -143.5t100.5 -257.5v-1q0 -206 -149 -327t-402 -121z" />
    <glyph glyph-name="T" unicode="T" horiz-adv-x="1317" 
d="M547 0v1250h-454v193h1131v-193h-453v-1250h-224z" />
    <glyph glyph-name="U" unicode="U" horiz-adv-x="1527" 
d="M764 -35q-269 0 -427 146t-158 386v946h224v-929q0 -159 95.5 -255t265.5 -96t265 95.5t95 255.5v929h224v-946q0 -240 -157 -386t-427 -146z" />
    <glyph glyph-name="V" unicode="V" horiz-adv-x="1415" 
d="M584 0l-514 1443h243l386 -1173h17l386 1173h243l-514 -1443h-247z" />
    <glyph glyph-name="W" unicode="W" horiz-adv-x="2013" 
d="M478 0l-389 1443h233l265 -1122h14l301 1122h208l303 -1122h14l264 1122h233l-390 -1443h-211l-310 1079h-14l-309 -1079h-212z" />
    <glyph glyph-name="X" unicode="X" horiz-adv-x="1427" 
d="M88 0l480 726v3l-475 714h267l357 -559h10l358 559h252l-489 -721v-4l480 -718h-262l-360 551h-8l-362 -551h-248z" />
    <glyph glyph-name="Y" unicode="Y" horiz-adv-x="1381" 
d="M578 0v591l-508 852h249l363 -629h17l363 629h249l-509 -852v-591h-224z" />
    <glyph glyph-name="Z" unicode="Z" horiz-adv-x="1365" 
d="M141 0v153l784 1080v17h-760v193h1041v-153l-780 -1080v-17h799v-193h-1084z" />
    <glyph glyph-name="bracketleft" unicode="[" horiz-adv-x="817" 
d="M262 -362v1874h477v-165h-268v-1544h268v-165h-477z" />
    <glyph glyph-name="backslash" unicode="\" horiz-adv-x="646" 
d="M204 1512l441 -1874h-204l-441 1874h204z" />
    <glyph glyph-name="bracketright" unicode="]" horiz-adv-x="817" 
d="M555 -362h-478v165h269v1544h-269v165h478v-1874z" />
    <glyph glyph-name="asciicircum" unicode="^" horiz-adv-x="1321" 
d="M336 799h-220l445 644h198l446 -644h-220l-325 482z" />
    <glyph glyph-name="underscore" unicode="_" horiz-adv-x="1227" 
d="M0 -298v198h1227v-198h-1227z" />
    <glyph glyph-name="grave" unicode="`" horiz-adv-x="1024" 
d="M543 1236l-233 344h231l174 -344h-172z" />
    <glyph glyph-name="a" unicode="a" horiz-adv-x="1158" 
d="M454 -18q-158 0 -259 88.5t-101 234.5v2q0 145 105 228t300 95l294 17v96q0 90 -56.5 137.5t-165.5 47.5q-89 0 -147 -31.5t-78 -89.5l-1 -4h-209l1 7q20 134 140 215.5t304 81.5q204 0 315.5 -96t111.5 -268v-743h-215v154h-17q-48 -83 -131 -127.5t-191 -44.5zM310 314
q0 -74 56 -116.5t146 -42.5q121 0 201 70.5t80 175.5v93l-265 -17q-218 -13 -218 -161v-2z" />
    <glyph glyph-name="b" unicode="b" horiz-adv-x="1285" 
d="M733 -18q-113 0 -199.5 49.5t-134.5 139.5h-16v-171h-217v1512h217v-598h16q44 88 133.5 139.5t200.5 51.5q207 0 328.5 -151.5t121.5 -409.5v-2q0 -256 -122 -408t-328 -152zM672 167q136 0 213 100t77 275v2q0 175 -77 275t-213 100t-214.5 -100.5t-78.5 -274.5v-2
q0 -174 78.5 -274.5t214.5 -100.5z" />
    <glyph glyph-name="c" unicode="c" horiz-adv-x="1167" 
d="M613 -21q-238 0 -374.5 152t-136.5 415v2q0 259 136.5 409t373.5 150q199 0 321 -100.5t145 -264.5v-5l-208 -1l-1 3q-19 84 -85.5 135.5t-170.5 51.5q-135 0 -212.5 -101t-77.5 -277v-2q0 -180 78 -283t212 -103q201 0 255 179l2 5h208l-2 -9q-30 -164 -148.5 -260
t-314.5 -96z" />
    <glyph glyph-name="d" unicode="d" horiz-adv-x="1285" 
d="M552 -18q-205 0 -327.5 152t-122.5 408v2q0 258 121.5 409.5t328.5 151.5q111 0 200.5 -51.5t133.5 -139.5h17v598h216v-1512h-216v171h-17q-48 -90 -134.5 -139.5t-199.5 -49.5zM614 167q136 0 214 100.5t78 274.5v2q0 174 -78.5 274.5t-213.5 100.5q-136 0 -213.5 -100
t-77.5 -275v-2q0 -175 77.5 -275t213.5 -100z" />
    <glyph glyph-name="e" unicode="e" horiz-adv-x="1192" 
d="M612 -21q-238 0 -374 151t-136 410v1q0 255 136 410.5t363 155.5q225 0 357 -149t132 -396v-76h-770q3 -155 82.5 -242t214.5 -87q96 0 160.5 38t87.5 87l4 8l209 1l-2 -9q-14 -56 -49.5 -108t-91 -96.5t-139.5 -71.5t-184 -27zM602 929q-114 0 -189.5 -75.5
t-89.5 -212.5h552q-12 141 -85.5 214.5t-187.5 73.5z" />
    <glyph glyph-name="f" unicode="f" horiz-adv-x="775" 
d="M233 0v915h-179v171h179v114q0 322 336 322q66 0 128 -10v-159q-33 5 -83 5q-88 0 -127.5 -41.5t-39.5 -126.5v-104h241v-171h-239v-915h-216z" />
    <glyph glyph-name="g" unicode="g" horiz-adv-x="1274" 
d="M615 -383q-204 0 -328 82t-144 220l2 2h219l1 -2q14 -58 80 -93t173 -35q135 0 210 60.5t75 171.5v214h-16q-50 -89 -136.5 -136.5t-198.5 -47.5q-207 0 -329 144.5t-122 376.5v2q0 236 123 382.5t332 146.5q112 0 198.5 -52t134.5 -145h13v178h216v-1064
q0 -185 -136 -295t-367 -110zM612 232q136 0 215.5 94.5t79.5 248.5v2q0 154 -79.5 249t-215.5 95t-212.5 -94.5t-76.5 -249.5v-2q0 -155 76.5 -249t212.5 -94z" />
    <glyph glyph-name="h" unicode="h" horiz-adv-x="1237" 
d="M166 0v1512h217v-591h16q85 186 315 186q182 0 279.5 -104.5t97.5 -299.5v-703h-216v652q0 136 -57.5 202.5t-176.5 66.5t-188.5 -76.5t-69.5 -207.5v-637h-217z" />
    <glyph glyph-name="i" unicode="i" horiz-adv-x="536" 
d="M269 1280q-56 0 -96 39.5t-40 95.5t40 96t96 40t96 -40t40 -96q0 -55 -40 -95t-96 -40zM160 0v1086h216v-1086h-216z" />
    <glyph glyph-name="j" unicode="j" horiz-adv-x="535" 
d="M267 1280q-56 0 -96 39.5t-40 95.5t40 96t96 40t96 -40t40 -96t-40 -95.5t-96 -39.5zM23 -372q-8 0 -25 0.5t-23 0.5v178h30q84 0 119 33t35 114v1132h216v-1133q0 -166 -87 -245.5t-265 -79.5z" />
    <glyph glyph-name="k" unicode="k" horiz-adv-x="1155" 
d="M166 0v1512h217v-884h16l431 458h254l-453 -458l483 -628h-264l-374 488l-93 -93v-395h-217z" />
    <glyph glyph-name="l" unicode="l" horiz-adv-x="549" 
d="M166 0v1512h217v-1512h-217z" />
    <glyph glyph-name="m" unicode="m" horiz-adv-x="1828" 
d="M156 0v1086h217v-167h16q36 90 113 139t183 49q108 0 186 -52t115 -142h17q42 89 130.5 141.5t200.5 52.5q164 0 255.5 -94.5t91.5 -263.5v-749h-216v697q0 224 -210 224q-102 0 -165.5 -67t-63.5 -167v-687h-216v719q0 93 -56.5 147.5t-152.5 54.5q-98 0 -163 -73.5
t-65 -180.5v-667h-217z" />
    <glyph glyph-name="n" unicode="n" horiz-adv-x="1227" 
d="M156 0v1086h217v-165h16q85 186 315 186q182 0 279.5 -104.5t97.5 -299.5v-703h-216v652q0 136 -57.5 202.5t-176.5 66.5t-188.5 -76.5t-69.5 -207.5v-637h-217z" />
    <glyph glyph-name="o" unicode="o" horiz-adv-x="1231" 
d="M616 -21q-239 0 -376.5 150.5t-137.5 412.5v2q0 262 137.5 412.5t376.5 150.5q238 0 375.5 -150.5t137.5 -412.5v-2q0 -262 -137 -412.5t-376 -150.5zM616 160q139 0 215.5 100.5t76.5 281.5v2q0 181 -76.5 281.5t-215.5 100.5q-140 0 -216 -100.5t-76 -281.5v-2
q0 -181 76 -281.5t216 -100.5z" />
    <glyph glyph-name="p" unicode="p" horiz-adv-x="1277" 
d="M156 -362v1448h217v-171h16q48 90 134.5 140t199.5 50q206 0 328 -152.5t122 -408.5v-2q0 -258 -121.5 -409t-328.5 -151q-112 0 -201 51t-133 139h-16v-534h-217zM662 167q136 0 213 100t77 275v2q0 176 -77 275.5t-213 99.5t-214.5 -100.5t-78.5 -274.5v-2
q0 -174 78.5 -274.5t214.5 -100.5z" />
    <glyph glyph-name="q" unicode="q" horiz-adv-x="1276" 
d="M905 -362v526h-17q-43 -86 -131 -134t-204 -48q-206 0 -328 152t-122 408v2q0 258 122 409.5t330 151.5q109 0 198.5 -53t138.5 -146h13v180h216v-1448h-216zM616 167q134 0 213.5 101.5t79.5 273.5v2q0 173 -79.5 274t-214.5 101q-136 0 -213.5 -100t-77.5 -275v-2
q0 -175 78 -275t214 -100z" />
    <glyph glyph-name="r" unicode="r" horiz-adv-x="820" 
d="M156 0v1086h217v-164h16q30 87 103.5 135t181.5 48q51 0 95 -10v-200q-63 13 -117 13q-125 0 -202 -71t-77 -188v-649h-217z" />
    <glyph glyph-name="s" unicode="s" horiz-adv-x="1104" 
d="M551 -21q-194 0 -313.5 83t-135.5 222v1h217l1 -1q21 -64 81 -100.5t154 -36.5q101 0 164 41.5t63 108.5v2q0 52 -42 87t-135 56l-173 40q-154 35 -227 107.5t-73 191.5v1q0 142 119 233.5t303 91.5q183 0 297.5 -83t128.5 -218v-1h-207v2q-16 59 -74 96t-146 37
q-90 0 -147.5 -40.5t-57.5 -105.5v-2q0 -51 40.5 -84t131.5 -55l172 -39q158 -37 233.5 -107.5t75.5 -187.5v-2q0 -149 -127.5 -243.5t-322.5 -94.5z" />
    <glyph glyph-name="t" unicode="t" horiz-adv-x="780" 
d="M566 -7q-180 0 -258.5 68t-78.5 225v629h-170v171h170v274h221v-274h233v-171h-233v-577q0 -88 35.5 -126.5t115.5 -38.5q42 0 82 4v-173q-64 -11 -117 -11z" />
    <glyph glyph-name="u" unicode="u" horiz-adv-x="1227" 
d="M518 -21q-182 0 -277 105t-95 299v703h217v-652q0 -137 53.5 -203t171.5 -66q129 0 198 75.5t69 208.5v637h216v-1086h-216v164h-17q-39 -89 -121 -137t-199 -48z" />
    <glyph glyph-name="v" unicode="v" horiz-adv-x="1140" 
d="M455 0l-393 1086h230l271 -866h17l270 866h228l-392 -1086h-231z" />
    <glyph glyph-name="w" unicode="w" horiz-adv-x="1640" 
d="M365 0l-300 1086h218l195 -838h16l224 838h206l224 -838h17l194 838h215l-299 -1086h-223l-225 810h-17l-224 -810h-221z" />
    <glyph glyph-name="x" unicode="x" horiz-adv-x="1115" 
d="M72 0l361 541l-364 545h251l234 -388h17l232 388h240l-359 -536l363 -550h-247l-238 392h-16l-238 -392h-236z" />
    <glyph glyph-name="y" unicode="y" horiz-adv-x="1152" 
d="M262 -382q-40 0 -87 5v171q28 -4 73 -4q77 0 123.5 36t70.5 117l16 56l-394 1087h234l272 -868h19l271 868h228l-404 -1128q-68 -192 -161.5 -266t-260.5 -74z" />
    <glyph glyph-name="z" unicode="z" horiz-adv-x="1124" 
d="M131 0v141l600 757v17h-596v171h852v-149l-587 -749v-17h593v-171h-862z" />
    <glyph glyph-name="braceleft" unicode="{" horiz-adv-x="817" 
d="M677 -362q-193 0 -283.5 86.5t-90.5 269.5v262q0 116 -50 162.5t-176 47.5v222q126 0 176 46.5t50 162.5v260q0 183 90.5 269t283.5 86h62v-167h-41q-102 0 -146 -49.5t-44 -164.5v-301q0 -216 -234 -240v-27q234 -24 234 -239v-305q0 -115 44 -164.5t146 -49.5h41v-167
h-62z" />
    <glyph glyph-name="bar" unicode="|" horiz-adv-x="560" 
d="M181 -362v1805h198v-1805h-198z" />
    <glyph glyph-name="braceright" unicode="}" horiz-adv-x="817" 
d="M139 -362h-62v167h42q101 0 145 49.5t44 164.5v305q0 215 235 239v27q-235 24 -235 240v301q0 115 -43.5 164.5t-145.5 49.5h-42v167h62q193 0 283.5 -86t90.5 -269v-260q0 -116 50.5 -162.5t175.5 -46.5v-222q-125 -1 -175.5 -47.5t-50.5 -162.5v-262
q0 -183 -90.5 -269.5t-283.5 -86.5z" />
    <glyph glyph-name="asciitilde" unicode="~" horiz-adv-x="1321" 
d="M900 411q-60 0 -130.5 25t-124 55t-119.5 55t-118 25q-168 0 -276 -123v192q111 120 289 120q60 0 130.5 -25t124.5 -55t119.5 -55t117.5 -25q167 0 276 123v-192q-111 -120 -289 -120z" />
    <glyph glyph-name="nonbreakingspace" unicode="&#xa0;" horiz-adv-x="559" 
 />
    <glyph glyph-name="exclamationmarkinverted" unicode="&#xa1;" horiz-adv-x="670" 
d="M335 1108q69 0 111.5 -41t42.5 -108t-42.5 -108.5t-111.5 -41.5q-70 0 -112 41t-42 109q0 67 42 108t112 41zM437 608l20 -966h-243l20 966h203z" />
    <glyph glyph-name="centsign" unicode="&#xa2;" horiz-adv-x="1321" 
d="M628 0v171q-210 20 -332 166t-122 384v2q0 235 123 382.5t331 167.5v169h118v-169q182 -15 294.5 -124t127.5 -262l-2 -1l-203 -1l-1 2q-16 82 -71.5 137t-144.5 68v-740q88 11 143.5 62.5t71.5 136.5l2 1l205 1l1 -2q-17 -159 -131.5 -262.5t-291.5 -118.5v-170h-118z
M392 721q0 -158 62.5 -251t173.5 -115v734q-111 -21 -173.5 -115.5t-62.5 -250.5v-2z" />
    <glyph glyph-name="sterlingsign" unicode="&#xa3;" horiz-adv-x="1321" 
d="M117 30v179q136 29 216.5 114.5t80.5 201.5q0 58 -21 130h-276v140h222q-48 118 -48 206q0 196 141.5 308.5t386.5 112.5q190 0 308 -53v-186q-43 23 -124 37.5t-163 14.5q-152 0 -238.5 -64.5t-86.5 -179.5q0 -82 45 -196h468v-140h-416q17 -63 17 -121
q0 -202 -192 -306v-13h759v-185h-1079z" />
    <glyph glyph-name="currencysign" unicode="&#xa4;" horiz-adv-x="1321" 
d="M1078 722v-1q0 -128 -67 -229l199 -199l-122 -121l-198 198q-105 -67 -229 -67h-2q-125 0 -229 67l-198 -198l-122 121l199 199q-67 101 -67 229v1q0 128 67 229l-199 199l122 121l198 -198q104 67 229 67h2q124 0 229 -67l198 198l122 -121l-199 -199q67 -101 67 -229z
M923 722q0 110 -76 186.5t-187 76.5h-2q-110 0 -186 -76.5t-76 -186.5v-2q0 -110 76 -186.5t186 -76.5h2q111 0 187 76.5t76 186.5v2z" />
    <glyph glyph-name="yensign" unicode="&#xa5;" horiz-adv-x="1321" 
d="M210 287v118h340v154h-340v118h283l-438 736h244l358 -638h8l358 638h243l-438 -736h282v-118h-339v-154h339v-118h-339v-257h-221v257h-340z" />
    <glyph glyph-name="brokenbar" unicode="&#xa6;" horiz-adv-x="560" 
d="M379 1444v-722h-198v722h198zM181 -362v722h198v-722h-198z" />
    <glyph glyph-name="section" unicode="&#xa7;" horiz-adv-x="1279" 
d="M642 -264q-182 0 -303 86.5t-135 224.5l-1 11h211l1 -6q11 -68 76.5 -109t158.5 -41q99 0 160.5 45t61.5 117v2q0 56 -46 93.5t-147 63.5l-158 43q-168 45 -247 120t-79 185v2q0 95 62 168.5t166 106.5v14q-220 94 -220 278v3q0 149 120 240.5t315 91.5
q178 0 293.5 -80.5t135.5 -217.5l2 -12h-209l-1 6q-11 63 -72 100.5t-152 37.5q-97 0 -157 -43.5t-60 -113.5v-3q0 -56 43 -93t139 -63l159 -43q170 -46 249 -118t79 -180v-2q0 -100 -62.5 -174.5t-168.5 -107.5v-14q227 -93 227 -278v-2q0 -149 -123 -243.5t-318 -94.5z
M576 439l96 -26q95 14 149 64.5t54 126.5v2q0 125 -172 170l-96 27q-94 -15 -148 -65.5t-54 -126.5v-2q0 -122 171 -170z" />
    <glyph glyph-name="dieresis" unicode="&#xa8;" horiz-adv-x="1024" 
d="M283 1288q-52 0 -88.5 36.5t-36.5 88.5q0 51 36.5 87.5t88.5 36.5q51 0 88 -36.5t37 -87.5q0 -52 -37 -88.5t-88 -36.5zM742 1288q-51 0 -88 36.5t-37 88.5q0 51 37 87.5t88 36.5q52 0 88.5 -36.5t36.5 -87.5q0 -52 -36.5 -88.5t-88.5 -36.5z" />
    <glyph glyph-name="copyright" unicode="&#xa9;" horiz-adv-x="1835" 
d="M1713 725v-7q0 -218 -105 -400t-287 -287t-400 -105h-7q-164 0 -310.5 62t-252 167.5t-167.5 252.5t-62 310v7q0 164 62 310.5t167.5 252t252 167.5t310.5 62h7q163 0 310 -62t252.5 -167.5t167.5 -252t62 -310.5zM1565 725q0 178 -85.5 326t-233.5 233t-325 85h-7
q-133 0 -252.5 -50t-205.5 -136t-136 -205.5t-50 -252.5v-7q0 -133 50 -252.5t136 -205.5t205.5 -136t252.5 -50h7q177 0 325 85t233.5 233t85.5 326v7zM931 346q-165 0 -260 100.5t-95 274.5v1q0 174 95 274.5t259 100.5q134 0 225.5 -75.5t102.5 -193.5v-7h-156v3
q-12 58 -59 94t-113 36q-88 0 -138.5 -62t-50.5 -170v-1q0 -107 51 -169.5t139 -62.5q66 0 112 34t58 90l1 5h156v-7q-12 -118 -101.5 -191.5t-225.5 -73.5z" />
    <glyph glyph-name="a.sups" unicode="&#xaa;" horiz-adv-x="830" 
d="M319 756q-103 0 -168.5 55.5t-65.5 146.5v1q0 91 69.5 143t199.5 60l185 10v57q0 99 -136 99q-114 0 -139 -67l-1 -3h-151l1 6q12 88 92.5 140.5t205.5 52.5q136 0 210.5 -60t74.5 -168v-463h-157v92h-12q-29 -48 -84 -75t-124 -27zM242 968q0 -41 34.5 -64.5t89.5 -23.5
q74 0 123.5 38t49.5 96v53l-163 -10q-134 -7 -134 -88v-1z" />
    <glyph glyph-name="guillemetleft" unicode="&#xab;" horiz-adv-x="1382" 
d="M519 147l-348 414v8l350 415h228l-349 -411v-15l349 -411h-230zM981 147l-348 414v8l350 415h228l-349 -411v-15l349 -411h-230z" />
    <glyph glyph-name="logicalnot" unicode="&#xac;" horiz-adv-x="1321" 
d="M132 482v199h1057v-643h-199v444h-858z" />
    <glyph glyph-name="registered" unicode="&#xae;" horiz-adv-x="1436" 
d="M1314 886v-7q0 -163 -78.5 -299.5t-214.5 -215t-299 -78.5h-7q-163 0 -299.5 78.5t-215 215t-78.5 299.5v7q0 163 78.5 299t215 214.5t299.5 78.5h7q163 0 299 -78.5t214.5 -214.5t78.5 -299zM1173 886q0 190 -131 320.5t-320 130.5h-7q-190 0 -321 -130.5t-131 -320.5
v-7q0 -190 131 -321t321 -131h7q189 0 320 131t131 321v7zM473 582v600h272q114 0 175.5 -53t61.5 -148v-1q0 -55 -29 -101t-81 -68l129 -229h-173l-111 204h-90v-204h-154zM627 899h100q45 0 71 21.5t26 57.5v1q0 35 -26.5 57t-70.5 22h-100v-159z" />
    <glyph glyph-name="macron" unicode="&#xaf;" horiz-adv-x="1024" 
d="M172 1337v150h680v-150h-680z" />
    <glyph glyph-name="degree" unicode="&#xb0;" horiz-adv-x="975" 
d="M488 709q-151 0 -251.5 101.5t-100.5 248.5v2q0 147 100.5 248.5t251.5 101.5q150 0 251 -101.5t101 -248.5v-2q0 -147 -101 -248.5t-251 -101.5zM488 875q77 0 126.5 53.5t49.5 130.5v2q0 78 -49 131t-127 53q-79 0 -128 -52.5t-49 -131.5v-2q0 -78 49 -131t128 -53z
" />
    <glyph glyph-name="plusminus" unicode="&#xb1;" horiz-adv-x="1321" 
d="M563 228v359h-398v199h398v358h195v-358h398v-199h-398v-359h-195zM165 19v171h991v-171h-991z" />
    <glyph glyph-name="two.sups" unicode="&#xb2;" horiz-adv-x="731" 
d="M88 766v116l256 230q84 78 112 115.5t28 73.5v2q0 46 -33.5 74.5t-89.5 28.5q-59 0 -96 -32t-37 -83v-3l-149 1v2q0 110 80.5 178t209.5 68q121 0 197.5 -61t76.5 -159v-2q0 -65 -41.5 -127t-148.5 -154l-149 -126v-6h351v-136h-567z" />
    <glyph glyph-name="three.sups" unicode="&#xb3;" horiz-adv-x="759" 
d="M382 749q-133 0 -215.5 62.5t-90.5 166.5l-1 7h154l1 -6q6 -41 47 -67t105 -26q63 0 102.5 28.5t39.5 73.5v1q0 50 -40.5 77t-114.5 27h-91v119h89q63 0 101 26.5t38 69.5v1q0 44 -33.5 70t-92.5 26q-58 0 -96 -26.5t-43 -70.5v-5h-148v6q9 103 86.5 164.5t200.5 61.5
q127 0 203 -56t76 -147v-1q0 -68 -46.5 -113t-119.5 -59v-3q90 -8 142 -54.5t52 -121.5v-1q0 -103 -84 -166.5t-221 -63.5z" />
    <glyph glyph-name="acute" unicode="&#xb4;" horiz-adv-x="1024" 
d="M482 1236h-172l174 344h231z" />
    <glyph glyph-name="mu.grek" unicode="&#x3bc;" horiz-adv-x="1296" 
d="M156 -362v1448h217v-651q0 -271 226 -271q118 0 188 77t70 207v638h217v-794q0 -70 21.5 -97t74.5 -27q23 0 50 5v-171q-45 -12 -99 -12q-113 0 -169 39.5t-75 134.5l-2 13h-17q-35 -100 -99.5 -149t-168.5 -49q-145 0 -201 113h-16v-454h-217z" />
    <glyph glyph-name="mu.grek" unicode="&#xb5;" horiz-adv-x="1296" 
d="M156 -362v1448h217v-651q0 -271 226 -271q118 0 188 77t70 207v638h217v-794q0 -70 21.5 -97t74.5 -27q23 0 50 5v-171q-45 -12 -99 -12q-113 0 -169 39.5t-75 134.5l-2 13h-17q-35 -100 -99.5 -149t-168.5 -49q-145 0 -201 113h-16v-454h-217z" />
    <glyph glyph-name="paragraph" unicode="&#xb6;" horiz-adv-x="1279" 
d="M569 -233v831h-19q-194 0 -324.5 118.5t-131.5 296.5v2q0 185 130.5 306.5t326.5 121.5h203v-1676h-185zM913 -233v1676h185v-1676h-185z" />
    <glyph glyph-name="middledot" unicode="&#xb7;" horiz-adv-x="645" 
d="M323 436q-62 0 -104.5 42.5t-42.5 103.5t42.5 103t104.5 42t104 -42t42 -103t-42 -103.5t-104 -42.5z" />
    <glyph glyph-name="cedilla" unicode="&#xb8;" horiz-adv-x="1024" 
d="M470 -494q-87 0 -159 18v123q55 -13 124 -13q52 0 88 17.5t36 56.5v2q0 44 -35.5 61t-114.5 17h-38v93l98 143h141v-24l-71 -99q96 -2 155 -52t59 -133v-2q0 -104 -79.5 -156t-203.5 -52z" />
    <glyph glyph-name="one.sups" unicode="&#xb9;" horiz-adv-x="569" 
d="M273 766v592h-10l-195 -125v151l205 133h161v-751h-161z" />
    <glyph glyph-name="o.sups" unicode="&#xba;" horiz-adv-x="883" 
d="M441 753q-159 0 -250 93.5t-91 257.5v1q0 164 91.5 258t249.5 94q159 0 250.5 -94t91.5 -258v-1q0 -164 -91 -257.5t-251 -93.5zM441 885q85 0 132 57.5t47 161.5v1q0 104 -47 162t-132 58t-131.5 -58t-46.5 -162v-1q0 -104 46.5 -161.5t131.5 -57.5z" />
    <glyph glyph-name="guillemetright" unicode="&#xbb;" horiz-adv-x="1382" 
d="M863 984l348 -415v-8l-350 -414h-228l350 411v14l-350 412h230zM401 984l348 -415v-8l-349 -414h-229l350 411v14l-350 412h230z" />
    <glyph glyph-name="onequarter" unicode="&#xbc;" horiz-adv-x="1678" 
d="M273 692v592h-10l-195 -125v151l205 133h161v-751h-161zM416 0h-187l979 1443h186zM1352 0v133h-388v133q123 205 316 485h226v-482h104v-136h-104v-133h-154zM1110 264h245v360h-8q-147 -205 -237 -351v-9z" />
    <glyph glyph-name="onehalf" unicode="&#xbd;" horiz-adv-x="1749" 
d="M273 692v592h-10l-195 -125v151l205 133h161v-751h-161zM416 0h-187l979 1443h186zM1106 0v115l256 230q84 79 112 116.5t28 73.5v2q0 46 -33.5 74t-89.5 28q-59 0 -96 -31.5t-37 -82.5v-4l-149 1l-1 3q0 109 81 177.5t209 68.5q121 0 198 -61t77 -159v-2
q0 -65 -42 -127.5t-149 -154.5l-148 -125v-6h350v-136h-566z" />
    <glyph glyph-name="threequarters" unicode="&#xbe;" horiz-adv-x="1879" 
d="M382 675q-133 0 -215.5 62.5t-90.5 166.5l-1 7h154l1 -6q6 -41 47 -67.5t105 -26.5q63 0 102.5 29t39.5 74v1q0 49 -40.5 76t-114.5 27h-91v120h89q63 0 101 26.5t38 69.5v1q0 44 -33.5 69.5t-92.5 25.5q-58 0 -96 -26.5t-43 -70.5v-5h-148v7q9 103 86.5 164t200.5 61
q127 0 203 -55.5t76 -146.5v-1q0 -68 -46.5 -113.5t-119.5 -58.5v-4q90 -8 142 -54t52 -121v-1q0 -103 -84 -166.5t-221 -63.5zM606 0h-187l979 1443h186zM1554 0v133h-388v133q117 194 315 485h226v-482h104v-136h-104v-133h-153zM1311 264h246v360h-9q-147 -205 -237 -351
v-9z" />
    <glyph glyph-name="questionmarkinverted" unicode="&#xbf;" horiz-adv-x="1083" 
d="M575 1108q69 0 111.5 -41t42.5 -108t-42.5 -108.5t-111.5 -41.5t-111.5 41.5t-42.5 108.5t42.5 108t111.5 41zM691 638l1 -80q4 -104 -42.5 -177t-150.5 -136q-91 -55 -127.5 -106t-36.5 -126v-2q0 -86 62 -141t163 -55q103 0 166 58t69 157h2l207 1v-2
q-7 -176 -125.5 -286.5t-328.5 -110.5q-197 0 -320 104.5t-123 265.5v2q0 216 211 341q96 57 131 106t35 126v61h207z" />
    <glyph glyph-name="Agrave" unicode="&#xc0;" horiz-adv-x="1423" 
d="M644 1587l-225 328h226l167 -328h-168zM70 0l521 1443h242l521 -1443h-236l-130 390h-552l-131 -390h-235zM703 1190l-207 -620h432l-208 620h-17z" />
    <glyph glyph-name="Aacute" unicode="&#xc1;" horiz-adv-x="1423" 
d="M785 1587h-167l167 328h226zM70 0l521 1443h242l521 -1443h-236l-130 390h-552l-131 -390h-235zM703 1190l-207 -620h432l-208 620h-17z" />
    <glyph glyph-name="Acircumflex" unicode="&#xc2;" horiz-adv-x="1423" 
d="M356 1587l237 328h237l237 -328h-204l-143 208h-17l-143 -208h-204zM70 0l521 1443h242l521 -1443h-236l-130 390h-552l-131 -390h-235zM703 1190l-207 -620h432l-208 620h-17z" />
    <glyph glyph-name="Atilde" unicode="&#xc3;" horiz-adv-x="1423" 
d="M855 1592q-50 0 -90.5 20.5t-84.5 61.5l-14 13q-45 42 -81 42q-72 0 -72 -135v-3h-151v8q0 127 55 202t150 75q50 0 90.5 -20.5t84.5 -61.5l14 -13q45 -42 81 -42q73 0 73 135v3h150v-8q0 -127 -55 -202t-150 -75zM70 0l521 1443h242l521 -1443h-236l-130 390h-552
l-131 -390h-235zM703 1190l-207 -620h432l-208 620h-17z" />
    <glyph glyph-name="Adieresis" unicode="&#xc4;" horiz-adv-x="1423" 
d="M491 1633q-50 0 -86.5 36t-36.5 87q0 50 36.5 86t86.5 36t86.5 -36t36.5 -86q0 -51 -36.5 -87t-86.5 -36zM932 1633q-50 0 -86.5 36t-36.5 87q0 50 36.5 86t86.5 36t86.5 -36t36.5 -86q0 -51 -36.5 -87t-86.5 -36zM70 0l521 1443h242l521 -1443h-236l-130 390h-552
l-131 -390h-235zM703 1190l-207 -620h432l-208 620h-17z" />
    <glyph glyph-name="Aring" unicode="&#x212b;" horiz-adv-x="1423" 
d="M714 1544q-89 0 -152 60.5t-63 146.5v1q0 87 63 147t152 60q90 0 153 -60t63 -147v-1q0 -86 -63 -146.5t-153 -60.5zM714 1650q44 0 75 29.5t31 71.5v1q0 43 -31 72t-75 29t-74.5 -29t-30.5 -72v-1q0 -42 30.5 -71.5t74.5 -29.5zM70 0l521 1443h242l521 -1443h-236
l-130 390h-552l-131 -390h-235zM703 1190l-207 -620h432l-208 620h-17z" />
    <glyph glyph-name="Aring" unicode="&#xc5;" horiz-adv-x="1423" 
d="M714 1544q-89 0 -152 60.5t-63 146.5v1q0 87 63 147t152 60q90 0 153 -60t63 -147v-1q0 -86 -63 -146.5t-153 -60.5zM714 1650q44 0 75 29.5t31 71.5v1q0 43 -31 72t-75 29t-74.5 -29t-30.5 -72v-1q0 -42 30.5 -71.5t74.5 -29.5zM70 0l521 1443h242l521 -1443h-236
l-130 390h-552l-131 -390h-235zM703 1190l-207 -620h432l-208 620h-17z" />
    <glyph glyph-name="AE" unicode="&#xc6;" horiz-adv-x="1999" 
d="M70 0l631 1443h1156v-193h-655v-430h618v-186h-618v-441h655v-193h-870v428h-506l-187 -428h-224zM847 1263l-287 -656h427v656h-140z" />
    <glyph glyph-name="Ccedilla" unicode="&#xc7;" horiz-adv-x="1485" 
d="M731 -494q-80 0 -160 18v123q55 -13 124 -13q52 0 88.5 17.5t36.5 56.5v2q0 44 -36 61t-115 17h-37v93l60 88q-266 28 -418 227.5t-152 523.5v2q0 350 174.5 553t475.5 203q238 0 404.5 -136t195.5 -352l-1 -5h-222v3q-32 133 -133.5 212.5t-243.5 79.5
q-194 0 -307.5 -150.5t-113.5 -407.5v-2q0 -257 113.5 -407t308.5 -150q143 0 243.5 71.5t131.5 193.5l2 4h222v-6q-29 -192 -170.5 -315t-353.5 -143l-48 -67q96 -2 154.5 -52t58.5 -133v-2q0 -104 -79.5 -156t-202.5 -52z" />
    <glyph glyph-name="Egrave" unicode="&#xc8;" horiz-adv-x="1239" 
d="M572 1587l-226 328h226l167 -328h-167zM181 0v1443h916v-193h-692v-422h655v-186h-655v-449h692v-193h-916z" />
    <glyph glyph-name="Eacute" unicode="&#xc9;" horiz-adv-x="1239" 
d="M712 1587h-167l167 328h226zM181 0v1443h916v-193h-692v-422h655v-186h-655v-449h692v-193h-916z" />
    <glyph glyph-name="Ecircumflex" unicode="&#xca;" horiz-adv-x="1239" 
d="M284 1587l237 328h236l237 -328h-203l-144 208h-16l-144 -208h-203zM181 0v1443h916v-193h-692v-422h655v-186h-655v-449h692v-193h-916z" />
    <glyph glyph-name="Edieresis" unicode="&#xcb;" horiz-adv-x="1239" 
d="M418 1633q-50 0 -86 36t-36 87q0 50 36 86t86 36q51 0 87 -36t36 -86q0 -51 -36 -87t-87 -36zM860 1633q-51 0 -87 36t-36 87q0 50 36 86t87 36q50 0 86 -36t36 -86q0 -51 -36 -87t-86 -36zM181 0v1443h916v-193h-692v-422h655v-186h-655v-449h692v-193h-916z" />
    <glyph glyph-name="Igrave" unicode="&#xcc;" horiz-adv-x="585" 
d="M226 1587l-226 328h226l167 -328h-167zM181 0v1443h224v-1443h-224z" />
    <glyph glyph-name="Iacute" unicode="&#xcd;" horiz-adv-x="585" 
d="M366 1587h-167l167 328h226zM181 0v1443h224v-1443h-224z" />
    <glyph glyph-name="Icircumflex" unicode="&#xce;" horiz-adv-x="585" 
d="M-63 1587l237 328h237l237 -328h-203l-144 208h-17l-143 -208h-204zM181 0v1443h224v-1443h-224z" />
    <glyph glyph-name="Idieresis" unicode="&#xcf;" horiz-adv-x="585" 
d="M72 1633q-50 0 -86 36t-36 87q0 50 36 86t86 36t86.5 -36t36.5 -86q0 -51 -36.5 -87t-86.5 -36zM513 1633q-50 0 -86 36t-36 87q0 50 36 86t86 36t86.5 -36t36.5 -86q0 -51 -36.5 -87t-86.5 -36zM181 0v1443h224v-1443h-224z" />
    <glyph glyph-name="Dstroke" unicode="&#x110;" horiz-adv-x="1563" 
d="M241 0v636h-181v172h181v635h521q321 0 500 -188.5t179 -528.5v-2q0 -344 -178.5 -534t-500.5 -190h-521zM465 193h272q227 0 351.5 138.5t124.5 389.5v2q0 249 -126 388t-350 139h-272v-442h313v-172h-313v-443z" />
    <glyph glyph-name="Dstroke" unicode="&#xd0;" horiz-adv-x="1563" 
d="M241 0v636h-181v172h181v635h521q321 0 500 -188.5t179 -528.5v-2q0 -344 -178.5 -534t-500.5 -190h-521zM465 193h272q227 0 351.5 138.5t124.5 389.5v2q0 249 -126 388t-350 139h-272v-442h313v-172h-313v-443z" />
    <glyph glyph-name="Ntilde" unicode="&#xd1;" horiz-adv-x="1539" 
d="M913 1592q-50 0 -90.5 20.5t-84.5 61.5l-14 13q-45 42 -81 42q-72 0 -72 -135v-3h-151v8q0 127 55 202t150 75q50 0 90.5 -20.5t84.5 -61.5l14 -13q45 -42 81 -42q73 0 73 135v3h150v-8q0 -127 -55 -202t-150 -75zM181 0v1443h202l742 -1050h15v1050h218v-1443h-202
l-741 1048h-16v-1048h-218z" />
    <glyph glyph-name="Ograve" unicode="&#xd2;" horiz-adv-x="1591" 
d="M728 1587l-225 328h226l167 -328h-168zM796 -35q-314 0 -494 203.5t-180 552.5v2q0 348 181.5 551.5t492.5 203.5t492 -203.5t181 -551.5v-2q0 -348 -180.5 -552t-492.5 -204zM796 163q205 0 324.5 151.5t119.5 406.5v2q0 256 -119.5 406.5t-324.5 150.5t-325 -150.5
t-120 -406.5v-2q0 -255 119 -406.5t326 -151.5z" />
    <glyph glyph-name="Oacute" unicode="&#xd3;" horiz-adv-x="1591" 
d="M869 1587h-167l167 328h226zM796 -35q-314 0 -494 203.5t-180 552.5v2q0 348 181.5 551.5t492.5 203.5t492 -203.5t181 -551.5v-2q0 -348 -180.5 -552t-492.5 -204zM796 163q205 0 324.5 151.5t119.5 406.5v2q0 256 -119.5 406.5t-324.5 150.5t-325 -150.5t-120 -406.5
v-2q0 -255 119 -406.5t326 -151.5z" />
    <glyph glyph-name="Ocircumflex" unicode="&#xd4;" horiz-adv-x="1591" 
d="M440 1587l237 328h237l237 -328h-204l-143 208h-17l-143 -208h-204zM796 -35q-314 0 -494 203.5t-180 552.5v2q0 348 181.5 551.5t492.5 203.5t492 -203.5t181 -551.5v-2q0 -348 -180.5 -552t-492.5 -204zM796 163q205 0 324.5 151.5t119.5 406.5v2q0 256 -119.5 406.5
t-324.5 150.5t-325 -150.5t-120 -406.5v-2q0 -255 119 -406.5t326 -151.5z" />
    <glyph glyph-name="Otilde" unicode="&#xd5;" horiz-adv-x="1591" 
d="M939 1592q-50 0 -90.5 20.5t-84.5 61.5l-14 13q-45 42 -81 42q-72 0 -72 -135v-3h-151v8q0 127 55 202t150 75q50 0 90.5 -20.5t84.5 -61.5l14 -13q45 -42 81 -42q73 0 73 135v3h150v-8q0 -127 -55 -202t-150 -75zM796 -35q-314 0 -494 203.5t-180 552.5v2
q0 348 181.5 551.5t492.5 203.5t492 -203.5t181 -551.5v-2q0 -348 -180.5 -552t-492.5 -204zM796 163q205 0 324.5 151.5t119.5 406.5v2q0 256 -119.5 406.5t-324.5 150.5t-325 -150.5t-120 -406.5v-2q0 -255 119 -406.5t326 -151.5z" />
    <glyph glyph-name="Odieresis" unicode="&#xd6;" horiz-adv-x="1591" 
d="M575 1633q-50 0 -86.5 36t-36.5 87q0 50 36.5 86t86.5 36t86.5 -36t36.5 -86q0 -51 -36.5 -87t-86.5 -36zM1016 1633q-50 0 -86.5 36t-36.5 87q0 50 36.5 86t86.5 36t86.5 -36t36.5 -86q0 -51 -36.5 -87t-86.5 -36zM796 -35q-314 0 -494 203.5t-180 552.5v2
q0 348 181.5 551.5t492.5 203.5t492 -203.5t181 -551.5v-2q0 -348 -180.5 -552t-492.5 -204zM796 163q205 0 324.5 151.5t119.5 406.5v2q0 256 -119.5 406.5t-324.5 150.5t-325 -150.5t-120 -406.5v-2q0 -255 119 -406.5t326 -151.5z" />
    <glyph glyph-name="multiply" unicode="&#xd7;" horiz-adv-x="1321" 
d="M161 949l132 133l367 -368l367 368l132 -133l-367 -368l367 -368l-132 -132l-367 368l-367 -368l-132 132l367 368z" />
    <glyph glyph-name="Ostroke" unicode="&#xd8;" horiz-adv-x="1584" 
d="M792 -35q-257 0 -425 140l-139 -163l-118 102l151 175q-139 198 -139 502v2q0 348 180.5 551.5t489.5 203.5q254 0 425 -140l140 163l117 -101l-151 -177q139 -196 139 -500v-2q0 -348 -179.5 -552t-490.5 -204zM337 721q0 -195 70 -330l674 788q-116 105 -289 105
q-209 0 -332 -151.5t-123 -408.5v-3zM792 160q209 0 332 152t123 409v3q0 191 -71 328l-673 -788q116 -104 289 -104z" />
    <glyph glyph-name="Ugrave" unicode="&#xd9;" horiz-adv-x="1527" 
d="M696 1587l-226 328h227l166 -328h-167zM764 -35q-269 0 -427 146t-158 386v946h224v-929q0 -159 95.5 -255t265.5 -96t265 95.5t95 255.5v929h224v-946q0 -240 -157 -386t-427 -146z" />
    <glyph glyph-name="Uacute" unicode="&#xda;" horiz-adv-x="1527" 
d="M837 1587h-167l167 328h226zM764 -35q-269 0 -427 146t-158 386v946h224v-929q0 -159 95.5 -255t265.5 -96t265 95.5t95 255.5v929h224v-946q0 -240 -157 -386t-427 -146z" />
    <glyph glyph-name="Ucircumflex" unicode="&#xdb;" horiz-adv-x="1527" 
d="M408 1587l237 328h237l237 -328h-204l-143 208h-17l-143 -208h-204zM764 -35q-269 0 -427 146t-158 386v946h224v-929q0 -159 95.5 -255t265.5 -96t265 95.5t95 255.5v929h224v-946q0 -240 -157 -386t-427 -146z" />
    <glyph glyph-name="Udieresis" unicode="&#xdc;" horiz-adv-x="1527" 
d="M543 1633q-50 0 -86.5 36t-36.5 87q0 50 36.5 86t86.5 36t86.5 -36t36.5 -86q0 -51 -36.5 -87t-86.5 -36zM984 1633q-50 0 -86.5 36t-36.5 87q0 50 36.5 86t86.5 36t86.5 -36t36.5 -86q0 -51 -36.5 -87t-86.5 -36zM764 -35q-269 0 -427 146t-158 386v946h224v-929
q0 -159 95.5 -255t265.5 -96t265 95.5t95 255.5v929h224v-946q0 -240 -157 -386t-427 -146z" />
    <glyph glyph-name="Yacute" unicode="&#xdd;" horiz-adv-x="1381" 
d="M764 1587h-167l166 328h227zM578 0v591l-508 852h249l363 -629h17l363 629h249l-509 -852v-591h-224z" />
    <glyph glyph-name="Thorn" unicode="&#xde;" horiz-adv-x="1315" 
d="M181 0v1443h224v-255h350q186 0 313.5 -116.5t127.5 -312.5v-2q0 -131 -62 -231t-163 -150t-223 -50h-343v-326h-224zM692 1000h-287v-486h286q126 0 201 62.5t75 180.5v2q0 117 -75 179t-200 62z" />
    <glyph glyph-name="germandbls" unicode="&#xdf;" horiz-adv-x="1318" 
d="M749 -19q-98 0 -158 16v181q56 -16 132 -16q131 0 200.5 70.5t69.5 186.5v2q0 118 -82 192.5t-229 74.5h-66v173h51q102 0 161.5 68.5t59.5 187.5v2q0 100 -60 166t-163 66q-113 0 -175.5 -69.5t-62.5 -193.5v-1088h-214v1107q0 198 122.5 312t325.5 114
q195 0 318.5 -111.5t123.5 -288.5v-2q0 -116 -62 -206t-155 -120v-18q148 -14 238 -112.5t90 -260.5v-2q0 -186 -128.5 -308.5t-336.5 -122.5z" />
    <glyph glyph-name="agrave" unicode="&#xe0;" horiz-adv-x="1158" 
d="M508 1236l-236 344h232l175 -344h-171zM454 -18q-158 0 -259 88.5t-101 234.5v2q0 145 105 228t300 95l294 17v96q0 90 -56.5 137.5t-165.5 47.5q-89 0 -147 -31.5t-78 -89.5l-1 -4h-209l1 7q20 134 140 215.5t304 81.5q204 0 315.5 -96t111.5 -268v-743h-215v154h-17
q-48 -83 -131 -127.5t-191 -44.5zM310 314q0 -74 56 -116.5t146 -42.5q121 0 201 70.5t80 175.5v93l-265 -17q-218 -13 -218 -161v-2z" />
    <glyph glyph-name="aacute" unicode="&#xe1;" horiz-adv-x="1158" 
d="M654 1236h-171l175 344h231zM454 -18q-158 0 -259 88.5t-101 234.5v2q0 145 105 228t300 95l294 17v96q0 90 -56.5 137.5t-165.5 47.5q-89 0 -147 -31.5t-78 -89.5l-1 -4h-209l1 7q20 134 140 215.5t304 81.5q204 0 315.5 -96t111.5 -268v-743h-215v154h-17
q-48 -83 -131 -127.5t-191 -44.5zM310 314q0 -74 56 -116.5t146 -42.5q121 0 201 70.5t80 175.5v93l-265 -17q-218 -13 -218 -161v-2z" />
    <glyph glyph-name="acircumflex" unicode="&#xe2;" horiz-adv-x="1158" 
d="M213 1236l248 344h240l248 -344h-207l-153 221h-16l-153 -221h-207zM454 -18q-158 0 -259 88.5t-101 234.5v2q0 145 105 228t300 95l294 17v96q0 90 -56.5 137.5t-165.5 47.5q-89 0 -147 -31.5t-78 -89.5l-1 -4h-209l1 7q20 134 140 215.5t304 81.5q204 0 315.5 -96
t111.5 -268v-743h-215v154h-17q-48 -83 -131 -127.5t-191 -44.5zM310 314q0 -74 56 -116.5t146 -42.5q121 0 201 70.5t80 175.5v93l-265 -17q-218 -13 -218 -161v-2z" />
    <glyph glyph-name="atilde" unicode="&#xe3;" horiz-adv-x="1158" 
d="M731 1242q-53 0 -95 22t-89 66l-14 12q-47 46 -85 46q-76 0 -76 -145v-4h-154v10q0 134 56 210.5t156 76.5q53 0 95.5 -21.5t88.5 -65.5l14 -13q48 -45 85 -45q77 0 77 144v4h154v-10q0 -133 -56.5 -210t-156.5 -77zM454 -18q-158 0 -259 88.5t-101 234.5v2
q0 145 105 228t300 95l294 17v96q0 90 -56.5 137.5t-165.5 47.5q-89 0 -147 -31.5t-78 -89.5l-1 -4h-209l1 7q20 134 140 215.5t304 81.5q204 0 315.5 -96t111.5 -268v-743h-215v154h-17q-48 -83 -131 -127.5t-191 -44.5zM310 314q0 -74 56 -116.5t146 -42.5q121 0 201 70.5
t80 175.5v93l-265 -17q-218 -13 -218 -161v-2z" />
    <glyph glyph-name="adieresis" unicode="&#xe4;" horiz-adv-x="1158" 
d="M351 1288q-51 0 -88 36.5t-37 88.5q0 51 37 87.5t88 36.5q52 0 88.5 -36.5t36.5 -87.5q0 -52 -36.5 -88.5t-88.5 -36.5zM810 1288q-51 0 -88 36.5t-37 88.5q0 51 37 87.5t88 36.5q52 0 89 -36.5t37 -87.5q0 -52 -37 -88.5t-89 -36.5zM454 -18q-158 0 -259 88.5
t-101 234.5v2q0 145 105 228t300 95l294 17v96q0 90 -56.5 137.5t-165.5 47.5q-89 0 -147 -31.5t-78 -89.5l-1 -4h-209l1 7q20 134 140 215.5t304 81.5q204 0 315.5 -96t111.5 -268v-743h-215v154h-17q-48 -83 -131 -127.5t-191 -44.5zM310 314q0 -74 56 -116.5t146 -42.5
q121 0 201 70.5t80 175.5v93l-265 -17q-218 -13 -218 -161v-2z" />
    <glyph glyph-name="aring" unicode="&#xe5;" horiz-adv-x="1158" 
d="M581 1237q-98 0 -167 66.5t-69 161.5v1q0 95 69 161t167 66t167 -66t69 -161v-1q0 -94 -69 -161t-167 -67zM581 1348q50 0 85 34t35 83v1q0 49 -35 82.5t-85 33.5t-85 -33.5t-35 -82.5v-1q0 -49 35 -83t85 -34zM454 -18q-158 0 -259 88.5t-101 234.5v2q0 145 105 228
t300 95l294 17v96q0 90 -56.5 137.5t-165.5 47.5q-89 0 -147 -31.5t-78 -89.5l-1 -4h-209l1 7q20 134 140 215.5t304 81.5q204 0 315.5 -96t111.5 -268v-743h-215v154h-17q-48 -83 -131 -127.5t-191 -44.5zM310 314q0 -74 56 -116.5t146 -42.5q121 0 201 70.5t80 175.5v93
l-265 -17q-218 -13 -218 -161v-2z" />
    <glyph glyph-name="ae" unicode="&#xe6;" horiz-adv-x="1865" 
d="M486 -21q-177 0 -284.5 89t-107.5 237v2q0 145 105 228t300 95l295 18v47q0 113 -57.5 173.5t-166.5 60.5q-91 0 -149.5 -32t-76.5 -92v-2h-208v2q16 137 136.5 220t297.5 83q126 0 215.5 -48t135.5 -129h17q52 79 147.5 128t208.5 49q219 0 344 -143t125 -394v-76h-760
v-21q5 -146 87 -232t219 -86q81 0 143 34.5t91 100.5h208q-36 -144 -156.5 -228t-284.5 -84q-138 0 -246.5 60.5t-154.5 160.5h-17q-56 -105 -161.5 -163t-244.5 -58zM1003 650h543q-4 128 -75.5 204.5t-189.5 76.5q-117 0 -193 -77t-85 -204zM520 153q119 0 196.5 73.5
t77.5 179.5v89l-266 -18q-218 -15 -218 -162v-2q0 -75 57.5 -117.5t152.5 -42.5z" />
    <glyph glyph-name="ccedilla" unicode="&#xe7;" horiz-adv-x="1167" 
d="M575 -494q-80 0 -160 18v123q59 -13 125 -13q51 0 87.5 17.5t36.5 56.5v2q0 44 -36 61t-115 17h-37v93l70 102q-208 22 -326 170.5t-118 392.5v2q0 259 136.5 409t373.5 150q199 0 321 -100.5t145 -264.5v-5l-208 -1l-1 3q-19 84 -85.5 135.5t-170.5 51.5
q-135 0 -212.5 -101t-77.5 -277v-2q0 -180 78 -283t212 -103q201 0 255 179l2 5h208l-2 -9q-27 -143 -121.5 -235.5t-250.5 -114.5l-60 -84q96 -2 154.5 -52t58.5 -133v-2q0 -104 -79.5 -156t-202.5 -52z" />
    <glyph glyph-name="egrave" unicode="&#xe8;" horiz-adv-x="1192" 
d="M533 1236l-236 344h231l176 -344h-171zM612 -21q-238 0 -374 151t-136 410v1q0 255 136 410.5t363 155.5q225 0 357 -149t132 -396v-76h-770q3 -155 82.5 -242t214.5 -87q96 0 160.5 38t87.5 87l4 8l209 1l-2 -9q-14 -56 -49.5 -108t-91 -96.5t-139.5 -71.5t-184 -27z
M602 929q-114 0 -189.5 -75.5t-89.5 -212.5h552q-12 141 -85.5 214.5t-187.5 73.5z" />
    <glyph glyph-name="eacute" unicode="&#xe9;" horiz-adv-x="1192" 
d="M678 1236h-171l175 344h232zM612 -21q-238 0 -374 151t-136 410v1q0 255 136 410.5t363 155.5q225 0 357 -149t132 -396v-76h-770q3 -155 82.5 -242t214.5 -87q96 0 160.5 38t87.5 87l4 8l209 1l-2 -9q-14 -56 -49.5 -108t-91 -96.5t-139.5 -71.5t-184 -27zM602 929
q-114 0 -189.5 -75.5t-89.5 -212.5h552q-12 141 -85.5 214.5t-187.5 73.5z" />
    <glyph glyph-name="ecircumflex" unicode="&#xea;" horiz-adv-x="1192" 
d="M237 1236l248 344h240l249 -344h-208l-152 221h-17l-152 -221h-208zM612 -21q-238 0 -374 151t-136 410v1q0 255 136 410.5t363 155.5q225 0 357 -149t132 -396v-76h-770q3 -155 82.5 -242t214.5 -87q96 0 160.5 38t87.5 87l4 8l209 1l-2 -9q-14 -56 -49.5 -108
t-91 -96.5t-139.5 -71.5t-184 -27zM602 929q-114 0 -189.5 -75.5t-89.5 -212.5h552q-12 141 -85.5 214.5t-187.5 73.5z" />
    <glyph glyph-name="edieresis" unicode="&#xeb;" horiz-adv-x="1192" 
d="M376 1288q-52 0 -89 36.5t-37 88.5q0 51 37 87.5t89 36.5q51 0 87.5 -36.5t36.5 -87.5q0 -52 -36.5 -88.5t-87.5 -36.5zM834 1288q-51 0 -88 36.5t-37 88.5q0 51 37 87.5t88 36.5q52 0 89 -36.5t37 -87.5q0 -52 -37 -88.5t-89 -36.5zM612 -21q-238 0 -374 151t-136 410v1
q0 255 136 410.5t363 155.5q225 0 357 -149t132 -396v-76h-770q3 -155 82.5 -242t214.5 -87q96 0 160.5 38t87.5 87l4 8l209 1l-2 -9q-14 -56 -49.5 -108t-91 -96.5t-139.5 -71.5t-184 -27zM602 929q-114 0 -189.5 -75.5t-89.5 -212.5h552q-12 141 -85.5 214.5t-187.5 73.5z
" />
    <glyph glyph-name="igrave" unicode="&#xec;" horiz-adv-x="536" 
d="M196 1236l-236 344h231l176 -344h-171zM160 0v1086h216v-1086h-216z" />
    <glyph glyph-name="iacute" unicode="&#xed;" horiz-adv-x="536" 
d="M341 1236h-171l176 344h231zM160 0v1086h216v-1086h-216z" />
    <glyph glyph-name="icircumflex" unicode="&#xee;" horiz-adv-x="536" 
d="M-100 1236l248 344h241l248 -344h-208l-152 221h-17l-152 -221h-208zM160 0v1086h216v-1086h-216z" />
    <glyph glyph-name="idieresis" unicode="&#xef;" horiz-adv-x="536" 
d="M39 1288q-52 0 -89 36.5t-37 88.5q0 51 37 87.5t89 36.5q51 0 88 -36.5t37 -87.5q0 -52 -37 -88.5t-88 -36.5zM497 1288q-51 0 -87.5 36.5t-36.5 88.5q0 51 36.5 87.5t87.5 36.5q52 0 89 -36.5t37 -87.5q0 -52 -37 -88.5t-89 -36.5zM160 0v1086h216v-1086h-216z" />
    <glyph glyph-name="eth" unicode="&#xf0;" horiz-adv-x="1221" 
d="M614 -21q-233 0 -371.5 143.5t-138.5 386.5v2q0 237 126 384t329 147q94 0 179.5 -47t123.5 -119h16l-8 17q-49 112 -116.5 197.5t-166.5 157.5l-263 -159l-68 93l223 135q-93 55 -223 111l57 113q166 -59 305 -139l227 139l70 -94l-190 -115q394 -284 394 -763v-2
q0 -269 -136.5 -428.5t-368.5 -159.5zM617 160q130 0 206.5 95.5t76.5 257.5v2q0 166 -76.5 263.5t-207.5 97.5q-132 0 -211 -98.5t-79 -263.5v-2q0 -161 79 -256.5t212 -95.5z" />
    <glyph glyph-name="ntilde" unicode="&#xf1;" horiz-adv-x="1227" 
d="M772 1242q-53 0 -95.5 22t-88.5 66l-14 12q-47 46 -85 46q-76 0 -76 -145v-4h-155v10q0 133 56.5 210t156.5 77q53 0 95.5 -21.5t88.5 -65.5l14 -13q48 -45 85 -45q77 0 77 144v4h154v-10q0 -133 -56.5 -210t-156.5 -77zM156 0v1086h217v-165h16q85 186 315 186
q182 0 279.5 -104.5t97.5 -299.5v-703h-216v652q0 136 -57.5 202.5t-176.5 66.5t-188.5 -76.5t-69.5 -207.5v-637h-217z" />
    <glyph glyph-name="ograve" unicode="&#xf2;" horiz-adv-x="1231" 
d="M543 1236l-236 344h231l176 -344h-171zM616 -21q-239 0 -376.5 150.5t-137.5 412.5v2q0 262 137.5 412.5t376.5 150.5q238 0 375.5 -150.5t137.5 -412.5v-2q0 -262 -137 -412.5t-376 -150.5zM616 160q139 0 215.5 100.5t76.5 281.5v2q0 181 -76.5 281.5t-215.5 100.5
q-140 0 -216 -100.5t-76 -281.5v-2q0 -181 76 -281.5t216 -100.5z" />
    <glyph glyph-name="oacute" unicode="&#xf3;" horiz-adv-x="1231" 
d="M688 1236h-171l176 344h231zM616 -21q-239 0 -376.5 150.5t-137.5 412.5v2q0 262 137.5 412.5t376.5 150.5q238 0 375.5 -150.5t137.5 -412.5v-2q0 -262 -137 -412.5t-376 -150.5zM616 160q139 0 215.5 100.5t76.5 281.5v2q0 181 -76.5 281.5t-215.5 100.5
q-140 0 -216 -100.5t-76 -281.5v-2q0 -181 76 -281.5t216 -100.5z" />
    <glyph glyph-name="ocircumflex" unicode="&#xf4;" horiz-adv-x="1231" 
d="M247 1236l248 344h241l248 -344h-208l-152 221h-17l-152 -221h-208zM616 -21q-239 0 -376.5 150.5t-137.5 412.5v2q0 262 137.5 412.5t376.5 150.5q238 0 375.5 -150.5t137.5 -412.5v-2q0 -262 -137 -412.5t-376 -150.5zM616 160q139 0 215.5 100.5t76.5 281.5v2
q0 181 -76.5 281.5t-215.5 100.5q-140 0 -216 -100.5t-76 -281.5v-2q0 -181 76 -281.5t216 -100.5z" />
    <glyph glyph-name="otilde" unicode="&#xf5;" horiz-adv-x="1231" 
d="M766 1242q-53 0 -95.5 22t-88.5 66l-14 12q-47 46 -85 46q-76 0 -76 -145v-4h-155v10q0 133 56.5 210t156.5 77q53 0 95.5 -21.5t88.5 -65.5l14 -13q48 -45 85 -45q77 0 77 144v4h154v-10q0 -133 -56.5 -210t-156.5 -77zM616 -21q-239 0 -376.5 150.5t-137.5 412.5v2
q0 262 137.5 412.5t376.5 150.5q238 0 375.5 -150.5t137.5 -412.5v-2q0 -262 -137 -412.5t-376 -150.5zM616 160q139 0 215.5 100.5t76.5 281.5v2q0 181 -76.5 281.5t-215.5 100.5q-140 0 -216 -100.5t-76 -281.5v-2q0 -181 76 -281.5t216 -100.5z" />
    <glyph glyph-name="odieresis" unicode="&#xf6;" horiz-adv-x="1231" 
d="M386 1288q-52 0 -89 36.5t-37 88.5q0 51 37 87.5t89 36.5q51 0 88 -36.5t37 -87.5q0 -52 -37 -88.5t-88 -36.5zM844 1288q-51 0 -87.5 36.5t-36.5 88.5q0 51 36.5 87.5t87.5 36.5q52 0 89 -36.5t37 -87.5q0 -52 -37 -88.5t-89 -36.5zM616 -21q-239 0 -376.5 150.5
t-137.5 412.5v2q0 262 137.5 412.5t376.5 150.5q238 0 375.5 -150.5t137.5 -412.5v-2q0 -262 -137 -412.5t-376 -150.5zM616 160q139 0 215.5 100.5t76.5 281.5v2q0 181 -76.5 281.5t-215.5 100.5q-140 0 -216 -100.5t-76 -281.5v-2q0 -181 76 -281.5t216 -100.5z" />
    <glyph glyph-name="divide" unicode="&#xf7;" horiz-adv-x="1321" 
d="M661 845q-55 0 -93.5 38t-38.5 93t38 93t94 38t94 -37.5t38 -93.5q0 -55 -38 -93t-94 -38zM99 482v199h1123v-199h-1123zM660 56q-55 0 -93 38t-38 93t37.5 93t93.5 38q57 0 94.5 -37.5t37.5 -93.5q0 -55 -37.5 -93t-94.5 -38z" />
    <glyph glyph-name="ostroke" unicode="&#xf8;" horiz-adv-x="1231" 
d="M615 -20q-185 0 -313 94l-113 -131l-106 93l121 140q-99 145 -99 366v2q0 261 137 411.5t373 150.5q186 0 312 -95l114 133l107 -93l-123 -142q100 -145 100 -365v-2q0 -262 -136.5 -412t-373.5 -150zM318 541q0 -116 31 -197l450 520q-72 63 -184 63q-141 0 -219 -101
t-78 -283v-2zM615 157q142 0 220 101t78 283v2q0 115 -32 199l-451 -521q73 -64 185 -64z" />
    <glyph glyph-name="ugrave" unicode="&#xf9;" horiz-adv-x="1227" 
d="M535 1236l-236 344h231l176 -344h-171zM518 -21q-182 0 -277 105t-95 299v703h217v-652q0 -137 53.5 -203t171.5 -66q129 0 198 75.5t69 208.5v637h216v-1086h-216v164h-17q-39 -89 -121 -137t-199 -48z" />
    <glyph glyph-name="uacute" unicode="&#xfa;" horiz-adv-x="1227" 
d="M680 1236h-171l176 344h231zM518 -21q-182 0 -277 105t-95 299v703h217v-652q0 -137 53.5 -203t171.5 -66q129 0 198 75.5t69 208.5v637h216v-1086h-216v164h-17q-39 -89 -121 -137t-199 -48z" />
    <glyph glyph-name="ucircumflex" unicode="&#xfb;" horiz-adv-x="1227" 
d="M239 1236l248 344h241l248 -344h-208l-152 221h-17l-152 -221h-208zM518 -21q-182 0 -277 105t-95 299v703h217v-652q0 -137 53.5 -203t171.5 -66q129 0 198 75.5t69 208.5v637h216v-1086h-216v164h-17q-39 -89 -121 -137t-199 -48z" />
    <glyph glyph-name="udieresis" unicode="&#xfc;" horiz-adv-x="1227" 
d="M378 1288q-52 0 -89 36.5t-37 88.5q0 51 37 87.5t89 36.5q51 0 88 -36.5t37 -87.5q0 -52 -37 -88.5t-88 -36.5zM836 1288q-51 0 -88 36.5t-37 88.5q0 51 37 87.5t88 36.5q52 0 89 -36.5t37 -87.5q0 -52 -37 -88.5t-89 -36.5zM518 -21q-182 0 -277 105t-95 299v703h217
v-652q0 -137 53.5 -203t171.5 -66q129 0 198 75.5t69 208.5v637h216v-1086h-216v164h-17q-39 -89 -121 -137t-199 -48z" />
    <glyph glyph-name="yacute" unicode="&#xfd;" horiz-adv-x="1152" 
d="M647 1236h-171l176 344h231zM262 -382q-40 0 -87 5v171q28 -4 73 -4q77 0 123.5 36t70.5 117l16 56l-394 1087h234l272 -868h19l271 868h228l-404 -1128q-68 -192 -161.5 -266t-260.5 -74z" />
    <glyph glyph-name="thorn" unicode="&#xfe;" horiz-adv-x="1277" 
d="M156 -362v1874h217v-597h16q48 90 134.5 140t199.5 50q206 0 328 -152.5t122 -408.5v-2q0 -258 -121.5 -409t-328.5 -151q-112 0 -201 51t-133 139h-16v-534h-217zM662 167q136 0 213 100t77 275v2q0 176 -77 275.5t-213 99.5t-214.5 -100.5t-78.5 -274.5v-2
q0 -174 78.5 -274.5t214.5 -100.5z" />
    <glyph glyph-name="ydieresis" unicode="&#xff;" horiz-adv-x="1152" 
d="M345 1288q-52 0 -89 36.5t-37 88.5q0 51 37 87.5t89 36.5q51 0 88 -36.5t37 -87.5q0 -52 -37 -88.5t-88 -36.5zM803 1288q-51 0 -88 36.5t-37 88.5q0 51 37 87.5t88 36.5q52 0 89 -36.5t37 -87.5q0 -52 -37 -88.5t-89 -36.5zM262 -382q-40 0 -87 5v171q28 -4 73 -4
q77 0 123.5 36t70.5 117l16 56l-394 1087h234l272 -868h19l271 868h228l-404 -1128q-68 -192 -161.5 -266t-260.5 -74z" />
    <glyph glyph-name="Amacron" unicode="&#x100;" horiz-adv-x="1423" 
d="M386 1681v148h651v-148h-651zM70 0l521 1443h242l521 -1443h-236l-130 390h-552l-131 -390h-235zM703 1190l-207 -620h432l-208 620h-17z" />
    <glyph glyph-name="amacron" unicode="&#x101;" horiz-adv-x="1158" 
d="M241 1337v150h680v-150h-680zM454 -18q-158 0 -259 88.5t-101 234.5v2q0 145 105 228t300 95l294 17v96q0 90 -56.5 137.5t-165.5 47.5q-89 0 -147 -31.5t-78 -89.5l-1 -4h-209l1 7q20 134 140 215.5t304 81.5q204 0 315.5 -96t111.5 -268v-743h-215v154h-17
q-48 -83 -131 -127.5t-191 -44.5zM310 314q0 -74 56 -116.5t146 -42.5q121 0 201 70.5t80 175.5v93l-265 -17q-218 -13 -218 -161v-2z" />
    <glyph glyph-name="Abreve" unicode="&#x102;" horiz-adv-x="1423" 
d="M711 1586q-165 0 -257.5 90t-92.5 238v1h164v-3q1 -83 48 -132t138 -49t138 49t48 132l1 3h163v-1q0 -148 -92.5 -238t-257.5 -90zM70 0l521 1443h242l521 -1443h-236l-130 390h-552l-131 -390h-235zM703 1190l-207 -620h432l-208 620h-17z" />
    <glyph glyph-name="abreve" unicode="&#x103;" horiz-adv-x="1158" 
d="M581 1235q-172 0 -268.5 94.5t-96.5 248.5v2h167v-3q2 -90 51.5 -141.5t146.5 -51.5t146.5 52t51.5 141v3h166v-2q0 -154 -96 -248.5t-268 -94.5zM454 -18q-158 0 -259 88.5t-101 234.5v2q0 145 105 228t300 95l294 17v96q0 90 -56.5 137.5t-165.5 47.5q-89 0 -147 -31.5
t-78 -89.5l-1 -4h-209l1 7q20 134 140 215.5t304 81.5q204 0 315.5 -96t111.5 -268v-743h-215v154h-17q-48 -83 -131 -127.5t-191 -44.5zM310 314q0 -74 56 -116.5t146 -42.5q121 0 201 70.5t80 175.5v93l-265 -17q-218 -13 -218 -161v-2z" />
    <glyph glyph-name="Aogonek" unicode="&#x104;" horiz-adv-x="1423" 
d="M70 0l521 1443h242l521 -1443q-163 -101 -163 -228v-2q0 -57 32.5 -91t82.5 -34q33 0 69 9v-128q-58 -20 -129 -20q-109 0 -183 57.5t-74 166.5v2q-2 150 173 268h-44l-130 390h-552l-131 -390h-235zM703 1190l-207 -620h432l-208 620h-17z" />
    <glyph glyph-name="aogonek" unicode="&#x105;" horiz-adv-x="1158" 
d="M454 -18q-158 0 -259 88.5t-101 234.5v2q0 145 105 228t300 95l294 17v96q0 90 -56.5 137.5t-165.5 47.5q-89 0 -147 -31.5t-78 -89.5l-1 -4h-209l1 7q20 134 140 215.5t304 81.5q204 0 315.5 -96t111.5 -268v-743q-163 -101 -163 -228v-2q0 -57 32.5 -91t82.5 -34
q33 0 69 9v-128q-58 -20 -129 -20q-109 0 -183 57.5t-74 166.5v2q0 151 173 268h-23v154h-17q-48 -83 -131 -127.5t-191 -44.5zM310 314q0 -74 56 -116.5t146 -42.5q121 0 201 70.5t80 175.5v93l-265 -17q-218 -13 -218 -161v-2z" />
    <glyph glyph-name="Cacute" unicode="&#x106;" horiz-adv-x="1485" 
d="M846 1587h-167l167 328h226zM773 -35q-301 0 -476 203t-175 552v2q0 350 174.5 553t475.5 203q238 0 404.5 -136t195.5 -352l-1 -5h-222v3q-32 133 -133.5 212.5t-243.5 79.5q-194 0 -307.5 -150.5t-113.5 -407.5v-2q0 -257 113.5 -407t308.5 -150q143 0 243.5 71.5
t131.5 193.5l2 4h222v-6q-32 -208 -195 -334.5t-404 -126.5z" />
    <glyph glyph-name="cacute" unicode="&#x107;" horiz-adv-x="1167" 
d="M683 1236h-171l176 344h231zM613 -21q-238 0 -374.5 152t-136.5 415v2q0 259 136.5 409t373.5 150q199 0 321 -100.5t145 -264.5v-5l-208 -1l-1 3q-19 84 -85.5 135.5t-170.5 51.5q-135 0 -212.5 -101t-77.5 -277v-2q0 -180 78 -283t212 -103q201 0 255 179l2 5h208
l-2 -9q-30 -164 -148.5 -260t-314.5 -96z" />
    <glyph glyph-name="Ccircumflex" unicode="&#x108;" horiz-adv-x="1485" 
d="M417 1587l237 328h237l237 -328h-204l-143 208h-17l-143 -208h-204zM773 -35q-301 0 -476 203t-175 552v2q0 350 174.5 553t475.5 203q238 0 404.5 -136t195.5 -352l-1 -5h-222v3q-32 133 -133.5 212.5t-243.5 79.5q-194 0 -307.5 -150.5t-113.5 -407.5v-2
q0 -257 113.5 -407t308.5 -150q143 0 243.5 71.5t131.5 193.5l2 4h222v-6q-32 -208 -195 -334.5t-404 -126.5z" />
    <glyph glyph-name="ccircumflex" unicode="&#x109;" horiz-adv-x="1167" 
d="M242 1236l248 344h241l248 -344h-208l-152 221h-17l-152 -221h-208zM613 -21q-238 0 -374.5 152t-136.5 415v2q0 259 136.5 409t373.5 150q199 0 321 -100.5t145 -264.5v-5l-208 -1l-1 3q-19 84 -85.5 135.5t-170.5 51.5q-135 0 -212.5 -101t-77.5 -277v-2
q0 -180 78 -283t212 -103q201 0 255 179l2 5h208l-2 -9q-30 -164 -148.5 -260t-314.5 -96z" />
    <glyph glyph-name="Cdotabove" unicode="&#x10a;" horiz-adv-x="1485" 
d="M772 1628q-53 0 -91 37.5t-38 90.5t38 91t91 38q54 0 92 -38t38 -91t-38 -90.5t-92 -37.5zM773 -35q-301 0 -476 203t-175 552v2q0 350 174.5 553t475.5 203q238 0 404.5 -136t195.5 -352l-1 -5h-222v3q-32 133 -133.5 212.5t-243.5 79.5q-194 0 -307.5 -150.5
t-113.5 -407.5v-2q0 -257 113.5 -407t308.5 -150q143 0 243.5 71.5t131.5 193.5l2 4h222v-6q-32 -208 -195 -334.5t-404 -126.5z" />
    <glyph glyph-name="cdotabove" unicode="&#x10b;" horiz-adv-x="1167" 
d="M611 1280q-56 0 -96 39.5t-40 95.5t40 96t96 40t96 -40t40 -96q0 -55 -40 -95t-96 -40zM613 -21q-238 0 -374.5 152t-136.5 415v2q0 259 136.5 409t373.5 150q199 0 321 -100.5t145 -264.5v-5l-208 -1l-1 3q-19 84 -85.5 135.5t-170.5 51.5q-135 0 -212.5 -101
t-77.5 -277v-2q0 -180 78 -283t212 -103q201 0 255 179l2 5h208l-2 -9q-30 -164 -148.5 -260t-314.5 -96z" />
    <glyph glyph-name="Ccaron" unicode="&#x10c;" horiz-adv-x="1485" 
d="M1128 1915l-237 -328h-237l-237 328h204l143 -208h17l143 208h204zM773 -35q-301 0 -476 203t-175 552v2q0 350 174.5 553t475.5 203q238 0 404.5 -136t195.5 -352l-1 -5h-222v3q-32 133 -133.5 212.5t-243.5 79.5q-194 0 -307.5 -150.5t-113.5 -407.5v-2
q0 -257 113.5 -407t308.5 -150q143 0 243.5 71.5t131.5 193.5l2 4h222v-6q-32 -208 -195 -334.5t-404 -126.5z" />
    <glyph glyph-name="ccaron" unicode="&#x10d;" horiz-adv-x="1167" 
d="M979 1580l-248 -344h-241l-248 344h208l152 -221h17l152 221h208zM613 -21q-238 0 -374.5 152t-136.5 415v2q0 259 136.5 409t373.5 150q199 0 321 -100.5t145 -264.5v-5l-208 -1l-1 3q-19 84 -85.5 135.5t-170.5 51.5q-135 0 -212.5 -101t-77.5 -277v-2q0 -180 78 -283
t212 -103q201 0 255 179l2 5h208l-2 -9q-30 -164 -148.5 -260t-314.5 -96z" />
    <glyph glyph-name="Dcaron" unicode="&#x10e;" horiz-adv-x="1503" 
d="M1075 1915l-237 -328h-236l-237 328h203l144 -208h16l144 208h203zM181 0v1443h521q321 0 500 -188.5t179 -528.5v-2q0 -344 -178.5 -534t-500.5 -190h-521zM405 193h272q227 0 351.5 138.5t124.5 389.5v2q0 249 -126 388t-350 139h-272v-1057z" />
    <glyph glyph-name="dcaron" unicode="&#x10f;" horiz-adv-x="1493" 
d="M1213 1236l79 344h201l-147 -344h-133zM552 -18q-205 0 -327.5 152t-122.5 408v2q0 258 121.5 409.5t328.5 151.5q111 0 200.5 -51.5t133.5 -139.5h17v598h216v-1512h-216v171h-17q-48 -90 -134.5 -139.5t-199.5 -49.5zM614 167q136 0 214 100.5t78 274.5v2
q0 174 -78.5 274.5t-213.5 100.5q-136 0 -213.5 -100t-77.5 -275v-2q0 -175 77.5 -275t213.5 -100z" />
    <glyph glyph-name="dstroke" unicode="&#x111;" horiz-adv-x="1340" 
d="M552 -18q-205 0 -327.5 152t-122.5 408v2q0 258 121.5 409.5t328.5 151.5q111 0 200.5 -51.5t133.5 -139.5h17v316h-300v148h300v134h216v-134h166v-148h-166v-1230h-216v171h-17q-48 -90 -134.5 -139.5t-199.5 -49.5zM614 167q136 0 214 100.5t78 274.5v2
q0 174 -78.5 274.5t-213.5 100.5q-136 0 -213.5 -100t-77.5 -275v-2q0 -175 77.5 -275t213.5 -100z" />
    <glyph glyph-name="Emacron" unicode="&#x112;" horiz-adv-x="1239" 
d="M313 1681v148h652v-148h-652zM181 0v1443h916v-193h-692v-422h655v-186h-655v-449h692v-193h-916z" />
    <glyph glyph-name="emacron" unicode="&#x113;" horiz-adv-x="1192" 
d="M265 1337v150h680v-150h-680zM612 -21q-238 0 -374 151t-136 410v1q0 255 136 410.5t363 155.5q225 0 357 -149t132 -396v-76h-770q3 -155 82.5 -242t214.5 -87q96 0 160.5 38t87.5 87l4 8l209 1l-2 -9q-14 -56 -49.5 -108t-91 -96.5t-139.5 -71.5t-184 -27zM602 929
q-114 0 -189.5 -75.5t-89.5 -212.5h552q-12 141 -85.5 214.5t-187.5 73.5z" />
    <glyph glyph-name="Ebreve" unicode="&#x114;" horiz-adv-x="1239" 
d="M638 1586q-164 0 -257 90t-93 238v1h164v-3q2 -83 48.5 -132t137.5 -49t138 48.5t49 132.5v3h164v-1q0 -148 -93 -238t-258 -90zM181 0v1443h916v-193h-692v-422h655v-186h-655v-449h692v-193h-916z" />
    <glyph glyph-name="ebreve" unicode="&#x115;" horiz-adv-x="1192" 
d="M605 1235q-172 0 -268 94.5t-96 248.5v2h166l1 -3q1 -89 50.5 -141t146.5 -52t147 52t51 141v3h167v-2q0 -154 -96.5 -248.5t-268.5 -94.5zM612 -21q-238 0 -374 151t-136 410v1q0 255 136 410.5t363 155.5q225 0 357 -149t132 -396v-76h-770q3 -155 82.5 -242t214.5 -87
q96 0 160.5 38t87.5 87l4 8l209 1l-2 -9q-14 -56 -49.5 -108t-91 -96.5t-139.5 -71.5t-184 -27zM602 929q-114 0 -189.5 -75.5t-89.5 -212.5h552q-12 141 -85.5 214.5t-187.5 73.5z" />
    <glyph glyph-name="Edotabove" unicode="&#x116;" horiz-adv-x="1239" 
d="M639 1628q-53 0 -91 37.5t-38 90.5t38 91t91 38t91 -38t38 -91t-38 -90.5t-91 -37.5zM181 0v1443h916v-193h-692v-422h655v-186h-655v-449h692v-193h-916z" />
    <glyph glyph-name="edotabove" unicode="&#x117;" horiz-adv-x="1192" 
d="M605 1280q-56 0 -96 40t-40 95q0 56 40 96t96 40t96 -40t40 -96t-40 -95.5t-96 -39.5zM612 -21q-238 0 -374 151t-136 410v1q0 255 136 410.5t363 155.5q225 0 357 -149t132 -396v-76h-770q3 -155 82.5 -242t214.5 -87q96 0 160.5 38t87.5 87l4 8l209 1l-2 -9
q-14 -56 -49.5 -108t-91 -96.5t-139.5 -71.5t-184 -27zM602 929q-114 0 -189.5 -75.5t-89.5 -212.5h552q-12 141 -85.5 214.5t-187.5 73.5z" />
    <glyph glyph-name="Eogonek" unicode="&#x118;" horiz-adv-x="1239" 
d="M181 0v1443h916v-193h-692v-422h655v-186h-655v-449h692v-193q-162 -100 -162 -228v-2q0 -57 32 -91t83 -34q33 0 69 9v-128q-58 -20 -130 -20q-109 0 -183 57.5t-74 166.5v2q0 150 174 268h-725z" />
    <glyph glyph-name="eogonek" unicode="&#x119;" horiz-adv-x="1192" 
d="M605 -21q-234 0 -368.5 150t-134.5 411v2q0 260 136 413t366 153q227 0 356.5 -146t129.5 -402v-74h-769v-10q0 -147 80 -234.5t210 -87.5q197 0 260 137h205q-16 -66 -52.5 -124t-76.5 -99t-77.5 -83t-62 -96.5t-24.5 -119.5v-2q0 -57 31 -91.5t78 -34.5q42 0 75 10
v-125q-56 -20 -136 -20q-107 0 -178.5 57.5t-71.5 166.5v2q0 141 146 257q-54 -10 -122 -10zM603 932q-119 0 -196 -79.5t-86 -211.5h550q-4 133 -76.5 212t-191.5 79z" />
    <glyph glyph-name="Ecaron" unicode="&#x11a;" horiz-adv-x="1239" 
d="M994 1915l-237 -328h-236l-237 328h203l144 -208h16l144 208h203zM181 0v1443h916v-193h-692v-422h655v-186h-655v-449h692v-193h-916z" />
    <glyph glyph-name="ecaron" unicode="&#x11b;" horiz-adv-x="1192" 
d="M974 1580l-249 -344h-240l-248 344h208l152 -221h17l152 221h208zM612 -21q-238 0 -374 151t-136 410v1q0 255 136 410.5t363 155.5q225 0 357 -149t132 -396v-76h-770q3 -155 82.5 -242t214.5 -87q96 0 160.5 38t87.5 87l4 8l209 1l-2 -9q-14 -56 -49.5 -108t-91 -96.5
t-139.5 -71.5t-184 -27zM602 929q-114 0 -189.5 -75.5t-89.5 -212.5h552q-12 141 -85.5 214.5t-187.5 73.5z" />
    <glyph glyph-name="Gcircumflex" unicode="&#x11c;" horiz-adv-x="1539" 
d="M437 1587l237 328h236l237 -328h-203l-144 208h-16l-144 -208h-203zM789 -35q-307 0 -487 204t-180 552v2q0 344 181 549.5t484 205.5q244 0 409 -127t204 -338l2 -10h-224l-3 10q-39 128 -139.5 197.5t-248.5 69.5q-200 0 -318 -150.5t-118 -405.5v-2q0 -258 119 -408.5
t322 -150.5q177 0 287.5 102.5t111.5 268.5v32h-371v181h592v-179q0 -274 -169.5 -438.5t-453.5 -164.5z" />
    <glyph glyph-name="gcircumflex" unicode="&#x11d;" horiz-adv-x="1274" 
d="M255 1236l248 344h241l248 -344h-208l-152 221h-17l-152 -221h-208zM615 -383q-204 0 -328 82t-144 220l2 2h219l1 -2q14 -58 80 -93t173 -35q135 0 210 60.5t75 171.5v214h-16q-50 -89 -136.5 -136.5t-198.5 -47.5q-207 0 -329 144.5t-122 376.5v2q0 236 123 382.5
t332 146.5q112 0 198.5 -52t134.5 -145h13v178h216v-1064q0 -185 -136 -295t-367 -110zM612 232q136 0 215.5 94.5t79.5 248.5v2q0 154 -79.5 249t-215.5 95t-212.5 -94.5t-76.5 -249.5v-2q0 -155 76.5 -249t212.5 -94z" />
    <glyph glyph-name="Gbreve" unicode="&#x11e;" horiz-adv-x="1539" 
d="M791 1586q-164 0 -257 90t-93 238v1h164v-3q2 -83 48.5 -132t137.5 -49t138 48.5t49 132.5v3h164v-1q0 -148 -93 -238t-258 -90zM789 -35q-307 0 -487 204t-180 552v2q0 344 181 549.5t484 205.5q244 0 409 -127t204 -338l2 -10h-224l-3 10q-39 128 -139.5 197.5
t-248.5 69.5q-200 0 -318 -150.5t-118 -405.5v-2q0 -258 119 -408.5t322 -150.5q177 0 287.5 102.5t111.5 268.5v32h-371v181h592v-179q0 -274 -169.5 -438.5t-453.5 -164.5z" />
    <glyph glyph-name="gbreve" unicode="&#x11f;" horiz-adv-x="1274" 
d="M624 1235q-172 0 -268.5 94.5t-96.5 248.5v2h167v-3q1 -89 51 -141t147 -52t146.5 52t50.5 141l1 3h166v-2q0 -154 -96 -248.5t-268 -94.5zM615 -383q-204 0 -328 82t-144 220l2 2h219l1 -2q14 -58 80 -93t173 -35q135 0 210 60.5t75 171.5v214h-16
q-50 -89 -136.5 -136.5t-198.5 -47.5q-207 0 -329 144.5t-122 376.5v2q0 236 123 382.5t332 146.5q112 0 198.5 -52t134.5 -145h13v178h216v-1064q0 -185 -136 -295t-367 -110zM612 232q136 0 215.5 94.5t79.5 248.5v2q0 154 -79.5 249t-215.5 95t-212.5 -94.5t-76.5 -249.5
v-2q0 -155 76.5 -249t212.5 -94z" />
    <glyph glyph-name="Gdotabove" unicode="&#x120;" horiz-adv-x="1539" 
d="M792 1628q-53 0 -91 37.5t-38 90.5t38 91t91 38t91 -38t38 -91t-38 -90.5t-91 -37.5zM789 -35q-307 0 -487 204t-180 552v2q0 344 181 549.5t484 205.5q244 0 409 -127t204 -338l2 -10h-224l-3 10q-39 128 -139.5 197.5t-248.5 69.5q-200 0 -318 -150.5t-118 -405.5v-2
q0 -258 119 -408.5t322 -150.5q177 0 287.5 102.5t111.5 268.5v32h-371v181h592v-179q0 -274 -169.5 -438.5t-453.5 -164.5z" />
    <glyph glyph-name="gdotabove" unicode="&#x121;" horiz-adv-x="1274" 
d="M624 1280q-56 0 -96 39.5t-40 95.5t40 96t96 40t96 -40t40 -96t-40 -95.5t-96 -39.5zM615 -383q-204 0 -328 82t-144 220l2 2h219l1 -2q14 -58 80 -93t173 -35q135 0 210 60.5t75 171.5v214h-16q-50 -89 -136.5 -136.5t-198.5 -47.5q-207 0 -329 144.5t-122 376.5v2
q0 236 123 382.5t332 146.5q112 0 198.5 -52t134.5 -145h13v178h216v-1064q0 -185 -136 -295t-367 -110zM612 232q136 0 215.5 94.5t79.5 248.5v2q0 154 -79.5 249t-215.5 95t-212.5 -94.5t-76.5 -249.5v-2q0 -155 76.5 -249t212.5 -94z" />
    <glyph glyph-name="Gcommaaccent" unicode="&#x122;" horiz-adv-x="1539" 
d="M789 -35q-307 0 -487 204t-180 552v2q0 344 181 549.5t484 205.5q244 0 409 -127t204 -338l2 -10h-224l-3 10q-39 128 -139.5 197.5t-248.5 69.5q-200 0 -318 -150.5t-118 -405.5v-2q0 -258 119 -408.5t322 -150.5q177 0 287.5 102.5t111.5 268.5v32h-371v181h592v-179
q0 -274 -169.5 -438.5t-453.5 -164.5zM588 -494l87 345h215l-161 -345h-141z" />
    <glyph glyph-name="gcommaaccent" unicode="&#x123;" horiz-adv-x="1274" 
d="M828 1580l-87 -344h-215l161 344h141zM615 -383q-204 0 -328 82t-144 220l2 2h219l1 -2q14 -58 80 -93t173 -35q135 0 210 60.5t75 171.5v214h-16q-50 -89 -136.5 -136.5t-198.5 -47.5q-207 0 -329 144.5t-122 376.5v2q0 236 123 382.5t332 146.5q112 0 198.5 -52
t134.5 -145h13v178h216v-1064q0 -185 -136 -295t-367 -110zM612 232q136 0 215.5 94.5t79.5 248.5v2q0 154 -79.5 249t-215.5 95t-212.5 -94.5t-76.5 -249.5v-2q0 -155 76.5 -249t212.5 -94z" />
    <glyph glyph-name="Hcircumflex" unicode="&#x124;" horiz-adv-x="1550" 
d="M420 1587l237 328h236l238 -328h-204l-144 208h-16l-144 -208h-203zM181 0v1443h224v-610h741v610h223v-1443h-223v639h-741v-639h-224z" />
    <glyph glyph-name="hcircumflex" unicode="&#x125;" horiz-adv-x="1237" 
d="M-44 1656l213 295h213l212 -295h-182l-129 187h-15l-129 -187h-183zM166 0v1512h217v-591h16q85 186 315 186q182 0 279.5 -104.5t97.5 -299.5v-703h-216v652q0 136 -57.5 202.5t-176.5 66.5t-188.5 -76.5t-69.5 -207.5v-637h-217z" />
    <glyph glyph-name="Hstroke" unicode="&#x126;" horiz-adv-x="1669" 
d="M241 0v1059h-181v172h181v212h223v-212h741v212h224v-212h181v-172h-181v-1059h-224v639h-741v-639h-223zM464 833h741v226h-741v-226z" />
    <glyph glyph-name="hstroke" unicode="&#x127;" horiz-adv-x="1292" 
d="M221 0v1230h-166v148h166v134h217v-134h298v-148h-298v-309h16q85 186 315 186q182 0 279.5 -104.5t97.5 -299.5v-703h-216v652q0 136 -57.5 202.5t-176.5 66.5t-188.5 -76.5t-69.5 -207.5v-637h-217z" />
    <glyph glyph-name="Itilde" unicode="&#x128;" horiz-adv-x="585" 
d="M437 1592q-50 0 -90.5 20.5t-85.5 61.5l-14 13q-45 42 -81 42q-72 0 -72 -135v-3h-151v8q0 127 55 202t150 75q50 0 90.5 -20.5t84.5 -61.5l14 -13q45 -42 81 -42q73 0 73 135v3h150v-8q0 -127 -54.5 -202t-149.5 -75zM181 0v1443h224v-1443h-224z" />
    <glyph glyph-name="itilde" unicode="&#x129;" horiz-adv-x="536" 
d="M419 1242q-53 0 -95.5 22t-88.5 66l-14 12q-47 46 -85 46q-76 0 -76 -145v-4h-155v10q0 133 56.5 210t156.5 77q53 0 95.5 -21.5t88.5 -65.5l14 -13q48 -45 85 -45q76 0 76 144v4h155v-10q0 -133 -56.5 -210t-156.5 -77zM160 0v1086h216v-1086h-216z" />
    <glyph glyph-name="Imacron" unicode="&#x12a;" horiz-adv-x="585" 
d="M-33 1681v148h652v-148h-652zM181 0v1443h224v-1443h-224z" />
    <glyph glyph-name="imacron" unicode="&#x12b;" horiz-adv-x="536" 
d="M7 1337v150h523v-150h-523zM160 0v1086h216v-1086h-216z" />
    <glyph glyph-name="Ibreve" unicode="&#x12c;" horiz-adv-x="585" 
d="M292 1586q-164 0 -257 90t-93 238v1h164v-3q1 -83 48 -132t138 -49t138 48.5t49 132.5v3h163v-1q0 -148 -92.5 -238t-257.5 -90zM181 0v1443h224v-1443h-224z" />
    <glyph glyph-name="ibreve" unicode="&#x12d;" horiz-adv-x="536" 
d="M269 1235q-173 0 -269 94.5t-96 248.5v2h167v-3q1 -89 51 -141t147 -52t146.5 52t50.5 141v3h167v-2q0 -154 -96 -248.5t-268 -94.5zM160 0v1086h216v-1086h-216z" />
    <glyph glyph-name="Iogonek" unicode="&#x12e;" horiz-adv-x="585" 
d="M181 0v1443h224v-1443q-163 -101 -163 -228v-2q0 -57 32.5 -91t82.5 -34q33 0 69 9v-128q-58 -20 -129 -20q-109 0 -183 57.5t-74 166.5v2q0 151 173 268h-32z" />
    <glyph glyph-name="iogonek" unicode="&#x12f;" horiz-adv-x="536" 
d="M269 1280q-56 0 -96 39.5t-40 95.5t40 96t96 40t96 -40t40 -96q0 -55 -40 -95t-96 -40zM160 0v1086h216v-1086q-162 -100 -162 -228v-2q0 -57 32 -91t83 -34q33 0 68 9v-128q-58 -20 -129 -20q-109 0 -183 57.5t-74 166.5v2q0 150 174 268h-25z" />
    <glyph glyph-name="Idotabove" unicode="&#x130;" horiz-adv-x="585" 
d="M293 1628q-54 0 -92 37.5t-38 90.5t38 91t92 38q53 0 91 -38t38 -91t-38 -90.5t-91 -37.5zM181 0v1443h224v-1443h-224z" />
    <glyph glyph-name="dotlessi" unicode="&#x131;" horiz-adv-x="536" 
d="M160 0v1086h216v-1086h-216z" />
    <glyph glyph-name="IJdigraph" unicode="&#x132;" horiz-adv-x="1734" 
d="M181 0v1443h224v-1443h-224zM1103 -35q-196 0 -310.5 108t-124.5 285v12h220l1 -9q7 -87 61.5 -141.5t151.5 -54.5q111 0 169 65t58 188v1025h224v-1027q0 -213 -118.5 -332t-331.5 -119z" />
    <glyph glyph-name="ijdigraph" unicode="&#x133;" horiz-adv-x="1070" 
d="M269 1280q-56 0 -96 39.5t-40 95.5t40 96t96 40t96 -40t40 -96q0 -55 -40 -95t-96 -40zM802 1280q-56 0 -96 40t-40 95q0 56 40 96t96 40t96 -40t40 -96t-40 -95.5t-96 -39.5zM160 0v1086h216v-1086h-216zM558 -372q-8 0 -24.5 0.5t-22.5 0.5v178h30q84 0 118.5 33
t34.5 114v1132h217v-1133q0 -166 -87 -245.5t-266 -79.5z" />
    <glyph glyph-name="Jcircumflex" unicode="&#x134;" horiz-adv-x="1148" 
d="M500 1587l237 328h237l237 -328h-203l-144 208h-17l-143 -208h-204zM518 -35q-196 0 -311 108t-124 285l-1 12h221l1 -9q7 -87 61.5 -141.5t150.5 -54.5q111 0 169.5 65t58.5 188v1025h224v-1027q0 -213 -119 -332t-331 -119z" />
    <glyph glyph-name="jcircumflex" unicode="&#x135;" horiz-adv-x="535" 
d="M-101 1236l248 344h240l248 -344h-207l-153 221h-16l-153 -221h-207zM23 -372q-8 0 -25 0.5t-23 0.5v178h30q84 0 119 33t35 114v1132h216v-1133q0 -166 -87 -245.5t-265 -79.5z" />
    <glyph glyph-name="Kcommaaccent" unicode="&#x136;" horiz-adv-x="1386" 
d="M181 0v1443h224v-682h16l597 682h265l-558 -626l606 -817h-280l-484 665l-162 -184v-481h-224zM464 -494l87 345h215l-161 -345h-141z" />
    <glyph glyph-name="kcommaaccent" unicode="&#x137;" horiz-adv-x="1155" 
d="M166 0v1512h217v-884h16l431 458h254l-453 -458l483 -628h-264l-374 488l-93 -93v-395h-217zM416 -494l87 345h215l-161 -345h-141z" />
    <glyph glyph-name="ka.cyrl" unicode="&#x43a;" horiz-adv-x="1158" 
d="M437 480h-55v-480h-217v1086h217v-444h54l385 444h253l-461 -506l481 -580h-268z" />
    <glyph glyph-name="ka.cyrl" unicode="&#x138;" horiz-adv-x="1158" 
d="M437 480h-55v-480h-217v1086h217v-444h54l385 444h253l-461 -506l481 -580h-268z" />
    <glyph glyph-name="Lacute" unicode="&#x139;" horiz-adv-x="1183" 
d="M366 1587h-167l167 328h226zM181 0v1443h224v-1250h676v-193h-900z" />
    <glyph glyph-name="lacute" unicode="&#x13a;" horiz-adv-x="549" 
d="M340 1642h-150l149 295h203zM166 0v1512h217v-1512h-217z" />
    <glyph glyph-name="Lcommaaccent" unicode="&#x13b;" horiz-adv-x="1183" 
d="M181 0v1443h224v-1250h676v-193h-900zM425 -494l87 345h215l-161 -345h-141z" />
    <glyph glyph-name="lcommaaccent" unicode="&#x13c;" horiz-adv-x="549" 
d="M166 0v1512h217v-1512h-217zM69 -494l87 345h216l-162 -345h-141z" />
    <glyph glyph-name="Lcaron" unicode="&#x13d;" horiz-adv-x="1183" 
d="M181 0v1443h224v-1250h676v-193h-900zM612 1029l71 414h210l-143 -414h-138z" />
    <glyph glyph-name="lcaron" unicode="&#x13e;" horiz-adv-x="757" 
d="M477 1236l78 344h202l-147 -344h-133zM166 0v1512h217v-1512h-217z" />
    <glyph glyph-name="Ldot.CAT" unicode="&#x13f;" horiz-adv-x="1183" 
d="M181 0v1443h224v-1250h676v-193h-900zM1030 756v-2q0 -61 -42 -103t-103 -42h-2q-61 0 -103.5 42t-42.5 103v2q0 62 42.5 104t103.5 42h2q61 0 103 -42.5t42 -103.5z" />
    <glyph glyph-name="ldot.CAT" unicode="&#x140;" horiz-adv-x="813" 
d="M166 0v1512h217v-1512h-217zM813 707v-2q0 -55 -38 -93t-93 -38h-2q-55 0 -93 38t-38 93v2q0 55 38 93t93 38h2q55 0 93 -38t38 -93z" />
    <glyph glyph-name="Lstroke" unicode="&#x141;" horiz-adv-x="1175" 
d="M173 0v542l-113 -56v184l113 57v716h224v-604l394 197v-185l-394 -197v-461h676v-193h-900z" />
    <glyph glyph-name="lstroke" unicode="&#x142;" horiz-adv-x="681" 
d="M234 0v641l-179 -89v169l179 89v702h216v-594l176 88v-169l-176 -88v-749h-216z" />
    <glyph glyph-name="Nacute" unicode="&#x143;" horiz-adv-x="1539" 
d="M843 1587h-167l167 328h226zM181 0v1443h202l742 -1050h15v1050h218v-1443h-202l-741 1048h-16v-1048h-218z" />
    <glyph glyph-name="nacute" unicode="&#x144;" horiz-adv-x="1227" 
d="M694 1236h-171l176 344h231zM156 0v1086h217v-165h16q85 186 315 186q182 0 279.5 -104.5t97.5 -299.5v-703h-216v652q0 136 -57.5 202.5t-176.5 66.5t-188.5 -76.5t-69.5 -207.5v-637h-217z" />
    <glyph glyph-name="Ncommaaccent" unicode="&#x145;" horiz-adv-x="1539" 
d="M181 0v1443h202l742 -1050h15v1050h218v-1443h-202l-741 1048h-16v-1048h-218zM565 -494l87 345h216l-162 -345h-141z" />
    <glyph glyph-name="ncommaaccent" unicode="&#x146;" horiz-adv-x="1227" 
d="M156 0v1086h217v-165h16q85 186 315 186q182 0 279.5 -104.5t97.5 -299.5v-703h-216v652q0 136 -57.5 202.5t-176.5 66.5t-188.5 -76.5t-69.5 -207.5v-637h-217zM417 -494l88 345h215l-162 -345h-141z" />
    <glyph glyph-name="Ncaron" unicode="&#x147;" horiz-adv-x="1539" 
d="M1125 1915l-237 -328h-237l-237 328h204l143 -208h17l143 208h204zM181 0v1443h202l742 -1050h15v1050h218v-1443h-202l-741 1048h-16v-1048h-218z" />
    <glyph glyph-name="ncaron" unicode="&#x148;" horiz-adv-x="1227" 
d="M990 1580l-248 -344h-241l-248 344h208l152 -221h17l152 221h208zM156 0v1086h217v-165h16q85 186 315 186q182 0 279.5 -104.5t97.5 -299.5v-703h-216v652q0 136 -57.5 202.5t-176.5 66.5t-188.5 -76.5t-69.5 -207.5v-637h-217z" />
    <glyph glyph-name="Eng" unicode="&#x14a;" horiz-adv-x="1539" 
d="M399 0h-218v1443h203l740 -1049h16v1049h218v-1502q0 -313 -317 -313q-54 0 -89 5v167q26 -2 49 -2q133 0 133 138v93l-719 1019h-16v-1048z" />
    <glyph glyph-name="eng" unicode="&#x14b;" horiz-adv-x="1227" 
d="M156 0v1086h217v-165h16q85 186 315 186q182 0 279.5 -104.5t97.5 -299.5v-768q0 -158 -79 -235.5t-240 -77.5q-48 0 -88 6v167q20 -3 51 -3q140 0 140 138v722q0 136 -57.5 202.5t-176.5 66.5t-188.5 -76.5t-69.5 -207.5v-637h-217z" />
    <glyph glyph-name="Omacron" unicode="&#x14c;" horiz-adv-x="1591" 
d="M470 1681v148h651v-148h-651zM796 -35q-314 0 -494 203.5t-180 552.5v2q0 348 181.5 551.5t492.5 203.5t492 -203.5t181 -551.5v-2q0 -348 -180.5 -552t-492.5 -204zM796 163q205 0 324.5 151.5t119.5 406.5v2q0 256 -119.5 406.5t-324.5 150.5t-325 -150.5t-120 -406.5
v-2q0 -255 119 -406.5t326 -151.5z" />
    <glyph glyph-name="omacron" unicode="&#x14d;" horiz-adv-x="1231" 
d="M276 1337v150h679v-150h-679zM616 -21q-239 0 -376.5 150.5t-137.5 412.5v2q0 262 137.5 412.5t376.5 150.5q238 0 375.5 -150.5t137.5 -412.5v-2q0 -262 -137 -412.5t-376 -150.5zM616 160q139 0 215.5 100.5t76.5 281.5v2q0 181 -76.5 281.5t-215.5 100.5
q-140 0 -216 -100.5t-76 -281.5v-2q0 -181 76 -281.5t216 -100.5z" />
    <glyph glyph-name="Obreve" unicode="&#x14e;" horiz-adv-x="1591" 
d="M795 1586q-165 0 -257.5 90t-92.5 238v1h164v-3q1 -83 48 -132t138 -49t138 49t48 132l1 3h163v-1q0 -148 -92.5 -238t-257.5 -90zM796 -35q-314 0 -494 203.5t-180 552.5v2q0 348 181.5 551.5t492.5 203.5t492 -203.5t181 -551.5v-2q0 -348 -180.5 -552t-492.5 -204z
M796 163q205 0 324.5 151.5t119.5 406.5v2q0 256 -119.5 406.5t-324.5 150.5t-325 -150.5t-120 -406.5v-2q0 -255 119 -406.5t326 -151.5z" />
    <glyph glyph-name="obreve" unicode="&#x14f;" horiz-adv-x="1231" 
d="M616 1235q-173 0 -269 94.5t-96 248.5v2h167v-3q1 -89 51 -141t147 -52t146.5 52t50.5 141v3h167v-2q0 -154 -96 -248.5t-268 -94.5zM616 -21q-239 0 -376.5 150.5t-137.5 412.5v2q0 262 137.5 412.5t376.5 150.5q238 0 375.5 -150.5t137.5 -412.5v-2q0 -262 -137 -412.5
t-376 -150.5zM616 160q139 0 215.5 100.5t76.5 281.5v2q0 181 -76.5 281.5t-215.5 100.5q-140 0 -216 -100.5t-76 -281.5v-2q0 -181 76 -281.5t216 -100.5z" />
    <glyph glyph-name="Odblacute" unicode="&#x150;" horiz-adv-x="1591" 
d="M676 1587h-167l143 328h226zM1056 1587h-167l167 328h226zM796 -35q-314 0 -494 203.5t-180 552.5v2q0 348 181.5 551.5t492.5 203.5t492 -203.5t181 -551.5v-2q0 -348 -180.5 -552t-492.5 -204zM796 163q205 0 324.5 151.5t119.5 406.5v2q0 256 -119.5 406.5
t-324.5 150.5t-325 -150.5t-120 -406.5v-2q0 -255 119 -406.5t326 -151.5z" />
    <glyph glyph-name="odblacute" unicode="&#x151;" horiz-adv-x="1231" 
d="M485 1236h-171l151 344h231zM881 1236h-171l176 344h231zM616 -21q-239 0 -376.5 150.5t-137.5 412.5v2q0 262 137.5 412.5t376.5 150.5q238 0 375.5 -150.5t137.5 -412.5v-2q0 -262 -137 -412.5t-376 -150.5zM616 160q139 0 215.5 100.5t76.5 281.5v2q0 181 -76.5 281.5
t-215.5 100.5q-140 0 -216 -100.5t-76 -281.5v-2q0 -181 76 -281.5t216 -100.5z" />
    <glyph glyph-name="OE" unicode="&#x152;" horiz-adv-x="2317" 
d="M774 -35q-303 0 -477.5 202.5t-174.5 553.5v2q0 350 175 552.5t477 202.5q152 0 286 -74.5t196 -193.5h17v233h902v-193h-707v-422h670v-186h-670v-449h707v-193h-902v242h-17q-62 -125 -195 -201t-287 -76zM805 163q201 0 318 150t117 408v2q0 258 -116.5 407.5
t-318.5 149.5q-209 0 -331.5 -150t-122.5 -407v-2q0 -258 122 -408t332 -150z" />
    <glyph glyph-name="oe" unicode="&#x153;" horiz-adv-x="1997" 
d="M611 -21q-236 0 -372.5 151t-136.5 412v2q0 262 136.5 413t372.5 151q133 0 237 -57.5t160 -161.5h17q55 103 158 161t231 58q222 0 351 -147t129 -400v-72h-768l1 -20q7 -144 85.5 -228.5t212.5 -84.5q188 0 249 135h208q-36 -144 -159 -228t-300 -84q-137 0 -241 56
t-158 159h-17q-47 -98 -154 -156.5t-242 -58.5zM1126 640h550q-4 134 -76.5 212.5t-191.5 78.5t-196 -79t-86 -212zM616 160q139 0 215.5 100t76.5 282v2q0 182 -76.5 282.5t-215.5 100.5t-215.5 -100.5t-76.5 -282.5v-2q0 -182 76.5 -282t215.5 -100z" />
    <glyph glyph-name="Racute" unicode="&#x154;" horiz-adv-x="1368" 
d="M722 1587h-167l167 328h226zM181 0v1443h569q221 0 350.5 -119t129.5 -321v-2q0 -146 -74.5 -256.5t-205.5 -154.5l324 -590h-259l-294 555h-316v-555h-224zM405 737h323q129 0 200.5 67.5t71.5 190.5v2q0 120 -74.5 189t-204.5 69h-316v-518z" />
    <glyph glyph-name="racute" unicode="&#x155;" horiz-adv-x="820" 
d="M477 1236h-171l176 344h231zM156 0v1086h217v-164h16q30 87 103.5 135t181.5 48q51 0 95 -10v-200q-63 13 -117 13q-125 0 -202 -71t-77 -188v-649h-217z" />
    <glyph glyph-name="Rcommaaccent" unicode="&#x156;" horiz-adv-x="1368" 
d="M181 0v1443h569q221 0 350.5 -119t129.5 -321v-2q0 -146 -74.5 -256.5t-205.5 -154.5l324 -590h-259l-294 555h-316v-555h-224zM405 737h323q129 0 200.5 67.5t71.5 190.5v2q0 120 -74.5 189t-204.5 69h-316v-518zM487 -494l87 345h216l-162 -345h-141z" />
    <glyph glyph-name="rcommaaccent" unicode="&#x157;" horiz-adv-x="820" 
d="M156 0v1086h217v-164h16q30 87 103.5 135t181.5 48q51 0 95 -10v-200q-63 13 -117 13q-125 0 -202 -71t-77 -188v-649h-217zM59 -494l87 345h216l-162 -345h-141z" />
    <glyph glyph-name="Rcaron" unicode="&#x158;" horiz-adv-x="1368" 
d="M1004 1915l-237 -328h-236l-237 328h203l144 -208h16l144 208h203zM181 0v1443h569q221 0 350.5 -119t129.5 -321v-2q0 -146 -74.5 -256.5t-205.5 -154.5l324 -590h-259l-294 555h-316v-555h-224zM405 737h323q129 0 200.5 67.5t71.5 190.5v2q0 120 -74.5 189t-204.5 69
h-316v-518z" />
    <glyph glyph-name="rcaron" unicode="&#x159;" horiz-adv-x="820" 
d="M773 1580l-248 -344h-241l-248 344h208l152 -221h17l152 221h208zM156 0v1086h217v-164h16q30 87 103.5 135t181.5 48q51 0 95 -10v-200q-63 13 -117 13q-125 0 -202 -71t-77 -188v-649h-217z" />
    <glyph glyph-name="Sacute" unicode="&#x15a;" horiz-adv-x="1333" 
d="M754 1590h-167l166 328h226zM669 -35q-242 0 -391 112t-164 296l-1 13h220l1 -11q9 -98 103.5 -156.5t240.5 -58.5q138 0 226.5 63t88.5 163v1q0 85 -64 139.5t-205 84.5l-158 34q-217 46 -318 147.5t-101 263.5v1q1 186 147 303.5t376 117.5q225 0 367.5 -112.5
t154.5 -284.5l1 -14h-217l-2 13q-15 91 -97 147.5t-210 55.5q-130 0 -212 -57.5t-82 -157.5v-1q0 -82 62.5 -134.5t200.5 -82.5l157 -35q226 -48 326.5 -143.5t100.5 -257.5v-1q0 -206 -149 -327t-402 -121z" />
    <glyph glyph-name="sacute" unicode="&#x15b;" horiz-adv-x="1104" 
d="M626 1236h-171l176 344h231zM551 -21q-194 0 -313.5 83t-135.5 222v1h217l1 -1q21 -64 81 -100.5t154 -36.5q101 0 164 41.5t63 108.5v2q0 52 -42 87t-135 56l-173 40q-154 35 -227 107.5t-73 191.5v1q0 142 119 233.5t303 91.5q183 0 297.5 -83t128.5 -218v-1h-207v2
q-16 59 -74 96t-146 37q-90 0 -147.5 -40.5t-57.5 -105.5v-2q0 -51 40.5 -84t131.5 -55l172 -39q158 -37 233.5 -107.5t75.5 -187.5v-2q0 -149 -127.5 -243.5t-322.5 -94.5z" />
    <glyph glyph-name="Scircumflex" unicode="&#x15c;" horiz-adv-x="1333" 
d="M325 1590l237 328h237l237 -328h-204l-143 208h-17l-144 -208h-203zM669 -35q-242 0 -391 112t-164 296l-1 13h220l1 -11q9 -98 103.5 -156.5t240.5 -58.5q138 0 226.5 63t88.5 163v1q0 85 -64 139.5t-205 84.5l-158 34q-217 46 -318 147.5t-101 263.5v1q1 186 147 303.5
t376 117.5q225 0 367.5 -112.5t154.5 -284.5l1 -14h-217l-2 13q-15 91 -97 147.5t-210 55.5q-130 0 -212 -57.5t-82 -157.5v-1q0 -82 62.5 -134.5t200.5 -82.5l157 -35q226 -48 326.5 -143.5t100.5 -257.5v-1q0 -206 -149 -327t-402 -121z" />
    </font>
</defs>
</svg>
