<?xml version="1.0" standalone="no"?>
<!DOCTYPE svg PUBLIC "-//W3C//DTD SVG 1.1//EN" "http://www.w3.org/Graphics/SVG/1.1/DTD/svg11.dtd" >
<svg xmlns="http://www.w3.org/2000/svg" xmlns:xlink="http://www.w3.org/1999/xlink" version="1.1">
<metadata>
Created by FontForge 20170731 at Tue Nov  3 20:23:28 2020
 By Aleksey,,,
(c) 2015-2020 Apple Inc. All rights reserved.
</metadata>
<defs>
<font id="SFProText-Light" horiz-adv-x="2364" >
  <font-face 
    font-family="SF Pro Text"
    font-weight="300"
    font-stretch="normal"
    units-per-em="2048"
    panose-1="0 0 0 0 0 0 0 0 0 0"
    ascent="1638"
    descent="-410"
    x-height="1077"
    cap-height="1443"
    bbox="-895 -1130.38 5226 2578"
    underline-thickness="95"
    underline-position="-416"
    unicode-range="U+0020-100D86"
  />
<missing-glyph horiz-adv-x="2048" 
d="M100 1646v304h1848v-304h-1848zM100 1218v305h1848v-305h-1848zM100 790v304h1848v-304h-1848zM100 362v304h1848v-304h-1848zM100 -66v304h1848v-304h-1848zM100 -494v304h1848v-304h-1848z" />
    <glyph glyph-name="uni10004C.small" unicode="&#x2b;&#x20dd;" horiz-adv-x="1865" 
d="M932 -70q-159 0 -305.5 63t-253 169.5t-170 253t-63.5 306.5t63 306.5t169.5 253t253 169.5t306.5 63q159 0 306 -63t253.5 -169.5t170 -253t63.5 -306.5t-63.5 -306.5t-170 -253t-253 -169.5t-306.5 -63zM932 47q138 0 263.5 53.5t215.5 143.5t143.5 215t53.5 263
t-53.5 263t-144 215t-215.5 143.5t-263 53.5t-263 -53.5t-215 -143.5t-143 -215t-53 -263q0 -184 90 -339.5t245 -245.5t339 -90zM628 664q-26 0 -42.5 16t-16.5 41q0 26 16.5 42.5t42.5 16.5h246v245q0 26 16 43t41 17q26 0 42.5 -16.5t16.5 -43.5v-245h246
q26 0 42.5 -16.5t16.5 -42.5q0 -25 -16.5 -41t-42.5 -16h-246v-247q0 -25 -16.5 -41.5t-42.5 -16.5q-25 0 -41 16t-16 42v247h-246z" />
    <glyph glyph-name="uni10004E.small" unicode="&#x2212;&#x20dd;" horiz-adv-x="1865" 
d="M932 -70q-159 0 -305.5 63t-253 169.5t-170 253t-63.5 306.5t63 306.5t169.5 253t253 169.5t306.5 63q159 0 306 -63t253.5 -169.5t170 -253t63.5 -306.5t-63.5 -306.5t-170 -253t-253 -169.5t-306.5 -63zM932 47q138 0 263.5 53.5t215.5 143.5t143.5 215t53.5 263
t-53.5 263t-144 215t-215.5 143.5t-263 53.5t-263 -53.5t-215 -143.5t-143 -215t-53 -263q0 -184 90 -339.5t245 -245.5t339 -90zM614 662q-29 0 -47.5 15.5t-18.5 41.5q0 28 18 43.5t48 15.5h636q30 0 47.5 -15.5t17.5 -43.5q0 -27 -18 -42t-47 -15h-636z" />
    <glyph glyph-name="uni100050.small" unicode="&#xd7;&#x20dd;" horiz-adv-x="1865" 
d="M932 -70q-159 0 -305.5 63t-253 169.5t-170 253t-63.5 306.5t63 306.5t169.5 253t253 169.5t306.5 63q159 0 306 -63t253.5 -169.5t170 -253t63.5 -306.5t-63.5 -306.5t-170 -253t-253 -169.5t-306.5 -63zM932 47q138 0 263.5 53.5t215.5 143.5t143.5 215t53.5 263
t-53.5 263t-144 215t-215.5 143.5t-263 53.5t-263 -53.5t-215 -143.5t-143 -215t-53 -263q0 -184 90 -339.5t245 -245.5t339 -90zM662 394q-24 0 -40 16.5t-16 39.5q0 25 17 39l230 231l-230 231q-17 16 -17 40q0 23 16 38.5t40 15.5q23 0 39 -16l231 -231l232 231
q18 18 39 18q23 0 39.5 -16.5t16.5 -39.5q0 -22 -17 -39l-231 -232l230 -230q17 -16 17 -40q0 -23 -16 -39.5t-40 -16.5q-23 0 -40 17l-230 231l-230 -231q-17 -17 -40 -17z" />
    <glyph glyph-name="uni100054.small" unicode="&#x3d;&#x20dd;" horiz-adv-x="1865" 
d="M932 -70q-159 0 -305.5 63t-253 169.5t-170 253t-63.5 306.5t63 306.5t169.5 253t253 169.5t306.5 63q159 0 306 -63t253.5 -169.5t170 -253t63.5 -306.5t-63.5 -306.5t-170 -253t-253 -169.5t-306.5 -63zM932 47q138 0 263.5 53.5t215.5 143.5t143.5 215t53.5 263
t-53.5 263t-144 215t-215.5 143.5t-263 53.5t-263 -53.5t-215 -143.5t-143 -215t-53 -263q0 -184 90 -339.5t245 -245.5t339 -90zM630 811q-60 0 -60 52q0 26 16 40t44 14h602q28 0 44 -14t16 -40q0 -52 -60 -52h-602zM630 524q-28 0 -44 13.5t-16 38.5q0 26 16 40t44 14
h602q28 0 44 -14t16 -40q0 -25 -16 -38.5t-44 -13.5h-602z" />
    <glyph glyph-name="uni10003A.small" unicode="&#x31;&#x20dd;" horiz-adv-x="1865" 
d="M932 -70q-159 0 -305.5 63t-253 169.5t-170 253t-63.5 306.5t63 306.5t169.5 253t253 169.5t306.5 63q159 0 306 -63t253.5 -169.5t170 -253t63.5 -306.5t-63.5 -306.5t-170 -253t-253 -169.5t-306.5 -63zM932 47q138 0 263.5 53.5t215.5 143.5t143.5 215t53.5 263
t-53.5 263t-144 215t-215.5 143.5t-263 53.5t-263 -53.5t-215 -143.5t-143 -215t-53 -263q0 -184 90 -339.5t245 -245.5t339 -90zM970 366q-25 0 -39.5 16.5t-14.5 45.5v528h-5l-112 -73q-18 -12 -33 -12q-17 0 -28.5 12.5t-11.5 29.5q0 25 22 40l145 98q40 27 74 27
q28 0 43.5 -16t15.5 -46v-588q0 -29 -14.5 -45.5t-41.5 -16.5z" />
    <glyph glyph-name="uni10003C.small" unicode="&#x32;&#x20dd;" horiz-adv-x="1865" 
d="M932 -70q-159 0 -305.5 63t-253 169.5t-170 253t-63.5 306.5t63 306.5t169.5 253t253 169.5t306.5 63q159 0 306 -63t253.5 -169.5t170 -253t63.5 -306.5t-63.5 -306.5t-170 -253t-253 -169.5t-306.5 -63zM932 47q138 0 263.5 53.5t215.5 143.5t143.5 215t53.5 263
t-53.5 263t-144 215t-215.5 143.5t-263 53.5t-263 -53.5t-215 -143.5t-143 -215t-53 -263q0 -184 90 -339.5t245 -245.5t339 -90zM755 368q-23 0 -36.5 12.5t-13.5 33.5q0 22 18 42l255 275q31 34 46.5 53t30.5 48t15 56q0 52 -35.5 83t-94.5 31q-56 0 -92.5 -30t-51.5 -75
q-19 -37 -50 -37q-20 0 -32.5 12.5t-12.5 33.5q0 14 3 29q17 67 83 111.5t149 44.5q106 0 170 -53.5t64 -141.5q0 -58 -28 -106.5t-89 -115.5l-195 -209v-5h299q21 0 33.5 -12.5t12.5 -33.5t-13 -33.5t-33 -12.5h-402z" />
    <glyph glyph-name="uni10003E.small" unicode="&#x33;&#x20dd;" horiz-adv-x="1865" 
d="M932 -70q-159 0 -305.5 63t-253 169.5t-170 253t-63.5 306.5t63 306.5t169.5 253t253 169.5t306.5 63q159 0 306 -63t253.5 -169.5t170 -253t63.5 -306.5t-63.5 -306.5t-170 -253t-253 -169.5t-306.5 -63zM932 47q138 0 263.5 53.5t215.5 143.5t143.5 215t53.5 263
t-53.5 263t-144 215t-215.5 143.5t-263 53.5t-263 -53.5t-215 -143.5t-143 -215t-53 -263q0 -184 90 -339.5t245 -245.5t339 -90zM928 351q-93 0 -161 41.5t-86 108.5q-3 17 -3 28q0 21 13.5 34.5t34.5 13.5q35 0 48 -37q14 -45 54 -72.5t102 -27.5q71 0 115 34.5t44 90.5
q0 55 -43 89.5t-111 34.5h-57q-19 0 -31.5 12.5t-12.5 31.5t12.5 31t31.5 12h52q58 0 96.5 33.5t38.5 84.5q0 50 -35.5 79t-97.5 29q-56 0 -93.5 -27t-49.5 -73q-12 -36 -48 -36q-21 0 -34.5 12.5t-13.5 33.5q0 14 3 30q14 67 79.5 108t158.5 41q103 0 168.5 -52t65.5 -133
q0 -61 -40 -109t-99 -57v-5q71 -7 117.5 -56.5t46.5 -117.5q0 -93 -72.5 -151.5t-192.5 -58.5z" />
    <glyph glyph-name="uni100040.small" unicode="&#x34;&#x20dd;" horiz-adv-x="1865" 
d="M932 -70q-159 0 -305.5 63t-253 169.5t-170 253t-63.5 306.5t63 306.5t169.5 253t253 169.5t306.5 63q159 0 306 -63t253.5 -169.5t170 -253t63.5 -306.5t-63.5 -306.5t-170 -253t-253 -169.5t-306.5 -63zM932 47q138 0 263.5 53.5t215.5 143.5t143.5 215t53.5 263
t-53.5 263t-144 215t-215.5 143.5t-263 53.5t-263 -53.5t-215 -143.5t-143 -215t-53 -263q0 -184 90 -339.5t245 -245.5t339 -90zM1032 366q-24 0 -37.5 15.5t-13.5 42.5v92h-286q-34 0 -54 19t-20 51q0 28 19 60q58 94 253 385q39 60 107 60q37 0 60.5 -20.5t23.5 -53.5
v-409h66q21 0 34 -13t13 -33t-13 -33t-34 -13h-66v-92q0 -58 -52 -58zM981 608v391h-5q-212 -319 -251 -386v-5h256z" />
    <glyph glyph-name="uni100042.small" unicode="&#x35;&#x20dd;" horiz-adv-x="1865" 
d="M932 -70q-159 0 -305.5 63t-253 169.5t-170 253t-63.5 306.5t63 306.5t169.5 253t253 169.5t306.5 63q159 0 306 -63t253.5 -169.5t170 -253t63.5 -306.5t-63.5 -306.5t-170 -253t-253 -169.5t-306.5 -63zM932 47q138 0 263.5 53.5t215.5 143.5t143.5 215t53.5 263
t-53.5 263t-144 215t-215.5 143.5t-263 53.5t-263 -53.5t-215 -143.5t-143 -215t-53 -263q0 -184 90 -339.5t245 -245.5t339 -90zM927 351q-91 0 -155 36t-86 97q-7 18 -7 33q0 20 13 33t34 13q31 0 49 -34q18 -41 59 -65.5t93 -24.5q68 0 113 45t45 113q0 67 -40.5 108.5
t-106.5 41.5q-63 0 -117 -50q-35 -27 -68 -27q-29 0 -45 18t-14 48l22 272q2 31 23 49t55 18h326q19 0 30.5 -12t11.5 -32q0 -19 -11.5 -31t-30.5 -12h-315l-19 -227h5q23 31 67.5 50.5t92.5 19.5q105 0 172 -65t67 -168q0 -111 -73 -179t-190 -68z" />
    <glyph glyph-name="uni100044.small" unicode="&#x36;&#x20dd;" horiz-adv-x="1865" 
d="M932 -70q-159 0 -305.5 63t-253 169.5t-170 253t-63.5 306.5t63 306.5t169.5 253t253 169.5t306.5 63q159 0 306 -63t253.5 -169.5t170 -253t63.5 -306.5t-63.5 -306.5t-170 -253t-253 -169.5t-306.5 -63zM932 47q138 0 263.5 53.5t215.5 143.5t143.5 215t53.5 263
t-53.5 263t-144 215t-215.5 143.5t-263 53.5t-263 -53.5t-215 -143.5t-143 -215t-53 -263q0 -184 90 -339.5t245 -245.5t339 -90zM938 351q-154 0 -225 117q-49 82 -49 235q0 190 77 289t215 99q74 0 132.5 -33.5t75.5 -77.5q7 -18 7 -30q0 -18 -12.5 -29.5t-30.5 -11.5
q-17 0 -28.5 7.5t-30.5 26.5q-41 59 -117 59q-84 0 -135 -75.5t-51 -202.5v-8h5q23 50 72 81.5t124 31.5q97 0 165 -62t68 -167q0 -116 -72 -182.5t-190 -66.5zM933 436q73 0 115.5 43t42.5 116q0 68 -43.5 111t-113.5 43q-69 0 -113.5 -43t-44.5 -110q0 -70 44.5 -115
t112.5 -45z" />
    <glyph glyph-name="uni100046.small" unicode="&#x37;&#x20dd;" horiz-adv-x="1865" 
d="M932 -70q-159 0 -305.5 63t-253 169.5t-170 253t-63.5 306.5t63 306.5t169.5 253t253 169.5t306.5 63q159 0 306 -63t253.5 -169.5t170 -253t63.5 -306.5t-63.5 -306.5t-170 -253t-253 -169.5t-306.5 -63zM932 47q138 0 263.5 53.5t215.5 143.5t143.5 215t53.5 263
t-53.5 263t-144 215t-215.5 143.5t-263 53.5t-263 -53.5t-215 -143.5t-143 -215t-53 -263q0 -184 90 -339.5t245 -245.5t339 -90zM827 353q-24 0 -40 14t-16 36q0 19 10 36l293 543v6h-341q-18 0 -30 12t-12 31q0 20 11.5 32t30.5 12h383q35 0 56 -19t21 -49q0 -24 -16 -55
l-296 -561q-20 -38 -54 -38z" />
    <glyph glyph-name="uni100048.small" unicode="&#x38;&#x20dd;" horiz-adv-x="1865" 
d="M932 -70q-159 0 -305.5 63t-253 169.5t-170 253t-63.5 306.5t63 306.5t169.5 253t253 169.5t306.5 63q159 0 306 -63t253.5 -169.5t170 -253t63.5 -306.5t-63.5 -306.5t-170 -253t-253 -169.5t-306.5 -63zM932 47q138 0 263.5 53.5t215.5 143.5t143.5 215t53.5 263
t-53.5 263t-144 215t-215.5 143.5t-263 53.5t-263 -53.5t-215 -143.5t-143 -215t-53 -263q0 -184 90 -339.5t245 -245.5t339 -90zM930 351q-121 0 -195.5 58t-74.5 152q0 65 43 114.5t112 63.5v4q-58 18 -92 61t-34 99q0 83 68 135.5t175 52.5t174.5 -52.5t67.5 -135.5
q0 -56 -34 -100t-92 -60v-4q69 -14 112.5 -63.5t43.5 -114.5q0 -93 -76.5 -151.5t-197.5 -58.5zM932 775q61 0 100.5 34t39.5 86t-39.5 85t-100.5 33q-62 0 -101 -33t-39 -85q0 -53 39.5 -86.5t100.5 -33.5zM932 429q73 0 120 39t47 98t-47 97t-120 38q-72 0 -119.5 -38.5
t-47.5 -96.5q0 -59 47 -98t120 -39z" />
    <glyph glyph-name="uni10004A.small" unicode="&#x39;&#x20dd;" horiz-adv-x="1865" 
d="M932 -70q-159 0 -305.5 63t-253 169.5t-170 253t-63.5 306.5t63 306.5t169.5 253t253 169.5t306.5 63q159 0 306 -63t253.5 -169.5t170 -253t63.5 -306.5t-63.5 -306.5t-170 -253t-253 -169.5t-306.5 -63zM932 47q138 0 263.5 53.5t215.5 143.5t143.5 215t53.5 263
t-53.5 263t-144 215t-215.5 143.5t-263 53.5t-263 -53.5t-215 -143.5t-143 -215t-53 -263q0 -184 90 -339.5t245 -245.5t339 -90zM913 351q-88 0 -146 37t-74 83q-4 16 -4 24q0 20 13 33t33 13q28 0 48 -29q48 -71 129 -71q86 0 136.5 76.5t49.5 211.5h-6
q-21 -51 -70.5 -82.5t-123.5 -31.5q-97 0 -164.5 63t-67.5 167q0 112 71 179t189 67q130 0 201.5 -87.5t71.5 -253.5q0 -197 -73.5 -298t-212.5 -101zM930 695q69 0 113.5 43.5t44.5 109.5q0 69 -45 114t-112 45q-71 0 -114.5 -43.5t-43.5 -113.5q0 -68 44 -111.5t113 -43.5
z" />
    <glyph glyph-name="uni100004.small" unicode="A&#x20dd;" horiz-adv-x="1865" 
d="M932 -70q-159 0 -305.5 63t-253 169.5t-170 253t-63.5 306.5t63 306.5t169.5 253t253 169.5t306.5 63q159 0 306 -63t253.5 -169.5t170 -253t63.5 -306.5t-63.5 -306.5t-170 -253t-253 -169.5t-306.5 -63zM932 47q138 0 263.5 53.5t215.5 143.5t143.5 215t53.5 263
t-53.5 263t-144 215t-215.5 143.5t-263 53.5t-263 -53.5t-215 -143.5t-143 -215t-53 -263q0 -184 90 -339.5t245 -245.5t339 -90zM674 354q-23 0 -37 13t-14 35q0 14 7 35l224 602q21 54 77 54q57 0 77 -54l225 -602q7 -21 7 -35q0 -22 -14 -35t-37 -13q-39 0 -54 44
l-61 175h-285l-61 -175q-15 -44 -54 -44zM818 657h227l-110 314h-7z" />
    <glyph glyph-name="uni100006.small" unicode="B&#x20dd;" horiz-adv-x="1865" 
d="M932 -70q-159 0 -305.5 63t-253 169.5t-170 253t-63.5 306.5t63 306.5t169.5 253t253 169.5t306.5 63q159 0 306 -63t253.5 -169.5t170 -253t63.5 -306.5t-63.5 -306.5t-170 -253t-253 -169.5t-306.5 -63zM932 47q138 0 263.5 53.5t215.5 143.5t143.5 215t53.5 263
t-53.5 263t-144 215t-215.5 143.5t-263 53.5t-263 -53.5t-215 -143.5t-143 -215t-53 -263q0 -184 90 -339.5t245 -245.5t339 -90zM741 370q-28 0 -44.5 16.5t-16.5 45.5v590q0 29 16 45.5t45 16.5h229q99 0 159 -48t60 -128q0 -59 -33.5 -102t-89.5 -56v-5q76 -10 120.5 -57
t44.5 -118q0 -92 -70.5 -146t-190.5 -54h-229zM787 777h131q78 0 121 30t43 83q0 52 -35.5 81.5t-97.5 29.5h-162v-224zM787 454h139q99 0 146.5 29.5t47.5 90.5q0 59 -41 92t-115 33h-177v-245z" />
    <glyph glyph-name="uni100008.small" unicode="C&#x20dd;" horiz-adv-x="1865" 
d="M932 -70q-159 0 -305.5 63t-253 169.5t-170 253t-63.5 306.5t63 306.5t169.5 253t253 169.5t306.5 63q159 0 306 -63t253.5 -169.5t170 -253t63.5 -306.5t-63.5 -306.5t-170 -253t-253 -169.5t-306.5 -63zM932 47q138 0 263.5 53.5t215.5 143.5t143.5 215t53.5 263
t-53.5 263t-144 215t-215.5 143.5t-263 53.5t-263 -53.5t-215 -143.5t-143 -215t-53 -263q0 -184 90 -339.5t245 -245.5t339 -90zM934 356q-149 0 -238.5 101t-89.5 270t89.5 270.5t238.5 101.5q102 0 179.5 -48t103.5 -127q5 -18 5 -33q0 -23 -12.5 -36t-34.5 -13
q-31 0 -47 36q-21 61 -71.5 94.5t-121.5 33.5q-97 0 -157 -77.5t-60 -201.5t60 -201.5t157 -77.5q70 0 120.5 33.5t72.5 95.5q16 35 47 35q22 0 34.5 -13t12.5 -35q0 -16 -5 -34q-26 -80 -103 -127t-180 -47z" />
    <glyph glyph-name="uni10000A.small" unicode="D&#x20dd;" horiz-adv-x="1865" 
d="M932 -70q-159 0 -305.5 63t-253 169.5t-170 253t-63.5 306.5t63 306.5t169.5 253t253 169.5t306.5 63q159 0 306 -63t253.5 -169.5t170 -253t63.5 -306.5t-63.5 -306.5t-170 -253t-253 -169.5t-306.5 -63zM932 47q138 0 263.5 53.5t215.5 143.5t143.5 215t53.5 263
t-53.5 263t-144 215t-215.5 143.5t-263 53.5t-263 -53.5t-215 -143.5t-143 -215t-53 -263q0 -184 90 -339.5t245 -245.5t339 -90zM723 372q-26 0 -40 17t-14 46v585q0 28 14 45t40 17h202q164 0 253 -92t89 -261q0 -172 -89.5 -264.5t-252.5 -92.5h-202zM777 459h135
q118 0 180.5 68t62.5 200q0 129 -63 198.5t-180 69.5h-135v-536z" />
    <glyph glyph-name="uni10000C.small" unicode="E&#x20dd;" horiz-adv-x="1865" 
d="M932 -70q-159 0 -305.5 63t-253 169.5t-170 253t-63.5 306.5t63 306.5t169.5 253t253 169.5t306.5 63q159 0 306 -63t253.5 -169.5t170 -253t63.5 -306.5t-63.5 -306.5t-170 -253t-253 -169.5t-306.5 -63zM932 47q138 0 263.5 53.5t215.5 143.5t143.5 215t53.5 263
t-53.5 263t-144 215t-215.5 143.5t-263 53.5t-263 -53.5t-215 -143.5t-143 -215t-53 -263q0 -184 90 -339.5t245 -245.5t339 -90zM749 372q-26 0 -40 17t-14 46v585q0 28 14 45t40 17h373q21 0 34 -12.5t13 -33.5q0 -20 -13 -33t-34 -13h-316v-213h296q21 0 34 -11.5
t13 -32.5t-13 -32.5t-34 -11.5h-296v-225h316q21 0 34 -12.5t13 -33.5t-13 -33.5t-34 -12.5h-373z" />
    <glyph glyph-name="uni10000E.small" unicode="F&#x20dd;" horiz-adv-x="1865" 
d="M932 -70q-159 0 -305.5 63t-253 169.5t-170 253t-63.5 306.5t63 306.5t169.5 253t253 169.5t306.5 63q159 0 306 -63t253.5 -169.5t170 -253t63.5 -306.5t-63.5 -306.5t-170 -253t-253 -169.5t-306.5 -63zM932 47q138 0 263.5 53.5t215.5 143.5t143.5 215t53.5 263
t-53.5 263t-144 215t-215.5 143.5t-263 53.5t-263 -53.5t-215 -143.5t-143 -215t-53 -263q0 -184 90 -339.5t245 -245.5t339 -90zM759 364q-26 0 -40.5 17t-14.5 45v594q0 28 14 45t40 17h377q21 0 33.5 -12t12.5 -34q0 -20 -12.5 -33t-33.5 -13h-320v-222h290q21 0 34 -12
t13 -33q0 -20 -13 -31.5t-34 -11.5h-290v-254q0 -29 -14.5 -45.5t-41.5 -16.5z" />
    <glyph glyph-name="uni100010.small" unicode="G&#x20dd;" horiz-adv-x="1865" 
d="M932 -70q-159 0 -305.5 63t-253 169.5t-170 253t-63.5 306.5t63 306.5t169.5 253t253 169.5t306.5 63q159 0 306 -63t253.5 -169.5t170 -253t63.5 -306.5t-63.5 -306.5t-170 -253t-253 -169.5t-306.5 -63zM932 47q138 0 263.5 53.5t215.5 143.5t143.5 215t53.5 263
t-53.5 263t-144 215t-215.5 143.5t-263 53.5t-263 -53.5t-215 -143.5t-143 -215t-53 -263q0 -184 90 -339.5t245 -245.5t339 -90zM936 356q-151 0 -240 100.5t-89 270.5t89 271t238 101q107 0 182 -50t101 -125q5 -15 5 -33q0 -23 -12.5 -36t-34.5 -13q-31 0 -47 36
q-22 61 -72.5 94.5t-120.5 33.5q-97 0 -156.5 -77t-59.5 -202t60 -202t158 -77q90 0 138.5 45t48.5 123v48h-157q-19 0 -30 12t-11 29q0 18 11 29.5t30 11.5h209q27 0 42 -16t15 -44v-56q0 -124 -79.5 -199t-217.5 -75z" />
    <glyph glyph-name="uni100012.small" unicode="H&#x20dd;" horiz-adv-x="1865" 
d="M932 -70q-159 0 -305.5 63t-253 169.5t-170 253t-63.5 306.5t63 306.5t169.5 253t253 169.5t306.5 63q159 0 306 -63t253.5 -169.5t170 -253t63.5 -306.5t-63.5 -306.5t-170 -253t-253 -169.5t-306.5 -63zM932 47q138 0 263.5 53.5t215.5 143.5t143.5 215t53.5 263
t-53.5 263t-144 215t-215.5 143.5t-263 53.5t-263 -53.5t-215 -143.5t-143 -215t-53 -263q0 -184 90 -339.5t245 -245.5t339 -90zM686 364q-25 0 -39.5 16t-14.5 45v604q0 29 14.5 45t39.5 16q56 0 56 -61v-247h378v247q0 28 14.5 44.5t40.5 16.5t41 -16t15 -45v-604
q0 -29 -15 -45t-41 -16t-40.5 16.5t-14.5 44.5v270h-378v-270q0 -61 -56 -61z" />
    <glyph glyph-name="uni100014.small" unicode="I&#x20dd;" horiz-adv-x="1865" 
d="M932 -70q-159 0 -305.5 63t-253 169.5t-170 253t-63.5 306.5t63 306.5t169.5 253t253 169.5t306.5 63q159 0 306 -63t253.5 -169.5t170 -253t63.5 -306.5t-63.5 -306.5t-170 -253t-253 -169.5t-306.5 -63zM932 47q138 0 263.5 53.5t215.5 143.5t143.5 215t53.5 263
t-53.5 263t-144 215t-215.5 143.5t-263 53.5t-263 -53.5t-215 -143.5t-143 -215t-53 -263q0 -184 90 -339.5t245 -245.5t339 -90zM931 364q-26 0 -40.5 17t-14.5 45v603q0 28 14.5 44.5t40.5 16.5q27 0 41.5 -16t14.5 -45v-603q0 -29 -14.5 -45.5t-41.5 -16.5z" />
    <glyph glyph-name="uni100016.small" unicode="J&#x20dd;" horiz-adv-x="1865" 
d="M932 -70q-159 0 -305.5 63t-253 169.5t-170 253t-63.5 306.5t63 306.5t169.5 253t253 169.5t306.5 63q159 0 306 -63t253.5 -169.5t170 -253t63.5 -306.5t-63.5 -306.5t-170 -253t-253 -169.5t-306.5 -63zM932 47q138 0 263.5 53.5t215.5 143.5t143.5 215t53.5 263
t-53.5 263t-144 215t-215.5 143.5t-263 53.5t-263 -53.5t-215 -143.5t-143 -215t-53 -263q0 -184 90 -339.5t245 -245.5t339 -90zM896 357q-79 0 -137.5 37.5t-77.5 98.5q-5 14 -5 34q0 23 14 37.5t37 14.5q33 0 51 -38q13 -42 45 -65t79 -23q51 0 81 34.5t30 95.5v446
q0 28 14 44.5t41 16.5t41.5 -16t14.5 -45v-447q0 -108 -59 -166.5t-169 -58.5z" />
    <glyph glyph-name="uni100018.small" unicode="&#x212a;&#x20dd;" horiz-adv-x="1865" 
d="M932 -70q-159 0 -305.5 63t-253 169.5t-170 253t-63.5 306.5t63 306.5t169.5 253t253 169.5t306.5 63q159 0 306 -63t253.5 -169.5t170 -253t63.5 -306.5t-63.5 -306.5t-170 -253t-253 -169.5t-306.5 -63zM932 47q138 0 263.5 53.5t215.5 143.5t143.5 215t53.5 263
t-53.5 263t-144 215t-215.5 143.5t-263 53.5t-263 -53.5t-215 -143.5t-143 -215t-53 -263q0 -184 90 -339.5t245 -245.5t339 -90zM727 364q-25 0 -39.5 16.5t-14.5 45.5v603q0 29 14.5 45t39.5 16q27 0 41.5 -16t14.5 -45v-285h5l318 324q22 22 46 22q21 0 36 -14t15 -33
q0 -21 -18 -40l-223 -228l243 -316q16 -23 16 -43q0 -22 -15.5 -37t-38.5 -15q-28 0 -49 28l-237 311l-98 -101v-176q0 -29 -14.5 -45.5t-41.5 -16.5z" />
    <glyph glyph-name="uni10001A.small" unicode="L&#x20dd;" horiz-adv-x="1865" 
d="M932 -70q-159 0 -305.5 63t-253 169.5t-170 253t-63.5 306.5t63 306.5t169.5 253t253 169.5t306.5 63q159 0 306 -63t253.5 -169.5t170 -253t63.5 -306.5t-63.5 -306.5t-170 -253t-253 -169.5t-306.5 -63zM932 47q138 0 263.5 53.5t215.5 143.5t143.5 215t53.5 263
t-53.5 263t-144 215t-215.5 143.5t-263 53.5t-263 -53.5t-215 -143.5t-143 -215t-53 -263q0 -184 90 -339.5t245 -245.5t339 -90zM783 372q-26 0 -40.5 17t-14.5 45v595q0 28 14 44.5t41 16.5t41.5 -16t14.5 -45v-565h307q21 0 34 -12.5t13 -33.5t-13 -33.5t-34 -12.5h-363z
" />
    <glyph glyph-name="uni10001C.small" unicode="M&#x20dd;" horiz-adv-x="1865" 
d="M932 -70q-159 0 -305.5 63t-253 169.5t-170 253t-63.5 306.5t63 306.5t169.5 253t253 169.5t306.5 63q159 0 306 -63t253.5 -169.5t170 -253t63.5 -306.5t-63.5 -306.5t-170 -253t-253 -169.5t-306.5 -63zM932 47q138 0 263.5 53.5t215.5 143.5t143.5 215t53.5 263
t-53.5 263t-144 215t-215.5 143.5t-263 53.5t-263 -53.5t-215 -143.5t-143 -215t-53 -263q0 -184 90 -339.5t245 -245.5t339 -90zM629 360q-23 0 -36.5 15t-13.5 41v609q0 29 18.5 47t47.5 18q51 0 70 -46l215 -538h4l214 538q19 46 70 46q29 0 47.5 -18t18.5 -47v-609
q0 -26 -13.5 -41t-37.5 -15q-23 0 -36.5 15t-13.5 41v481h-6l-191 -479q-17 -38 -55 -38t-55 38l-190 479h-6v-481q0 -26 -13.5 -41t-37.5 -15z" />
    <glyph glyph-name="uni10001E.small" unicode="N&#x20dd;" horiz-adv-x="1865" 
d="M932 -70q-159 0 -305.5 63t-253 169.5t-170 253t-63.5 306.5t63 306.5t169.5 253t253 169.5t306.5 63q159 0 306 -63t253.5 -169.5t170 -253t63.5 -306.5t-63.5 -306.5t-170 -253t-253 -169.5t-306.5 -63zM932 47q138 0 263.5 53.5t215.5 143.5t143.5 215t53.5 263
t-53.5 263t-144 215t-215.5 143.5t-263 53.5t-263 -53.5t-215 -143.5t-143 -215t-53 -263q0 -184 90 -339.5t245 -245.5t339 -90zM695 364q-24 0 -37.5 14.5t-13.5 40.5v611q0 28 14.5 44t41.5 16q35 0 58 -35l352 -510h5v490q0 26 13.5 40.5t37.5 14.5q25 0 39 -14.5
t14 -40.5v-612q0 -28 -15 -43.5t-42 -15.5q-32 0 -57 35l-353 504h-4v-484q0 -26 -14 -40.5t-39 -14.5z" />
    <glyph glyph-name="uni100020.small" unicode="O&#x20dd;" horiz-adv-x="1865" 
d="M932 -70q-159 0 -305.5 63t-253 169.5t-170 253t-63.5 306.5t63 306.5t169.5 253t253 169.5t306.5 63q159 0 306 -63t253.5 -169.5t170 -253t63.5 -306.5t-63.5 -306.5t-170 -253t-253 -169.5t-306.5 -63zM932 47q138 0 263.5 53.5t215.5 143.5t143.5 215t53.5 263
t-53.5 263t-144 215t-215.5 143.5t-263 53.5t-263 -53.5t-215 -143.5t-143 -215t-53 -263q0 -184 90 -339.5t245 -245.5t339 -90zM932 356q-149 0 -241.5 103t-92.5 268t93 268.5t241 103.5t241 -103.5t93 -268.5t-92.5 -268t-241.5 -103zM932 444q100 0 161.5 77.5
t61.5 205.5t-61 205.5t-162 77.5t-162 -77.5t-61 -205.5t61 -205.5t162 -77.5z" />
    <glyph glyph-name="uni100022.small" unicode="P&#x20dd;" horiz-adv-x="1865" 
d="M932 -70q-159 0 -305.5 63t-253 169.5t-170 253t-63.5 306.5t63 306.5t169.5 253t253 169.5t306.5 63q159 0 306 -63t253.5 -169.5t170 -253t63.5 -306.5t-63.5 -306.5t-170 -253t-253 -169.5t-306.5 -63zM932 47q138 0 263.5 53.5t215.5 143.5t143.5 215t53.5 263
t-53.5 263t-144 215t-215.5 143.5t-263 53.5t-263 -53.5t-215 -143.5t-143 -215t-53 -263q0 -184 90 -339.5t245 -245.5t339 -90zM763 364q-26 0 -40 17t-14 45v594q0 29 14 45.5t40 16.5h219q109 0 177.5 -65.5t68.5 -169.5q0 -106 -68 -170.5t-179 -64.5h-162v-186
q0 -62 -56 -62zM819 698h148q70 0 111 40.5t41 108.5t-41.5 108.5t-110.5 40.5h-148v-298z" />
    <glyph glyph-name="uni100024.small" unicode="Q&#x20dd;" horiz-adv-x="1865" 
d="M932 -70q-159 0 -305.5 63t-253 169.5t-170 253t-63.5 306.5t63 306.5t169.5 253t253 169.5t306.5 63q159 0 306 -63t253.5 -169.5t170 -253t63.5 -306.5t-63.5 -306.5t-170 -253t-253 -169.5t-306.5 -63zM932 47q138 0 263.5 53.5t215.5 143.5t143.5 215t53.5 263
t-53.5 263t-144 215t-215.5 143.5t-263 53.5t-263 -53.5t-215 -143.5t-143 -215t-53 -263q0 -184 90 -339.5t245 -245.5t339 -90zM932 356q-148 0 -241 103.5t-93 267.5q0 165 93 268.5t241 103.5t241 -103.5t93 -268.5q0 -97 -34.5 -176t-97.5 -127l50 -67q18 -23 18 -39
q0 -18 -12 -29.5t-30 -11.5q-25 0 -44 24l-57 78q-58 -23 -127 -23zM932 444q38 0 71 11l-45 62q-14 20 -14 36t12.5 28t29.5 12q24 0 38 -21l51 -68q81 75 81 223q0 128 -61.5 205.5t-162.5 77.5t-162.5 -77.5t-61.5 -205.5t61.5 -205.5t162.5 -77.5z" />
    <glyph glyph-name="uni100026.small" unicode="R&#x20dd;" horiz-adv-x="1865" 
d="M932 -70q-159 0 -305.5 63t-253 169.5t-170 253t-63.5 306.5t63 306.5t169.5 253t253 169.5t306.5 63q159 0 306 -63t253.5 -169.5t170 -253t63.5 -306.5t-63.5 -306.5t-170 -253t-253 -169.5t-306.5 -63zM932 47q138 0 263.5 53.5t215.5 143.5t143.5 215t53.5 263
t-53.5 263t-144 215t-215.5 143.5t-263 53.5t-263 -53.5t-215 -143.5t-143 -215t-53 -263q0 -184 90 -339.5t245 -245.5t339 -90zM732 364q-26 0 -40 16.5t-14 44.5v595q0 28 13.5 45t39.5 17h224q114 0 182.5 -61t68.5 -164q0 -73 -42 -129.5t-112 -78.5l124 -197
q13 -22 13 -41q0 -21 -14 -34t-37 -13q-32 0 -55 37l-140 233h-155v-209q0 -29 -14.5 -45t-41.5 -16zM788 716h152q72 0 114 36.5t42 101.5q0 67 -42 104.5t-112 37.5h-154v-280z" />
    <glyph glyph-name="uni100028.small" unicode="S&#x20dd;" horiz-adv-x="1865" 
d="M932 -70q-159 0 -305.5 63t-253 169.5t-170 253t-63.5 306.5t63 306.5t169.5 253t253 169.5t306.5 63q159 0 306 -63t253.5 -169.5t170 -253t63.5 -306.5t-63.5 -306.5t-170 -253t-253 -169.5t-306.5 -63zM932 47q138 0 263.5 53.5t215.5 143.5t143.5 215t53.5 263
t-53.5 263t-144 215t-215.5 143.5t-263 53.5t-263 -53.5t-215 -143.5t-143 -215t-53 -263q0 -184 90 -339.5t245 -245.5t339 -90zM925 356q-100 0 -170.5 42t-91.5 104q-7 18 -7 36q0 23 13.5 36.5t36.5 13.5q34 0 52 -38q19 -50 64 -76.5t110 -26.5q69 0 115.5 31.5
t46.5 83.5q0 43 -29 66.5t-103 44.5l-113 31q-92 25 -136.5 69t-44.5 115q0 92 74 151t191 59q96 0 163 -40t89 -105q6 -19 6 -35q0 -23 -13.5 -35.5t-35.5 -12.5q-37 0 -52 37q-37 102 -161 102q-65 0 -105.5 -32t-40.5 -84q0 -37 26.5 -60.5t85.5 -39.5l105 -29
q107 -29 158 -74t51 -118q0 -99 -77.5 -157.5t-206.5 -58.5z" />
    <glyph glyph-name="uni10002A.small" unicode="T&#x20dd;" horiz-adv-x="1865" 
d="M932 -70q-159 0 -305.5 63t-253 169.5t-170 253t-63.5 306.5t63 306.5t169.5 253t253 169.5t306.5 63q159 0 306 -63t253.5 -169.5t170 -253t63.5 -306.5t-63.5 -306.5t-170 -253t-253 -169.5t-306.5 -63zM932 47q138 0 263.5 53.5t215.5 143.5t143.5 215t53.5 263
t-53.5 263t-144 215t-215.5 143.5t-263 53.5t-263 -53.5t-215 -143.5t-143 -215t-53 -263q0 -184 90 -339.5t245 -245.5t339 -90zM929 361q-26 0 -40.5 17t-14.5 45v565h-197q-20 0 -33 12.5t-13 33.5t13 33.5t33 12.5h508q21 0 34 -12.5t13 -33.5t-13 -33.5t-34 -12.5h-200
v-565q0 -29 -14.5 -45.5t-41.5 -16.5z" />
    <glyph glyph-name="uni10002C.small" unicode="U&#x20dd;" horiz-adv-x="1865" 
d="M932 -70q-159 0 -305.5 63t-253 169.5t-170 253t-63.5 306.5t63 306.5t169.5 253t253 169.5t306.5 63q159 0 306 -63t253.5 -169.5t170 -253t63.5 -306.5t-63.5 -306.5t-170 -253t-253 -169.5t-306.5 -63zM932 47q138 0 263.5 53.5t215.5 143.5t143.5 215t53.5 263
t-53.5 263t-144 215t-215.5 143.5t-263 53.5t-263 -53.5t-215 -143.5t-143 -215t-53 -263q0 -184 90 -339.5t245 -245.5t339 -90zM932 356q-134 0 -216.5 72.5t-82.5 192.5v408q0 28 14.5 44.5t40.5 16.5t41 -16t15 -45v-398q0 -83 51.5 -133t136.5 -50q84 0 136 50t52 133
v398q0 29 14.5 45t39.5 16q27 0 41.5 -16t14.5 -45v-408q0 -120 -82.5 -192.5t-215.5 -72.5z" />
    <glyph glyph-name="uni10002E.small" unicode="V&#x20dd;" horiz-adv-x="1865" 
d="M932 -70q-159 0 -305.5 63t-253 169.5t-170 253t-63.5 306.5t63 306.5t169.5 253t253 169.5t306.5 63q159 0 306 -63t253.5 -169.5t170 -253t63.5 -306.5t-63.5 -306.5t-170 -253t-253 -169.5t-306.5 -63zM932 47q138 0 263.5 53.5t215.5 143.5t143.5 215t53.5 263
t-53.5 263t-144 215t-215.5 143.5t-263 53.5t-263 -53.5t-215 -143.5t-143 -215t-53 -263q0 -184 90 -339.5t245 -245.5t339 -90zM932 357q-32 0 -51 15t-32 50l-224 586q-6 16 -6 30q0 22 16 37t40 15q43 0 59 -47l195 -553h5l195 553q17 47 59 47q25 0 40.5 -14.5
t15.5 -37.5q0 -16 -5 -30l-224 -585q-25 -66 -83 -66z" />
    <glyph glyph-name="uni100030.small" unicode="W&#x20dd;" horiz-adv-x="1865" 
d="M932 -70q-159 0 -305.5 63t-253 169.5t-170 253t-63.5 306.5t63 306.5t169.5 253t253 169.5t306.5 63q159 0 306 -63t253.5 -169.5t170 -253t63.5 -306.5t-63.5 -306.5t-170 -253t-253 -169.5t-306.5 -63zM932 47q138 0 263.5 53.5t215.5 143.5t143.5 215t53.5 263
t-53.5 263t-144 215t-215.5 143.5t-263 53.5t-263 -53.5t-215 -143.5t-143 -215t-53 -263q0 -184 90 -339.5t245 -245.5t339 -90zM724 357q-56 0 -70 57l-156 603q-3 8 -3 21q0 23 14.5 37.5t38.5 14.5t37 -12.5t19 -42.5l123 -519h6l137 526q12 46 61 46t62 -46l137 -526h6
l123 519q7 30 19.5 42.5t36.5 12.5t39 -14.5t15 -37.5q0 -9 -3 -21l-157 -603q-14 -57 -70 -57q-58 0 -72 55l-133 513h-5l-133 -513q-14 -55 -72 -55z" />
    <glyph glyph-name="uni100032.small" unicode="X&#x20dd;" horiz-adv-x="1865" 
d="M932 -70q-159 0 -305.5 63t-253 169.5t-170 253t-63.5 306.5t63 306.5t169.5 253t253 169.5t306.5 63q159 0 306 -63t253.5 -169.5t170 -253t63.5 -306.5t-63.5 -306.5t-170 -253t-253 -169.5t-306.5 -63zM932 47q138 0 263.5 53.5t215.5 143.5t143.5 215t53.5 263
t-53.5 263t-144 215t-215.5 143.5t-263 53.5t-263 -53.5t-215 -143.5t-143 -215t-53 -263q0 -184 90 -339.5t245 -245.5t339 -90zM700 364q-22 0 -36.5 14t-14.5 34q0 19 12 36l202 283l-192 268q-14 21 -14 40q0 21 16 36t38 15q32 0 52 -30l173 -253h4l169 253
q22 30 51 30q22 0 37 -14t15 -34q0 -18 -13 -37l-201 -278l199 -276q13 -17 13 -37q0 -22 -15.5 -36t-38.5 -14q-28 0 -52 32l-174 251h-3l-175 -251q-23 -32 -52 -32z" />
    <glyph glyph-name="uni100034.small" unicode="Y&#x20dd;" horiz-adv-x="1865" 
d="M932 -70q-159 0 -305.5 63t-253 169.5t-170 253t-63.5 306.5t63 306.5t169.5 253t253 169.5t306.5 63q159 0 306 -63t253.5 -169.5t170 -253t63.5 -306.5t-63.5 -306.5t-170 -253t-253 -169.5t-306.5 -63zM932 47q138 0 263.5 53.5t215.5 143.5t143.5 215t53.5 263
t-53.5 263t-144 215t-215.5 143.5t-263 53.5t-263 -53.5t-215 -143.5t-143 -215t-53 -263q0 -184 90 -339.5t245 -245.5t339 -90zM932 364q-26 0 -40.5 17t-14.5 45v218l-226 365q-10 17 -10 33q0 20 14.5 34t36.5 14q34 0 52 -34l187 -306h4l186 306q20 34 51 34
q22 0 36.5 -14t14.5 -35q0 -18 -10 -32l-225 -364v-219q0 -29 -14.5 -45.5t-41.5 -16.5z" />
    <glyph glyph-name="uni100036.small" unicode="Z&#x20dd;" horiz-adv-x="1865" 
d="M932 -70q-159 0 -305.5 63t-253 169.5t-170 253t-63.5 306.5t63 306.5t169.5 253t253 169.5t306.5 63q159 0 306 -63t253.5 -169.5t170 -253t63.5 -306.5t-63.5 -306.5t-170 -253t-253 -169.5t-306.5 -63zM932 47q138 0 263.5 53.5t215.5 143.5t143.5 215t53.5 263
t-53.5 263t-144 215t-215.5 143.5t-263 53.5t-263 -53.5t-215 -143.5t-143 -215t-53 -263q0 -184 90 -339.5t245 -245.5t339 -90zM707 372q-23 0 -37.5 13.5t-14.5 35.5q0 21 20 49l372 514v6h-347q-20 0 -33 12.5t-13 33.5t13 33.5t33 12.5h435q23 0 38 -14.5t15 -36.5
q0 -23 -18 -47l-371 -514v-6h366q21 0 34 -12.5t13 -33.5t-13 -33.5t-34 -12.5h-458z" />
    <glyph glyph-name="uni100038.small" unicode="&#x30;&#x20dd;" horiz-adv-x="1865" 
d="M932 -70q-159 0 -305.5 63t-253 169.5t-170 253t-63.5 306.5t63 306.5t169.5 253t253 169.5t306.5 63q159 0 306 -63t253.5 -169.5t170 -253t63.5 -306.5t-63.5 -306.5t-170 -253t-253 -169.5t-306.5 -63zM932 47q138 0 263.5 53.5t215.5 143.5t143.5 215t53.5 263
t-53.5 263t-144 215t-215.5 143.5t-263 53.5t-263 -53.5t-215 -143.5t-143 -215t-53 -263q0 -184 90 -339.5t245 -245.5t339 -90zM932 351q-121 0 -196 102t-75 268t74.5 268t196.5 102q121 0 195.5 -102t74.5 -268t-74.5 -268t-195.5 -102zM932 441q73 0 118.5 77.5
t45.5 202.5q0 126 -45 203t-119 77t-119 -77t-45 -203q0 -125 45.5 -202.5t118.5 -77.5z" />
    <glyph glyph-name="uni100039.small" unicode="&#x30;&#x20dd;&#x25cf;" horiz-adv-x="1865" 
d="M932 -70q-159 0 -305.5 63t-253 169.5t-170 253t-63.5 306.5t63 306.5t169.5 253t253 169.5t306.5 63q159 0 306 -63t253.5 -169.5t170 -253t63.5 -306.5t-63.5 -306.5t-170 -253t-253 -169.5t-306.5 -63zM932 342q125 0 201.5 105t76.5 275t-76.5 275t-201.5 105
t-201.5 -105t-76.5 -275t76.5 -275t201.5 -105zM932 435q-75 0 -121.5 79.5t-46.5 207.5t46.5 207.5t121.5 79.5t121.5 -79.5t46.5 -207.5t-46.5 -207.5t-121.5 -79.5z" />
    <glyph glyph-name="uni1000F2.small" unicode="&#x2713;&#x20de;" horiz-adv-x="1830" 
d="M438 6q-238 0 -238 235v959q0 236 238 236h954q238 0 238 -236v-959q0 -235 -238 -235h-954zM440 117h950q62 0 95.5 33t33.5 97v947q0 64 -33.5 97.5t-95.5 33.5h-950q-63 0 -96 -33.5t-33 -97.5v-947q0 -64 33 -97t96 -33zM830 350q-34 0 -59 32l-200 243
q-16 21 -16 43q0 23 15.5 39t38.5 16q29 0 50 -27l168 -212l340 541q19 31 48 31q23 0 40 -14.5t17 -36.5q0 -15 -17 -43l-369 -580q-21 -32 -56 -32z" />
    <glyph glyph-name="uni1000F0.small" unicode="&#x2717;&#x20de;" horiz-adv-x="1830" 
d="M438 6q-238 0 -238 235v959q0 236 238 236h954q238 0 238 -236v-959q0 -235 -238 -235h-954zM440 117h950q62 0 95.5 33t33.5 97v947q0 64 -33.5 97.5t-95.5 33.5h-950q-63 0 -96 -33.5t-33 -97.5v-947q0 -64 33 -97t96 -33zM645 395q-23 0 -39.5 16.5t-16.5 39.5
q0 22 17 39l231 231l-231 231q-17 17 -17 39q0 23 16.5 39t39.5 16t39 -17l231 -230l232 231q18 17 40 17q23 0 39.5 -16t16.5 -39q0 -21 -18 -39l-231 -232l231 -230q17 -19 17 -40q0 -23 -16.5 -39.5t-39.5 -16.5q-25 0 -40 17l-231 230l-230 -230q-16 -17 -40 -17z" />
    <glyph glyph-name="uni10003B.small" unicode="&#x31;&#x20dd;&#x25cf;" horiz-adv-x="1865" 
d="M932 -70q-159 0 -305.5 63t-253 169.5t-170 253t-63.5 306.5t63 306.5t169.5 253t253 169.5t306.5 63q159 0 306 -63t253.5 -169.5t170 -253t63.5 -306.5t-63.5 -306.5t-170 -253t-253 -169.5t-306.5 -63zM972 358q28 0 43 17t15 46v603q0 31 -16.5 47.5t-45.5 16.5
q-35 0 -76 -28l-149 -101q-23 -16 -23 -41q0 -17 12 -30t29 -13q16 0 35 13l114 74h5v-541q0 -29 15 -46t42 -17z" />
    <glyph glyph-name="uni10003D.small" unicode="&#x32;&#x20dd;&#x25cf;" horiz-adv-x="1865" 
d="M932 -70q-159 0 -305.5 63t-253 169.5t-170 253t-63.5 306.5t63 306.5t169.5 253t253 169.5t306.5 63q159 0 306 -63t253.5 -169.5t170 -253t63.5 -306.5t-63.5 -306.5t-170 -253t-253 -169.5t-306.5 -63zM750 359h413q21 0 34.5 13t13.5 35q0 21 -13.5 34t-34.5 13h-306
v5l199 215q62 65 91 116t29 111q0 90 -66 145.5t-174 55.5q-85 0 -152.5 -45.5t-84.5 -114.5q-5 -15 -5 -31q0 -21 13 -34t35 -13q30 0 51 38q16 46 53.5 76.5t93.5 30.5q61 0 97.5 -31.5t36.5 -84.5q0 -28 -15.5 -58.5t-31 -48.5t-48.5 -54l-261 -282q-19 -20 -19 -43
q0 -22 13.5 -35t37.5 -13z" />
    <glyph glyph-name="uni10003F.small" unicode="&#x33;&#x20dd;&#x25cf;" horiz-adv-x="1865" 
d="M932 -70q-159 0 -305.5 63t-253 169.5t-170 253t-63.5 306.5t63 306.5t169.5 253t253 169.5t306.5 63q159 0 306 -63t253.5 -169.5t170 -253t63.5 -306.5t-63.5 -306.5t-170 -253t-253 -169.5t-306.5 -63zM928 342q124 0 198 60t74 156q0 69 -47.5 120t-120.5 58v5
q61 10 102 59t41 111q0 83 -68 137t-173 54q-95 0 -162.5 -42t-81.5 -112q-4 -15 -4 -30q0 -22 14 -35.5t36 -13.5q37 0 49 39q12 47 51 74.5t96 27.5q63 0 99.5 -30t36.5 -81q0 -52 -39 -86t-99 -34h-53q-20 0 -33 -13t-13 -33q0 -19 13 -31.5t33 -12.5h58q70 0 114 -36
t44 -92q0 -57 -45 -92t-118 -35q-63 0 -104 28t-56 74q-13 39 -49 39q-22 0 -36.5 -14t-14.5 -36q0 -14 4 -29q18 -69 88 -111.5t166 -42.5z" />
    <glyph glyph-name="uni100041.small" unicode="&#x34;&#x20dd;&#x25cf;" horiz-adv-x="1865" 
d="M932 -70q-159 0 -305.5 63t-253 169.5t-170 253t-63.5 306.5t63 306.5t169.5 253t253 169.5t306.5 63q159 0 306 -63t253.5 -169.5t170 -253t63.5 -306.5t-63.5 -306.5t-170 -253t-253 -169.5t-306.5 -63zM1034 357q54 0 54 60v94h68q21 0 34.5 13t13.5 34q0 22 -13 35
t-35 13h-68v419q0 34 -24 55.5t-63 21.5q-37 0 -62.5 -14.5t-47.5 -47.5q-236 -359 -258 -394q-20 -32 -20 -63q0 -33 20.5 -52.5t55.5 -19.5h293v-94q0 -28 14 -44t38 -16zM982 606h-262v5q53 89 256 395h6v-400z" />
    <glyph glyph-name="uni100043.small" unicode="&#x35;&#x20dd;&#x25cf;" horiz-adv-x="1865" 
d="M932 -70q-159 0 -305.5 63t-253 169.5t-170 253t-63.5 306.5t63 306.5t169.5 253t253 169.5t306.5 63q159 0 306 -63t253.5 -169.5t170 -253t63.5 -306.5t-63.5 -306.5t-170 -253t-253 -169.5t-306.5 -63zM927 342q120 0 195 70t75 184q0 106 -68.5 172.5t-177.5 66.5
q-50 0 -95.5 -20t-67.5 -52h-6l20 232h324q19 0 31 12.5t12 32.5t-12 32.5t-31 12.5h-336q-35 0 -56.5 -18.5t-23.5 -50.5l-23 -278q-2 -31 14.5 -50t46.5 -19q35 0 71 28q58 52 119 52q68 0 109 -42.5t41 -112.5q0 -69 -46 -114.5t-115 -45.5q-53 0 -95 24.5t-61 66.5
q-17 35 -51 35q-22 0 -35 -13t-13 -34q0 -16 7 -35q24 -62 89.5 -99t158.5 -37z" />
    <glyph glyph-name="uni100045.small" unicode="&#x36;&#x20dd;&#x25cf;" horiz-adv-x="1865" 
d="M932 -70q-159 0 -305.5 63t-253 169.5t-170 253t-63.5 306.5t63 306.5t169.5 253t253 169.5t306.5 63q159 0 306 -63t253.5 -169.5t170 -253t63.5 -306.5t-63.5 -306.5t-170 -253t-253 -169.5t-306.5 -63zM938 342q121 0 195.5 68.5t74.5 186.5q0 108 -70 172t-170 64
q-76 0 -126.5 -32.5t-74.5 -83.5h-5v9q0 130 52 206.5t139 76.5q78 0 119 -59q20 -20 32.5 -28t29.5 -8q18 0 30.5 12t12.5 31q0 16 -6 31q-18 45 -78.5 79.5t-136.5 34.5q-141 0 -220.5 -102t-79.5 -297q0 -157 51 -241q71 -120 231 -120zM933 430q-70 0 -115.5 46
t-45.5 117q0 68 46 112.5t116 44.5q71 0 116 -44t45 -114q0 -74 -44 -118t-118 -44z" />
    <glyph glyph-name="uni100047.small" unicode="&#x37;&#x20dd;&#x25cf;" horiz-adv-x="1865" 
d="M932 -70q-159 0 -305.5 63t-253 169.5t-170 253t-63.5 306.5t63 306.5t169.5 253t253 169.5t306.5 63q159 0 306 -63t253.5 -169.5t170 -253t63.5 -306.5t-63.5 -306.5t-170 -253t-253 -169.5t-306.5 -63zM824 344q36 0 56 39l303 575q17 32 17 57q0 30 -22 50t-57 20
h-394q-19 0 -31 -12.5t-12 -32.5t12 -32.5t31 -12.5h349v-6l-299 -556q-10 -19 -10 -37q0 -23 16.5 -37.5t40.5 -14.5z" />
    <glyph glyph-name="uni100049.small" unicode="&#x38;&#x20dd;&#x25cf;" horiz-adv-x="1865" 
d="M932 -70q-159 0 -305.5 63t-253 169.5t-170 253t-63.5 306.5t63 306.5t169.5 253t253 169.5t306.5 63q159 0 306 -63t253.5 -169.5t170 -253t63.5 -306.5t-63.5 -306.5t-170 -253t-253 -169.5t-306.5 -63zM930 342q125 0 203.5 60t78.5 156q0 67 -45 117.5t-116 64.5v5
q59 16 94.5 61t35.5 102q0 85 -69.5 139.5t-179.5 54.5t-179.5 -54.5t-69.5 -139.5q0 -57 34.5 -101t94.5 -62v-5q-71 -14 -115.5 -65t-44.5 -118q0 -96 77 -155.5t201 -59.5zM932 778q-63 0 -103 34.5t-40 87.5t40 87t103 34t103 -34t40 -87t-40.5 -87.5t-102.5 -34.5z
M932 423q-74 0 -122.5 39.5t-48.5 100.5q0 59 49 98.5t122 39.5q75 0 123 -39t48 -99q0 -61 -48.5 -100.5t-122.5 -39.5z" />
    <glyph glyph-name="uni10004B.small" unicode="&#x39;&#x20dd;&#x25cf;" horiz-adv-x="1865" 
d="M932 -70q-159 0 -305.5 63t-253 169.5t-170 253t-63.5 306.5t63 306.5t169.5 253t253 169.5t306.5 63q159 0 306 -63t253.5 -169.5t170 -253t63.5 -306.5t-63.5 -306.5t-170 -253t-253 -169.5t-306.5 -63zM912 342q143 0 218.5 103.5t75.5 305.5q0 170 -73.5 260.5
t-206.5 90.5q-121 0 -194.5 -69.5t-73.5 -183.5q0 -107 69.5 -171.5t168.5 -64.5q76 0 127 32.5t73 84.5h6q1 -139 -51 -217t-140 -78q-82 0 -131 72q-22 30 -50 30q-21 0 -34.5 -13t-13.5 -34q0 -12 5 -25q15 -47 75 -85t150 -38zM930 695q-71 0 -116 45t-45 114
q0 72 45 116.5t117 44.5q69 0 115 -46.5t46 -116.5q0 -68 -46 -112.5t-116 -44.5z" />
    <glyph glyph-name="dblemdash" unicode="&#x2014;&#x2014;" horiz-adv-x="3523" 
d="M84 520v124h3355v-124h-3355z" />
    <glyph glyph-name="trplemdash" unicode="&#x2014;&#x2014;&#x2014;" horiz-adv-x="5284" 
d="M84 520v124h5116v-124h-5116z" />
    <glyph glyph-name="uni10009D.small" unicode="E&#x20de;&#x25a0;" horiz-adv-x="1830" 
d="M438 6q-238 0 -238 235v959q0 236 238 236h954q238 0 238 -236v-959q0 -235 -238 -235h-954zM728 364h383q21 0 34 12.5t13 34.5t-13 34.5t-34 12.5h-324v231h303q21 0 34.5 11.5t13.5 32.5q0 22 -13 34t-35 12h-303v219h324q21 0 34 13t13 34q0 22 -13 34.5t-34 12.5
h-383q-27 0 -41.5 -17.5t-14.5 -47.5v-599q0 -29 14.5 -46.5t41.5 -17.5z" />
    <glyph glyph-name="uni100094.small" unicode="A&#x20de;" horiz-adv-x="1830" 
d="M438 6q-238 0 -238 235v959q0 236 238 236h954q238 0 238 -236v-959q0 -235 -238 -235h-954zM440 117h950q62 0 95.5 33t33.5 97v947q0 64 -33.5 97.5t-95.5 33.5h-950q-63 0 -96 -33.5t-33 -97.5v-947q0 -64 33 -97t96 -33zM658 355q-24 0 -38 13t-14 35q0 15 8 35
l224 602q20 54 76 54q57 0 78 -54l224 -602q8 -24 8 -36q0 -21 -14 -34t-37 -13q-40 0 -54 44l-62 175h-285l-61 -175q-15 -44 -53 -44zM801 658h228l-110 314h-8z" />
    <glyph glyph-name="uni100096.small" unicode="B&#x20de;" horiz-adv-x="1830" 
d="M438 6q-238 0 -238 235v959q0 236 238 236h954q238 0 238 -236v-959q0 -235 -238 -235h-954zM440 117h950q62 0 95.5 33t33.5 97v947q0 64 -33.5 97.5t-95.5 33.5h-950q-63 0 -96 -33.5t-33 -97.5v-947q0 -64 33 -97t96 -33zM724 371q-29 0 -45 16.5t-16 45.5v590
q0 29 16 45.5t45 16.5h230q99 0 158.5 -48t59.5 -128q0 -59 -33 -102t-90 -57v-4q77 -10 121.5 -57t44.5 -118q0 -92 -71 -146t-191 -54h-229zM771 778h131q77 0 120.5 30t43.5 83q0 52 -35.5 81t-98.5 29h-161v-223zM771 454h138q195 0 195 121q0 58 -41 91t-115 33h-177
v-245z" />
    <glyph glyph-name="uni100098.small" unicode="C&#x20de;" horiz-adv-x="1830" 
d="M438 6q-238 0 -238 235v959q0 236 238 236h954q238 0 238 -236v-959q0 -235 -238 -235h-954zM440 117h950q62 0 95.5 33t33.5 97v947q0 64 -33.5 97.5t-95.5 33.5h-950q-63 0 -96 -33.5t-33 -97.5v-947q0 -64 33 -97t96 -33zM917 356q-149 0 -238 101t-89 270t89 270.5
t238 101.5q103 0 180 -47.5t103 -126.5q6 -17 6 -34q0 -23 -13 -35.5t-35 -12.5q-31 0 -47 35q-21 61 -71 95t-121 34q-97 0 -157 -77.5t-60 -202.5t60 -201.5t157 -76.5q70 0 120.5 33.5t71.5 94.5q16 36 47 36q22 0 35 -13t13 -36q0 -16 -6 -33q-26 -80 -103 -127.5
t-180 -47.5z" />
    <glyph glyph-name="uni10009A.small" unicode="D&#x20de;" horiz-adv-x="1830" 
d="M438 6q-238 0 -238 235v959q0 236 238 236h954q238 0 238 -236v-959q0 -235 -238 -235h-954zM440 117h950q62 0 95.5 33t33.5 97v947q0 64 -33.5 97.5t-95.5 33.5h-950q-63 0 -96 -33.5t-33 -97.5v-947q0 -64 33 -97t96 -33zM707 373q-26 0 -40 16.5t-14 45.5v585
q0 63 54 63h201q164 0 253 -92t89 -261q0 -172 -89 -264.5t-253 -92.5h-201zM760 460h135q118 0 180.5 68t62.5 200q0 129 -63 198.5t-180 69.5h-135v-536z" />
    <glyph glyph-name="uni10009C.small" unicode="E&#x20de;" horiz-adv-x="1830" 
d="M438 6q-238 0 -238 235v959q0 236 238 236h954q238 0 238 -236v-959q0 -235 -238 -235h-954zM440 117h950q62 0 95.5 33t33.5 97v947q0 64 -33.5 97.5t-95.5 33.5h-950q-63 0 -96 -33.5t-33 -97.5v-947q0 -64 33 -97t96 -33zM733 373q-26 0 -40 17t-14 45v585q0 29 14 46
t40 17h372q21 0 34 -12.5t13 -33.5t-13 -33.5t-34 -12.5h-316v-213h297q21 0 33.5 -12t12.5 -33q0 -20 -12.5 -31.5t-33.5 -11.5h-297v-225h316q21 0 34 -12.5t13 -33.5t-13 -33.5t-34 -12.5h-372z" />
    <glyph glyph-name="uni10009E.small" unicode="F&#x20de;" horiz-adv-x="1830" 
d="M438 6q-238 0 -238 235v959q0 236 238 236h954q238 0 238 -236v-959q0 -235 -238 -235h-954zM440 117h950q62 0 95.5 33t33.5 97v947q0 64 -33.5 97.5t-95.5 33.5h-950q-63 0 -96 -33.5t-33 -97.5v-947q0 -64 33 -97t96 -33zM742 365q-26 0 -40 16.5t-14 44.5v594
q0 63 54 63h376q21 0 34 -12.5t13 -33.5t-13 -33.5t-34 -12.5h-320v-222h290q21 0 34 -12t13 -33t-13 -32t-34 -11h-290v-255q0 -61 -56 -61z" />
    <glyph glyph-name="uni1000A0.small" unicode="G&#x20de;" horiz-adv-x="1830" 
d="M438 6q-238 0 -238 235v959q0 236 238 236h954q238 0 238 -236v-959q0 -235 -238 -235h-954zM440 117h950q62 0 95.5 33t33.5 97v947q0 64 -33.5 97.5t-95.5 33.5h-950q-63 0 -96 -33.5t-33 -97.5v-947q0 -64 33 -97t96 -33zM919 356q-150 0 -239.5 101t-89.5 270
t89 270.5t238 101.5q107 0 182 -49.5t101 -124.5q6 -18 6 -34q0 -22 -13 -35t-35 -13q-30 0 -46 35q-22 62 -72.5 95.5t-120.5 33.5q-97 0 -157 -77.5t-60 -202.5t60.5 -201.5t158.5 -76.5q89 0 137.5 45t48.5 123v48h-157q-18 0 -29.5 12t-11.5 29q0 18 11 29.5t30 11.5
h209q27 0 42.5 -16t15.5 -44v-57q0 -123 -80 -198.5t-218 -75.5z" />
    <glyph glyph-name="uni1000A2.small" unicode="H&#x20de;" horiz-adv-x="1830" 
d="M438 6q-238 0 -238 235v959q0 236 238 236h954q238 0 238 -236v-959q0 -235 -238 -235h-954zM440 117h950q62 0 95.5 33t33.5 97v947q0 64 -33.5 97.5t-95.5 33.5h-950q-63 0 -96 -33.5t-33 -97.5v-947q0 -64 33 -97t96 -33zM670 365q-26 0 -40.5 16.5t-14.5 44.5v604
q0 28 14.5 44.5t40.5 16.5t41 -16t15 -45v-247h378v247q0 29 14.5 45t39.5 16q56 0 56 -61v-604q0 -61 -56 -61q-25 0 -39.5 16t-14.5 45v270h-378v-270q0 -29 -15 -45t-41 -16z" />
    <glyph glyph-name="uni1000A4.small" unicode="I&#x20de;" horiz-adv-x="1830" 
d="M438 6q-238 0 -238 235v959q0 236 238 236h954q238 0 238 -236v-959q0 -235 -238 -235h-954zM440 117h950q62 0 95.5 33t33.5 97v947q0 64 -33.5 97.5t-95.5 33.5h-950q-63 0 -96 -33.5t-33 -97.5v-947q0 -64 33 -97t96 -33zM914 365q-26 0 -40 16.5t-14 44.5v603
q0 28 14 45t40 17q56 0 56 -62v-603q0 -61 -56 -61z" />
    <glyph glyph-name="uni1000A6.small" unicode="J&#x20de;" horiz-adv-x="1830" 
d="M438 6q-238 0 -238 235v959q0 236 238 236h954q238 0 238 -236v-959q0 -235 -238 -235h-954zM440 117h950q62 0 95.5 33t33.5 97v947q0 64 -33.5 97.5t-95.5 33.5h-950q-63 0 -96 -33.5t-33 -97.5v-947q0 -64 33 -97t96 -33zM879 358q-79 0 -137.5 37.5t-77.5 98.5
q-5 18 -5 33q0 23 14 37.5t37 14.5q36 0 51 -38q13 -41 45 -64.5t79 -23.5q52 0 82 35t30 96v445q0 28 14 45t40 17q27 0 41.5 -16.5t14.5 -45.5v-446q0 -108 -59 -166.5t-169 -58.5z" />
    <glyph glyph-name="uni1000A8.small" unicode="&#x212a;&#x20de;" horiz-adv-x="1830" 
d="M438 6q-238 0 -238 235v959q0 236 238 236h954q238 0 238 -236v-959q0 -235 -238 -235h-954zM440 117h950q62 0 95.5 33t33.5 97v947q0 64 -33.5 97.5t-95.5 33.5h-950q-63 0 -96 -33.5t-33 -97.5v-947q0 -64 33 -97t96 -33zM711 365q-26 0 -40.5 16.5t-14.5 44.5v603
q0 29 14.5 45.5t40.5 16.5t41 -16.5t15 -45.5v-284h4l319 324q21 22 45 22q21 0 36 -14t15 -33q0 -22 -17 -40l-224 -229l243 -315q16 -22 16 -43q0 -23 -15 -37.5t-38 -14.5q-29 0 -49 27l-238 311l-97 -100v-177q0 -29 -15 -45t-41 -16z" />
    <glyph glyph-name="uni1000AA.small" unicode="L&#x20de;" horiz-adv-x="1830" 
d="M438 6q-238 0 -238 235v959q0 236 238 236h954q238 0 238 -236v-959q0 -235 -238 -235h-954zM440 117h950q62 0 95.5 33t33.5 97v947q0 64 -33.5 97.5t-95.5 33.5h-950q-63 0 -96 -33.5t-33 -97.5v-947q0 -64 33 -97t96 -33zM766 373q-26 0 -40 17t-14 45v594q0 28 14 45
t40 17q56 0 56 -62v-564h308q20 0 33 -12.5t13 -33.5t-12.5 -33.5t-33.5 -12.5h-364z" />
    <glyph glyph-name="uni1000AC.small" unicode="M&#x20de;" horiz-adv-x="1830" 
d="M438 6q-238 0 -238 235v959q0 236 238 236h954q238 0 238 -236v-959q0 -235 -238 -235h-954zM440 117h950q62 0 95.5 33t33.5 97v947q0 64 -33.5 97.5t-95.5 33.5h-950q-63 0 -96 -33.5t-33 -97.5v-947q0 -64 33 -97t96 -33zM612 361q-23 0 -36.5 15t-13.5 41v609
q0 28 19 46.5t48 18.5q51 0 70 -47l214 -537h4l214 537q19 47 70 47q29 0 48 -18.5t19 -46.5v-609q0 -26 -13.5 -41t-37.5 -15q-23 0 -36.5 15t-13.5 41v481h-6l-192 -479q-15 -38 -55 -38q-39 0 -54 38l-191 479h-6v-481q0 -26 -13.5 -41t-37.5 -15z" />
    <glyph glyph-name="uni1000AE.small" unicode="N&#x20de;" horiz-adv-x="1830" 
d="M438 6q-238 0 -238 235v959q0 236 238 236h954q238 0 238 -236v-959q0 -235 -238 -235h-954zM440 117h950q62 0 95.5 33t33.5 97v947q0 64 -33.5 97.5t-95.5 33.5h-950q-63 0 -96 -33.5t-33 -97.5v-947q0 -64 33 -97t96 -33zM679 365q-25 0 -38.5 14.5t-13.5 40.5v610
q0 29 15 45t41 16q33 0 59 -35l351 -511h5v491q0 25 14 40t38 15q52 0 52 -55v-613q0 -28 -15 -43t-41 -15q-34 0 -58 34l-352 505h-5v-484q0 -55 -52 -55z" />
    <glyph glyph-name="uni1000B0.small" unicode="O&#x20de;" horiz-adv-x="1830" 
d="M438 6q-238 0 -238 235v959q0 236 238 236h954q238 0 238 -236v-959q0 -235 -238 -235h-954zM440 117h950q62 0 95.5 33t33.5 97v947q0 64 -33.5 97.5t-95.5 33.5h-950q-63 0 -96 -33.5t-33 -97.5v-947q0 -64 33 -97t96 -33zM915 356q-148 0 -241 103.5t-93 267.5
q0 165 93 268.5t241 103.5q149 0 241.5 -103t92.5 -269q0 -164 -93 -267.5t-241 -103.5zM915 445q101 0 162.5 77.5t61.5 204.5q0 128 -61.5 206t-162.5 78t-162 -78t-61 -206q0 -127 61 -204.5t162 -77.5z" />
    <glyph glyph-name="uni1000B2.small" unicode="P&#x20de;" horiz-adv-x="1830" 
d="M438 6q-238 0 -238 235v959q0 236 238 236h954q238 0 238 -236v-959q0 -235 -238 -235h-954zM440 117h950q62 0 95.5 33t33.5 97v947q0 64 -33.5 97.5t-95.5 33.5h-950q-63 0 -96 -33.5t-33 -97.5v-947q0 -64 33 -97t96 -33zM747 365q-26 0 -40.5 16.5t-14.5 44.5v595
q0 28 14 45t40 17h219q110 0 178.5 -65.5t68.5 -170.5t-68.5 -170t-179.5 -65h-161v-186q0 -29 -14.5 -45t-41.5 -16zM803 698h147q70 0 111 40.5t41 108.5t-41 109t-111 41h-147v-299z" />
    <glyph glyph-name="uni1000B4.small" unicode="Q&#x20de;" horiz-adv-x="1830" 
d="M438 6q-238 0 -238 235v959q0 236 238 236h954q238 0 238 -236v-959q0 -235 -238 -235h-954zM440 117h950q62 0 95.5 33t33.5 97v947q0 64 -33.5 97.5t-95.5 33.5h-950q-63 0 -96 -33.5t-33 -97.5v-947q0 -64 33 -97t96 -33zM915 356q-148 0 -241 103.5t-93 268.5
q0 164 93 267.5t241 103.5q149 0 242 -103.5t93 -267.5q0 -98 -35 -176t-97 -127l50 -68q17 -22 17 -38q0 -19 -11.5 -30.5t-30.5 -11.5q-25 0 -44 25l-57 78q-57 -24 -127 -24zM915 445q40 0 71 11l-45 62q-13 20 -13 36t12.5 28t29.5 12q23 0 38 -21l51 -69q80 77 80 224
q0 128 -61.5 205.5t-162.5 77.5t-162 -77.5t-61 -205.5t61 -205.5t162 -77.5z" />
    <glyph glyph-name="uni1000B6.small" unicode="R&#x20de;" horiz-adv-x="1830" 
d="M438 6q-238 0 -238 235v959q0 236 238 236h954q238 0 238 -236v-959q0 -235 -238 -235h-954zM440 117h950q62 0 95.5 33t33.5 97v947q0 64 -33.5 97.5t-95.5 33.5h-950q-63 0 -96 -33.5t-33 -97.5v-947q0 -64 33 -97t96 -33zM716 365q-27 0 -41 16.5t-14 44.5v594
q0 29 14 46t40 17h223q115 0 183 -61.5t68 -163.5q0 -74 -41.5 -130.5t-112.5 -77.5l124 -197q13 -22 13 -41q0 -21 -14 -34t-36 -13q-33 0 -56 36l-140 233h-154v-208q0 -29 -14.5 -45t-41.5 -16zM772 717h151q72 0 114 36.5t42 101.5q0 67 -42 104.5t-111 37.5h-154v-280z
" />
    <glyph glyph-name="uni1000B8.small" unicode="S&#x20de;" horiz-adv-x="1830" 
d="M438 6q-238 0 -238 235v959q0 236 238 236h954q238 0 238 -236v-959q0 -235 -238 -235h-954zM440 117h950q62 0 95.5 33t33.5 97v947q0 64 -33.5 97.5t-95.5 33.5h-950q-63 0 -96 -33.5t-33 -97.5v-947q0 -64 33 -97t96 -33zM908 356q-100 0 -170 42.5t-91 104.5
q-8 21 -8 36q0 23 13.5 36.5t36.5 13.5q35 0 53 -38q39 -104 174 -104q69 0 115.5 32t46.5 84q0 43 -29 66.5t-103 43.5l-113 32q-92 24 -137 68.5t-45 115.5q0 92 74.5 151t191.5 59q95 0 162.5 -40t88.5 -105q7 -20 7 -35q0 -24 -13.5 -36.5t-36.5 -12.5q-36 0 -51 37
q-36 102 -162 102q-65 0 -105.5 -31.5t-40.5 -83.5q0 -37 26.5 -60.5t85.5 -40.5l105 -28q107 -29 158 -74t51 -119q0 -98 -77.5 -157t-206.5 -59z" />
    <glyph glyph-name="uni1000BA.small" unicode="T&#x20de;" horiz-adv-x="1830" 
d="M438 6q-238 0 -238 235v959q0 236 238 236h954q238 0 238 -236v-959q0 -235 -238 -235h-954zM440 117h950q62 0 95.5 33t33.5 97v947q0 64 -33.5 97.5t-95.5 33.5h-950q-63 0 -96 -33.5t-33 -97.5v-947q0 -64 33 -97t96 -33zM912 362q-26 0 -40 17t-14 45v564h-197
q-20 0 -33.5 13t-13.5 33q0 21 13 33.5t34 12.5h508q21 0 33.5 -12.5t12.5 -33.5q0 -20 -13 -33t-33 -13h-201v-564q0 -62 -56 -62z" />
    <glyph glyph-name="uni1000BC.small" unicode="U&#x20de;" horiz-adv-x="1830" 
d="M438 6q-238 0 -238 235v959q0 236 238 236h954q238 0 238 -236v-959q0 -235 -238 -235h-954zM440 117h950q62 0 95.5 33t33.5 97v947q0 64 -33.5 97.5t-95.5 33.5h-950q-63 0 -96 -33.5t-33 -97.5v-947q0 -64 33 -97t96 -33zM915 356q-134 0 -216 72.5t-82 193.5v407
q0 29 14.5 45.5t39.5 16.5q27 0 41.5 -16.5t14.5 -45.5v-397q0 -83 51.5 -133t136.5 -50t136.5 50t51.5 133v397q0 29 14.5 45.5t40.5 16.5t41 -16.5t15 -45.5v-407q0 -121 -82.5 -193.5t-216.5 -72.5z" />
    <glyph glyph-name="uni1000BE.small" unicode="V&#x20de;" horiz-adv-x="1830" 
d="M438 6q-238 0 -238 235v959q0 236 238 236h954q238 0 238 -236v-959q0 -235 -238 -235h-954zM440 117h950q62 0 95.5 33t33.5 97v947q0 64 -33.5 97.5t-95.5 33.5h-950q-63 0 -96 -33.5t-33 -97.5v-947q0 -64 33 -97t96 -33zM916 358q-32 0 -51 15t-32 50l-225 585
q-5 15 -5 30q0 23 15.5 37.5t40.5 14.5q43 0 58 -47l195 -552h6l195 552q16 47 59 47q24 0 40 -14.5t16 -37.5q0 -12 -6 -30l-224 -585q-24 -65 -82 -65z" />
    <glyph glyph-name="uni1000C0.small" unicode="W&#x20de;" horiz-adv-x="1830" 
d="M438 6q-238 0 -238 235v959q0 236 238 236h954q238 0 238 -236v-959q0 -235 -238 -235h-954zM440 117h950q62 0 95.5 33t33.5 97v947q0 64 -33.5 97.5t-95.5 33.5h-950q-63 0 -96 -33.5t-33 -97.5v-947q0 -64 33 -97t96 -33zM708 358q-57 0 -71 56l-156 603q-3 12 -3 21
q0 23 14.5 37.5t39.5 14.5q24 0 36.5 -12.5t19.5 -41.5l123 -520h5l138 526q10 47 61 47q49 0 61 -47l138 -526h5l124 520q6 29 19 41.5t37 12.5t38.5 -14.5t14.5 -37.5q0 -13 -3 -21l-156 -603q-15 -56 -71 -56q-58 0 -72 55l-132 513h-6l-133 -513q-12 -55 -71 -55z" />
    <glyph glyph-name="uni1000C2.small" unicode="X&#x20de;" horiz-adv-x="1830" 
d="M438 6q-238 0 -238 235v959q0 236 238 236h954q238 0 238 -236v-959q0 -235 -238 -235h-954zM440 117h950q62 0 95.5 33t33.5 97v947q0 64 -33.5 97.5t-95.5 33.5h-950q-63 0 -96 -33.5t-33 -97.5v-947q0 -64 33 -97t96 -33zM684 365q-22 0 -36.5 13.5t-14.5 33.5t12 36
l202 283l-192 269q-15 20 -15 40q0 21 16 36t38 15q32 0 52 -30l173 -253h4l170 252q20 31 50 31q22 0 37.5 -14t15.5 -34q0 -19 -14 -37l-200 -278l199 -276q12 -17 12 -37q0 -22 -15 -36t-38 -14q-17 0 -28 6.5t-24 25.5l-174 251h-4l-174 -251q-23 -32 -52 -32z" />
    <glyph glyph-name="uni1000C4.small" unicode="Y&#x20de;" horiz-adv-x="1830" 
d="M438 6q-238 0 -238 235v959q0 236 238 236h954q238 0 238 -236v-959q0 -235 -238 -235h-954zM440 117h950q62 0 95.5 33t33.5 97v947q0 64 -33.5 97.5t-95.5 33.5h-950q-63 0 -96 -33.5t-33 -97.5v-947q0 -64 33 -97t96 -33zM915 365q-26 0 -40 16.5t-14 44.5v218
l-227 366q-10 18 -10 33q0 20 15 34t37 14q18 0 29.5 -7.5t22.5 -26.5l186 -306h5l186 306q19 34 51 34q22 0 36 -14t14 -35q0 -17 -9 -32l-226 -364v-220q0 -29 -14.5 -45t-41.5 -16z" />
    <glyph glyph-name="uni1000C6.small" unicode="Z&#x20de;" horiz-adv-x="1830" 
d="M438 6q-238 0 -238 235v959q0 236 238 236h954q238 0 238 -236v-959q0 -235 -238 -235h-954zM440 117h950q62 0 95.5 33t33.5 97v947q0 64 -33.5 97.5t-95.5 33.5h-950q-63 0 -96 -33.5t-33 -97.5v-947q0 -64 33 -97t96 -33zM690 373q-23 0 -37.5 13.5t-14.5 35.5t20 49
l372 514v6h-346q-21 0 -34 12.5t-13 33.5t13 33.5t34 12.5h434q23 0 38.5 -15t15.5 -37t-18 -46l-372 -515v-5h367q20 0 33 -12.5t13 -33.5t-13 -33.5t-33 -12.5h-459z" />
    <glyph glyph-name="uni100005.small" unicode="A&#x20dd;&#x25cf;" horiz-adv-x="1865" 
d="M932 -70q-159 0 -305.5 63t-253 169.5t-170 253t-63.5 306.5t63 306.5t169.5 253t253 169.5t306.5 63q159 0 306 -63t253.5 -169.5t170 -253t63.5 -306.5t-63.5 -306.5t-170 -253t-253 -169.5t-306.5 -63zM668 348q40 0 55 46l63 179h291l63 -179q15 -46 56 -46
q23 0 38 14t15 35q0 17 -8 37l-230 617q-21 56 -80 56q-58 0 -79 -56l-230 -617q-8 -20 -8 -36q0 -23 14.5 -36.5t39.5 -13.5zM815 660l113 321h7l113 -321h-233z" />
    <glyph glyph-name="uni100007.small" unicode="B&#x20dd;&#x25cf;" horiz-adv-x="1865" 
d="M932 -70q-159 0 -305.5 63t-253 169.5t-170 253t-63.5 306.5t63 306.5t169.5 253t253 169.5t306.5 63q159 0 306 -63t253.5 -169.5t170 -253t63.5 -306.5t-63.5 -306.5t-170 -253t-253 -169.5t-306.5 -63zM736 362h235q123 0 196 55.5t73 149.5q0 73 -46 121t-125 59v4
q58 14 92.5 58t34.5 104q0 82 -61.5 131.5t-162.5 49.5h-236q-29 0 -46 -17t-17 -47v-604q0 -30 17 -47t46 -17zM784 779v229h165q64 0 100 -30t36 -83q0 -54 -44 -85t-123 -31h-134zM784 448v250h181q75 0 117.5 -33.5t42.5 -93.5q0 -63 -49 -93t-151 -30h-141z" />
    <glyph glyph-name="uni100009.small" unicode="C&#x20dd;&#x25cf;" horiz-adv-x="1865" 
d="M932 -70q-159 0 -305.5 63t-253 169.5t-170 253t-63.5 306.5t63 306.5t169.5 253t253 169.5t306.5 63q159 0 306 -63t253.5 -169.5t170 -253t63.5 -306.5t-63.5 -306.5t-170 -253t-253 -169.5t-306.5 -63zM935 347q106 0 184.5 48.5t105.5 129.5q6 18 6 35
q0 23 -13.5 36.5t-36.5 13.5q-31 0 -48 -37q-23 -62 -74 -96.5t-123 -34.5q-100 0 -161 78.5t-61 206.5t61 207t161 79q72 0 123 -34.5t74 -96.5q17 -36 48 -36q23 0 36.5 13.5t13.5 36.5q0 17 -6 34q-27 81 -106 130t-184 49q-154 0 -245.5 -104t-91.5 -278
q0 -173 91.5 -276.5t245.5 -103.5z" />
    <glyph glyph-name="uni10000B.small" unicode="D&#x20dd;&#x25cf;" horiz-adv-x="1865" 
d="M932 -70q-159 0 -305.5 63t-253 169.5t-170 253t-63.5 306.5t63 306.5t169.5 253t253 169.5t306.5 63q159 0 306 -63t253.5 -169.5t170 -253t63.5 -306.5t-63.5 -306.5t-170 -253t-253 -169.5t-306.5 -63zM718 364h207q168 0 259.5 95t91.5 271q0 173 -91 267.5
t-260 94.5h-207q-27 0 -41.5 -17.5t-14.5 -47.5v-599q0 -29 14.5 -46.5t41.5 -17.5zM773 454v548h139q120 0 184.5 -71t64.5 -203q0 -135 -64 -204.5t-185 -69.5h-139z" />
    <glyph glyph-name="uni10000D.small" unicode="E&#x20dd;&#x25cf;" horiz-adv-x="1865" 
d="M932 -70q-159 0 -305.5 63t-253 169.5t-170 253t-63.5 306.5t63 306.5t169.5 253t253 169.5t306.5 63q159 0 306 -63t253.5 -169.5t170 -253t63.5 -306.5t-63.5 -306.5t-170 -253t-253 -169.5t-306.5 -63zM745 364h382q21 0 34.5 13t13.5 34t-13.5 34t-34.5 13h-324v231
h304q21 0 34 11.5t13 32.5q0 22 -13 34t-34 12h-304v219h324q21 0 34.5 13t13.5 34t-13.5 34t-34.5 13h-382q-27 0 -41.5 -17.5t-14.5 -47.5v-599q0 -29 14.5 -46.5t41.5 -17.5z" />
    <glyph glyph-name="uni10000F.small" unicode="F&#x20dd;&#x25cf;" horiz-adv-x="1865" 
d="M932 -71q-159 0 -305.5 63t-253 169.5t-170 253t-63.5 306.5t63 306.5t169.5 253t253 169.5t306.5 63q159 0 306 -63t253.5 -169.5t170 -253t63.5 -306.5t-63.5 -306.5t-170 -253t-253 -169.5t-306.5 -63zM754 354q28 0 43 17t15 47v260h298q21 0 34 12t13 33t-13 33.5
t-34 12.5h-298v228h328q21 0 34.5 13t13.5 34q0 22 -13.5 35t-34.5 13h-386q-27 0 -41.5 -18t-14.5 -48v-608q0 -29 14.5 -46.5t41.5 -17.5z" />
    <glyph glyph-name="uni100011.small" unicode="G&#x20dd;&#x25cf;" horiz-adv-x="1865" 
d="M932 -70q-159 0 -305.5 63t-253 169.5t-170 253t-63.5 306.5t63 306.5t169.5 253t253 169.5t306.5 63q159 0 306 -63t253.5 -169.5t170 -253t63.5 -306.5t-63.5 -306.5t-170 -253t-253 -169.5t-306.5 -63zM937 340q144 0 227 78.5t83 207.5v59q0 30 -16 46t-44 16h-218
q-20 0 -31.5 -11.5t-11.5 -30.5q0 -18 11.5 -30.5t31.5 -12.5h163v-50q0 -81 -50 -128t-144 -47q-103 0 -165.5 79.5t-62.5 210.5t62.5 211.5t163.5 80.5q73 0 126 -35t76 -99q16 -37 48 -37q23 0 36.5 13.5t13.5 36.5q0 18 -7 35q-27 79 -105 130.5t-190 51.5
q-155 0 -248 -105.5t-93 -282.5t93.5 -282t250.5 -105z" />
    <glyph glyph-name="uni100013.small" unicode="H&#x20dd;&#x25cf;" horiz-adv-x="1865" 
d="M932 -70q-159 0 -305.5 63t-253 169.5t-170 253t-63.5 306.5t63 306.5t169.5 253t253 169.5t306.5 63q159 0 306 -63t253.5 -169.5t170 -253t63.5 -306.5t-63.5 -306.5t-170 -253t-253 -169.5t-306.5 -63zM680 355q58 0 58 64v276h387v-276q0 -30 15 -47t41 -17
q58 0 58 64v618q0 64 -58 64q-26 0 -41 -17t-15 -47v-252h-387v252q0 64 -58 64q-27 0 -42 -17t-15 -47v-618q0 -30 15 -47t42 -17z" />
    <glyph glyph-name="uni100015.small" unicode="I&#x20dd;&#x25cf;" horiz-adv-x="1865" 
d="M932 -70q-159 0 -305.5 63t-253 169.5t-170 253t-63.5 306.5t63 306.5t169.5 253t253 169.5t306.5 63q159 0 306 -63t253.5 -169.5t170 -253t63.5 -306.5t-63.5 -306.5t-170 -253t-253 -169.5t-306.5 -63zM931 355q58 0 58 64v617q0 65 -58 65q-27 0 -42 -17.5t-15 -47.5
v-617q0 -29 15 -46.5t42 -17.5z" />
    <glyph glyph-name="uni100017.small" unicode="J&#x20dd;&#x25cf;" horiz-adv-x="1865" 
d="M932 -70q-159 0 -305.5 63t-253 169.5t-170 253t-63.5 306.5t63 306.5t169.5 253t253 169.5t306.5 63q159 0 306 -63t253.5 -169.5t170 -253t63.5 -306.5t-63.5 -306.5t-170 -253t-253 -169.5t-306.5 -63zM895 348q114 0 174.5 60.5t60.5 171.5v457q0 30 -15 47t-43 17
q-27 0 -42 -17.5t-15 -46.5v-456q0 -62 -30.5 -98t-83.5 -36q-48 0 -80.5 24t-45.5 66q-19 39 -53 39q-24 0 -38.5 -15t-14.5 -39q0 -21 6 -35q19 -63 79 -101t141 -38z" />
    <glyph glyph-name="uni100019.small" unicode="&#x212a;&#x20dd;&#x25cf;" horiz-adv-x="1865" 
d="M932 -70q-159 0 -305.5 63t-253 169.5t-170 253t-63.5 306.5t63 306.5t169.5 253t253 169.5t306.5 63q159 0 306 -63t253.5 -169.5t170 -253t63.5 -306.5t-63.5 -306.5t-170 -253t-253 -169.5t-306.5 -63zM722 355q28 0 43 17t15 47v180l100 103l243 -318q22 -29 51 -29
q24 0 39.5 15t15.5 39q0 20 -17 44l-248 324l228 233q18 19 18 42q0 20 -15 34.5t-37 14.5q-24 0 -47 -23l-327 -332h-4v290q0 31 -15 48t-43 17q-26 0 -41 -17t-15 -48v-617q0 -30 15 -47t41 -17z" />
    <glyph glyph-name="uni10001B.small" unicode="L&#x20dd;&#x25cf;" horiz-adv-x="1865" 
d="M932 -70q-159 0 -305.5 63t-253 169.5t-170 253t-63.5 306.5t63 306.5t169.5 253t253 169.5t306.5 63q159 0 306 -63t253.5 -169.5t170 -253t63.5 -306.5t-63.5 -306.5t-170 -253t-253 -169.5t-306.5 -63zM779 364h372q22 0 35.5 13t13.5 35t-13.5 34.5t-35.5 12.5h-314
v578q0 64 -58 64q-27 0 -42 -17.5t-15 -46.5v-609q0 -29 15 -46.5t42 -17.5z" />
    <glyph glyph-name="uni10001D.small" unicode="M&#x20dd;&#x25cf;" horiz-adv-x="1865" 
d="M932 -70q-159 0 -305.5 63t-253 169.5t-170 253t-63.5 306.5t63 306.5t169.5 253t253 169.5t306.5 63q159 0 306 -63t253.5 -169.5t170 -253t63.5 -306.5t-63.5 -306.5t-170 -253t-253 -169.5t-306.5 -63zM621 351q24 0 38 15.5t14 42.5v491h7l194 -489q18 -39 57 -39
q41 0 57 39l195 489h7v-491q0 -27 13.5 -42.5t37.5 -15.5q25 0 39 15.5t14 42.5v624q0 31 -19 49.5t-50 18.5q-51 0 -72 -48l-219 -551h-4l-220 551q-21 48 -72 48q-31 0 -50 -18.5t-19 -49.5v-624q0 -27 14 -42.5t38 -15.5z" />
    <glyph glyph-name="uni10001F.small" unicode="N&#x20dd;&#x25cf;" horiz-adv-x="1865" 
d="M932 -70q-159 0 -305.5 63t-253 169.5t-170 253t-63.5 306.5t63 306.5t169.5 253t253 169.5t306.5 63q159 0 306 -63t253.5 -169.5t170 -253t63.5 -306.5t-63.5 -306.5t-170 -253t-253 -169.5t-306.5 -63zM689 355q26 0 40 15t14 42v495h5l361 -516q24 -36 59 -36
q28 0 43.5 16t15.5 45v628q0 27 -14.5 42t-40.5 15q-25 0 -39 -15.5t-14 -41.5v-502h-5l-360 523q-25 36 -60 36q-28 0 -43 -17t-15 -46v-626q0 -26 14 -41.5t39 -15.5z" />
    <glyph glyph-name="uni100021.small" unicode="O&#x20dd;&#x25cf;" horiz-adv-x="1865" 
d="M932 -70q-159 0 -305.5 63t-253 169.5t-170 253t-63.5 306.5t63 306.5t169.5 253t253 169.5t306.5 63q159 0 306 -63t253.5 -169.5t170 -253t63.5 -306.5t-63.5 -306.5t-170 -253t-253 -169.5t-306.5 -63zM932 347q152 0 247.5 105.5t95.5 274.5q0 170 -95.5 276
t-247.5 106t-247.5 -106t-95.5 -276q0 -169 95.5 -274.5t247.5 -105.5zM932 438q-103 0 -166 79t-63 210t63 211t166 80t165.5 -80t62.5 -211t-62.5 -210t-165.5 -79z" />
    <glyph glyph-name="uni100023.small" unicode="P&#x20dd;&#x25cf;" horiz-adv-x="1865" 
d="M932 -70q-159 0 -305.5 63t-253 169.5t-170 253t-63.5 306.5t63 306.5t169.5 253t253 169.5t306.5 63q159 0 306 -63t253.5 -169.5t170 -253t63.5 -306.5t-63.5 -306.5t-170 -253t-253 -169.5t-306.5 -63zM759 355q28 0 43 17t15 47v190h165q114 0 184.5 66.5t70.5 175.5
q0 107 -70.5 174.5t-183.5 67.5h-224q-27 0 -41.5 -18t-14.5 -47v-609q0 -29 14.5 -46.5t41.5 -17.5zM817 698v305h151q71 0 113 -41t42 -111t-42 -111.5t-113 -41.5h-151z" />
    <glyph glyph-name="uni100025.small" unicode="Q&#x20dd;&#x25cf;" horiz-adv-x="1865" 
d="M932 -70q-159 0 -305.5 63t-253 169.5t-170 253t-63.5 306.5t63 306.5t169.5 253t253 169.5t306.5 63q159 0 306 -63t253.5 -169.5t170 -253t63.5 -306.5t-63.5 -306.5t-170 -253t-253 -169.5t-306.5 -63zM932 347q72 0 130 24l58 -79q21 -26 46 -26q19 0 31 11.5
t12 30.5q0 17 -18 40l-51 70q64 49 99.5 129.5t35.5 181.5q0 168 -95.5 274.5t-247.5 106.5q-153 0 -248 -106.5t-95 -274.5q0 -169 95 -275.5t248 -106.5zM932 438q-104 0 -166.5 79.5t-62.5 211.5q0 131 63 210t166 79t166 -79t63 -210q0 -152 -82 -229l-52 70
q-15 21 -39 21q-18 0 -31 -12t-13 -29q0 -19 14 -37l46 -63q-32 -12 -72 -12z" />
    <glyph glyph-name="uni100027.small" unicode="R&#x20dd;&#x25cf;" horiz-adv-x="1865" 
d="M932 -70q-159 0 -305.5 63t-253 169.5t-170 253t-63.5 306.5t63 306.5t169.5 253t253 169.5t306.5 63q159 0 306 -63t253.5 -169.5t170 -253t63.5 -306.5t-63.5 -306.5t-170 -253t-253 -169.5t-306.5 -63zM726 355q58 0 58 64v213h159l143 -239q24 -38 58 -38
q23 0 37 13.5t14 35.5q0 20 -13 42l-126 202q71 22 114 79.5t43 133.5q0 105 -70 168.5t-188 63.5h-229q-26 0 -41 -18t-15 -48v-608q0 -29 14.5 -46.5t41.5 -17.5zM784 717v286h158q72 0 115 -38.5t43 -106.5q0 -66 -43.5 -103.5t-116.5 -37.5h-156z" />
    <glyph glyph-name="uni100029.small" unicode="S&#x20dd;&#x25cf;" horiz-adv-x="1865" 
d="M932 -70q-159 0 -305.5 63t-253 169.5t-170 253t-63.5 306.5t63 306.5t169.5 253t253 169.5t306.5 63q159 0 306 -63t253.5 -169.5t170 -253t63.5 -306.5t-63.5 -306.5t-170 -253t-253 -169.5t-306.5 -63zM925 347q132 0 211.5 60t79.5 161q0 75 -52.5 122.5t-161.5 75.5
l-108 29q-61 16 -88 41t-27 63q0 53 41.5 85.5t108.5 32.5q127 0 165 -105q15 -38 53 -38q24 0 38 12.5t14 37.5q0 14 -8 36q-22 66 -91 107t-167 41q-120 0 -196.5 -60t-76.5 -155q0 -73 46.5 -118.5t140.5 -70.5l116 -33q75 -20 104.5 -44.5t29.5 -67.5q0 -54 -47 -86
t-118 -32q-138 0 -177 105q-19 39 -55 39q-24 0 -38 -13.5t-14 -37.5q0 -19 8 -38q21 -63 93.5 -106t175.5 -43z" />
    <glyph glyph-name="uni10002B.small" unicode="T&#x20dd;&#x25cf;" horiz-adv-x="1865" 
d="M932 -70q-159 0 -305.5 63t-253 169.5t-170 253t-63.5 306.5t63 306.5t169.5 253t253 169.5t306.5 63q159 0 306 -63t253.5 -169.5t170 -253t63.5 -306.5t-63.5 -306.5t-170 -253t-253 -169.5t-306.5 -63zM929 352q28 0 43 17.5t15 47.5v578h205q21 0 34.5 13t13.5 34
q0 22 -13.5 35t-34.5 13h-521q-21 0 -35 -13t-14 -35q0 -21 14 -34t35 -13h201v-578q0 -29 15 -47t42 -18z" />
    <glyph glyph-name="uni10002D.small" unicode="U&#x20dd;&#x25cf;" horiz-adv-x="1865" 
d="M932 -70q-159 0 -305.5 63t-253 169.5t-170 253t-63.5 306.5t63 306.5t169.5 253t253 169.5t306.5 63q159 0 306 -63t253.5 -169.5t170 -253t63.5 -306.5t-63.5 -306.5t-170 -253t-253 -169.5t-306.5 -63zM932 347q137 0 222 74t85 198v418q0 30 -15 47t-43 17
q-27 0 -42 -17t-15 -47v-407q0 -86 -52.5 -137t-139.5 -51t-140 51t-53 137v407q0 30 -15 47t-43 17q-26 0 -41 -17t-15 -47v-418q0 -124 84.5 -198t222.5 -74z" />
    <glyph glyph-name="uni10002F.small" unicode="V&#x20dd;&#x25cf;" horiz-adv-x="1865" 
d="M932 -70q-159 0 -305.5 63t-253 169.5t-170 253t-63.5 306.5t63 306.5t169.5 253t253 169.5t306.5 63q159 0 306 -63t253.5 -169.5t170 -253t63.5 -306.5t-63.5 -306.5t-170 -253t-253 -169.5t-306.5 -63zM932 348q59 0 86 68l229 599q6 18 6 31q0 24 -16.5 39t-41.5 15
q-44 0 -61 -49l-200 -566h-5l-199 566q-18 49 -61 49q-26 0 -42 -15t-16 -39q0 -16 5 -31l231 -600q14 -36 33 -51.5t52 -15.5z" />
    <glyph glyph-name="uni100031.small" unicode="W&#x20dd;&#x25cf;" horiz-adv-x="1865" 
d="M932 -70q-159 0 -305.5 63t-253 169.5t-170 253t-63.5 306.5t63 306.5t169.5 253t253 169.5t306.5 63q159 0 306 -63t253.5 -169.5t170 -253t63.5 -306.5t-63.5 -306.5t-170 -253t-253 -169.5t-306.5 -63zM718 348q61 0 75 57l136 524h5l136 -524q14 -57 74 -57
q59 0 73 58l161 619q2 7 2 21q0 24 -14.5 39t-39.5 15t-38.5 -13t-19.5 -43l-127 -532h-5l-141 539q-13 47 -64 47t-63 -47l-141 -539h-5l-126 532q-7 30 -20 43t-38 13t-40 -15t-15 -39q0 -10 3 -21l160 -619q14 -58 72 -58z" />
    <glyph glyph-name="uni100033.small" unicode="X&#x20dd;&#x25cf;" horiz-adv-x="1865" 
d="M932 -70q-159 0 -305.5 63t-253 169.5t-170 253t-63.5 306.5t63 306.5t169.5 253t253 169.5t306.5 63q159 0 306 -63t253.5 -169.5t170 -253t63.5 -306.5t-63.5 -306.5t-170 -253t-253 -169.5t-306.5 -63zM694 355q18 0 29 7t25 26l179 258h3l178 -258q24 -33 54 -33
q24 0 40 14.5t16 37.5q0 20 -14 38l-203 283l205 284q14 20 14 38q0 22 -15.5 36.5t-38.5 14.5q-31 0 -52 -32l-174 -258h-4l-177 258q-22 32 -54 32q-23 0 -39.5 -15.5t-16.5 -37.5q0 -21 15 -41l197 -276l-207 -289q-13 -20 -13 -37q0 -22 15 -36t38 -14z" />
    <glyph glyph-name="uni100035.small" unicode="Y&#x20dd;&#x25cf;" horiz-adv-x="1865" 
d="M932 -70q-159 0 -305.5 63t-253 169.5t-170 253t-63.5 306.5t63 306.5t169.5 253t253 169.5t306.5 63q159 0 306 -63t253.5 -169.5t170 -253t63.5 -306.5t-63.5 -306.5t-170 -253t-253 -169.5t-306.5 -63zM932 355q28 0 43 17t15 47v224l230 374q11 16 11 32
q0 23 -15 37.5t-38 14.5q-33 0 -52 -36l-191 -313h-4l-190 313q-20 36 -55 36q-22 0 -37.5 -14.5t-15.5 -35.5q0 -16 10 -34l232 -375v-223q0 -29 15 -46.5t42 -17.5z" />
    <glyph glyph-name="uni100037.small" unicode="Z&#x20dd;&#x25cf;" horiz-adv-x="1865" 
d="M932 -70q-159 0 -305.5 63t-253 169.5t-170 253t-63.5 306.5t63 306.5t169.5 253t253 169.5t306.5 63q159 0 306 -63t253.5 -169.5t170 -253t63.5 -306.5t-63.5 -306.5t-170 -253t-253 -169.5t-306.5 -63zM701 364h470q21 0 35 13t14 34q0 22 -13.5 34.5t-35.5 12.5h-375
v7l381 526q18 27 18 48q0 23 -15 38t-40 15h-446q-21 0 -34.5 -13t-13.5 -34q0 -22 13.5 -34.5t34.5 -12.5h355v-7l-382 -527q-20 -31 -20 -50q0 -22 15 -36t39 -14z" />
    <glyph glyph-name="uni100095.small" unicode="A&#x20de;&#x25a0;" horiz-adv-x="1830" 
d="M438 6q-238 0 -238 235v959q0 236 238 236h954q238 0 238 -236v-959q0 -235 -238 -235h-954zM651 348q40 0 56 46l62 179h292l62 -179q16 -46 56 -46q24 0 38.5 14t14.5 35q0 20 -7 37l-231 617q-21 56 -80 56q-58 0 -79 -56l-230 -617q-7 -17 -7 -36q0 -23 14.5 -36.5
t38.5 -13.5zM798 660l113 321h8l112 -321h-233z" />
    <glyph glyph-name="uni100097.small" unicode="B&#x20de;&#x25a0;" horiz-adv-x="1830" 
d="M438 6q-238 0 -238 235v959q0 236 238 236h954q238 0 238 -236v-959q0 -235 -238 -235h-954zM720 362h235q123 0 195.5 55.5t72.5 149.5q0 73 -45.5 121t-124.5 59v4q58 14 92 58t34 104q0 82 -61.5 131.5t-162.5 49.5h-235q-30 0 -47 -17t-17 -47v-604q0 -30 17 -47
t47 -17zM768 779v229h165q64 0 100 -30t36 -83q0 -54 -44.5 -85t-123.5 -31h-133zM768 448v250h180q76 0 118 -33.5t42 -93.5q0 -63 -48.5 -93t-150.5 -30h-141z" />
    <glyph glyph-name="uni100099.small" unicode="C&#x20de;&#x25a0;" horiz-adv-x="1830" 
d="M438 6q-238 0 -238 235v959q0 236 238 236h954q238 0 238 -236v-959q0 -235 -238 -235h-954zM918 347q106 0 185 48.5t105 129.5q6 18 6 35q0 23 -13 36.5t-36 13.5q-32 0 -49 -37q-22 -62 -73.5 -96.5t-123.5 -34.5q-99 0 -160.5 79t-61.5 206q0 128 61.5 207t160.5 79
q72 0 123.5 -34.5t73.5 -96.5q17 -36 49 -36q23 0 36 13.5t13 36.5q0 17 -6 34q-27 81 -106 130t-184 49q-154 0 -245.5 -104t-91.5 -278q0 -173 91.5 -276.5t245.5 -103.5z" />
    <glyph glyph-name="uni10009B.small" unicode="D&#x20de;&#x25a0;" horiz-adv-x="1830" 
d="M438 6q-238 0 -238 235v959q0 236 238 236h954q238 0 238 -236v-959q0 -235 -238 -235h-954zM701 364h207q169 0 260.5 95t91.5 271q0 173 -91.5 267.5t-260.5 94.5h-207q-26 0 -40.5 -17.5t-14.5 -47.5v-599q0 -29 14.5 -46.5t40.5 -17.5zM757 454v548h138
q120 0 184.5 -71t64.5 -203q0 -135 -64 -204.5t-185 -69.5h-138z" />
    <glyph glyph-name="uni10009F.small" unicode="F&#x20de;&#x25a0;" horiz-adv-x="1830" 
d="M438 6q-238 0 -238 235v959q0 236 238 236h954q238 0 238 -236v-959q0 -235 -238 -235h-954zM738 355q27 0 42.5 17t15.5 47v260h297q22 0 35 12t13 33t-13.5 33.5t-34.5 12.5h-297v228h328q21 0 34 13t13 34q0 22 -13 35t-34 13h-387q-26 0 -41 -18t-15 -48v-608
q0 -29 15 -46.5t42 -17.5z" />
    <glyph glyph-name="uni1000A1.small" unicode="G&#x20de;&#x25a0;" horiz-adv-x="1830" 
d="M438 6q-238 0 -238 235v959q0 236 238 236h954q238 0 238 -236v-959q0 -235 -238 -235h-954zM920 340q144 0 227 78.5t83 207.5v59q0 62 -60 62h-218q-20 0 -31.5 -11.5t-11.5 -30.5q0 -18 11.5 -30.5t31.5 -12.5h164v-50q0 -81 -50.5 -128t-143.5 -47q-103 0 -166 80
t-63 210q0 131 62.5 211.5t164.5 80.5q73 0 125.5 -35t75.5 -99q16 -37 48 -37q23 0 36.5 13.5t13.5 36.5q0 17 -6 35q-28 79 -106 130.5t-189 51.5q-155 0 -248 -105.5t-93 -282.5t93 -282t250 -105z" />
    <glyph glyph-name="uni1000A3.small" unicode="H&#x20de;&#x25a0;" horiz-adv-x="1830" 
d="M438 6q-238 0 -238 235v959q0 236 238 236h954q238 0 238 -236v-959q0 -235 -238 -235h-954zM663 355q58 0 58 64v276h387v-276q0 -30 15 -47t42 -17q58 0 58 64v618q0 64 -58 64q-27 0 -42 -17t-15 -47v-252h-387v252q0 64 -58 64q-26 0 -41 -17t-15 -47v-618
q0 -30 15 -47t41 -17z" />
    <glyph glyph-name="uni1000A5.small" unicode="I&#x20de;&#x25a0;" horiz-adv-x="1830" 
d="M438 6q-238 0 -238 235v959q0 236 238 236h954q238 0 238 -236v-959q0 -235 -238 -235h-954zM914 355q58 0 58 64v617q0 65 -58 65q-27 0 -41.5 -17.5t-14.5 -47.5v-617q0 -29 14.5 -46.5t41.5 -17.5z" />
    <glyph glyph-name="uni1000A7.small" unicode="J&#x20de;&#x25a0;" horiz-adv-x="1830" 
d="M438 6q-238 0 -238 235v959q0 236 238 236h954q238 0 238 -236v-959q0 -235 -238 -235h-954zM879 348q113 0 173.5 60.5t60.5 171.5v457q0 64 -58 64q-27 0 -42 -17.5t-15 -46.5v-456q0 -62 -30.5 -98t-83.5 -36q-97 0 -126 90q-17 39 -53 39q-24 0 -38.5 -15t-14.5 -39
q0 -17 6 -35q20 -63 79.5 -101t141.5 -38z" />
    <glyph glyph-name="uni1000A9.small" unicode="&#x212a;&#x20de;&#x25a0;" horiz-adv-x="1830" 
d="M438 6q-238 0 -238 235v959q0 236 238 236h954q238 0 238 -236v-959q0 -235 -238 -235h-954zM706 355q57 0 57 64v180l101 103l242 -318q23 -29 51 -29q25 0 40.5 15t15.5 39q0 20 -17 44l-249 324l229 233q18 19 18 42q0 20 -15.5 34.5t-37.5 14.5q-23 0 -47 -23
l-326 -332h-5v290q0 65 -57 65q-27 0 -42 -17t-15 -48v-617q0 -30 15 -47t42 -17z" />
    <glyph glyph-name="uni1000AB.small" unicode="L&#x20de;&#x25a0;" horiz-adv-x="1830" 
d="M438 6q-238 0 -238 235v959q0 236 238 236h954q238 0 238 -236v-959q0 -235 -238 -235h-954zM762 364h373q21 0 34.5 13t13.5 35q0 21 -13.5 34t-34.5 13h-315v578q0 64 -58 64q-27 0 -41.5 -17.5t-14.5 -46.5v-609q0 -29 14.5 -46.5t41.5 -17.5z" />
    <glyph glyph-name="uni1000AD.small" unicode="M&#x20de;&#x25a0;" horiz-adv-x="1830" 
d="M438 6q-238 0 -238 235v959q0 236 238 236h954q238 0 238 -236v-959q0 -235 -238 -235h-954zM604 351q25 0 39 15.5t14 42.5v491h6l195 -489q16 -39 56 -39t57 39l196 489h6v-491q0 -27 14 -42.5t37 -15.5q25 0 39 15.5t14 42.5v624q0 31 -19 49.5t-49 18.5
q-52 0 -73 -48l-219 -551h-4l-220 551q-19 48 -72 48q-30 0 -49.5 -19t-19.5 -49v-624q0 -27 14 -42.5t38 -15.5z" />
    <glyph glyph-name="uni1000AF.small" unicode="N&#x20de;&#x25a0;" horiz-adv-x="1830" 
d="M438 6q-238 0 -238 235v959q0 236 238 236h954q238 0 238 -236v-959q0 -235 -238 -235h-954zM673 355q26 0 40 15t14 42v495h5l361 -516q24 -36 59 -36q27 0 42.5 16t15.5 45v628q0 27 -14 42t-40 15q-25 0 -39 -15.5t-14 -41.5v-502h-6l-360 523q-24 36 -60 36
q-27 0 -42 -17t-15 -46v-626q0 -27 14 -42t39 -15z" />
    <glyph glyph-name="uni1000B1.small" unicode="O&#x20de;&#x25a0;" horiz-adv-x="1830" 
d="M438 6q-238 0 -238 235v959q0 236 238 236h954q238 0 238 -236v-959q0 -235 -238 -235h-954zM915 347q152 0 247.5 105.5t95.5 274.5q0 170 -95.5 276t-247.5 106t-247.5 -106t-95.5 -276q0 -169 95.5 -274.5t247.5 -105.5zM915 438q-103 0 -165.5 79.5t-62.5 209.5
q0 131 62.5 211t165.5 80t166 -80t63 -211t-63 -210t-166 -79z" />
    <glyph glyph-name="uni1000B3.small" unicode="P&#x20de;&#x25a0;" horiz-adv-x="1830" 
d="M438 6q-238 0 -238 235v959q0 236 238 236h954q238 0 238 -236v-959q0 -235 -238 -235h-954zM743 355q27 0 42.5 17t15.5 47v190h165q114 0 184 66.5t70 175.5q0 107 -70.5 174.5t-183.5 67.5h-224q-26 0 -41 -18t-15 -47v-609q0 -29 15 -46.5t42 -17.5zM801 698v305h151
q71 0 113 -41t42 -111t-42 -111.5t-113 -41.5h-151z" />
    <glyph glyph-name="uni1000B5.small" unicode="Q&#x20de;&#x25a0;" horiz-adv-x="1830" 
d="M438 6q-238 0 -238 235v959q0 236 238 236h954q238 0 238 -236v-959q0 -235 -238 -235h-954zM915 347q72 0 130 24l59 -79q19 -26 45 -26q19 0 31 11.5t12 30.5q0 16 -17 40l-51 70q64 49 99.5 129.5t35.5 181.5q0 168 -95.5 274.5t-248.5 106.5q-152 0 -247.5 -106.5
t-95.5 -274.5q0 -169 95.5 -275.5t247.5 -106.5zM915 438q-104 0 -166.5 79.5t-62.5 211.5q0 131 63 210t166 79t166 -79t63 -210q0 -153 -81 -229l-53 70q-15 21 -39 21q-18 0 -30.5 -12t-12.5 -29q0 -19 14 -37l45 -63q-31 -12 -72 -12z" />
    <glyph glyph-name="uni1000B7.small" unicode="R&#x20de;&#x25a0;" horiz-adv-x="1830" 
d="M438 6q-238 0 -238 235v959q0 236 238 236h954q238 0 238 -236v-959q0 -235 -238 -235h-954zM710 355q28 0 43 17t15 47v213h158l144 -239q23 -38 57 -38q23 0 37.5 13.5t14.5 35.5q0 21 -14 42l-126 202q71 22 114 79.5t43 133.5q0 105 -70 168.5t-187 63.5h-230
q-26 0 -40.5 -18t-14.5 -48v-608q0 -29 14.5 -46.5t41.5 -17.5zM768 717v286h158q71 0 114 -38.5t43 -106.5q0 -66 -43.5 -103.5t-116.5 -37.5h-155z" />
    <glyph glyph-name="uni1000B9.small" unicode="S&#x20de;&#x25a0;" horiz-adv-x="1830" 
d="M438 6q-238 0 -238 235v959q0 236 238 236h954q238 0 238 -236v-959q0 -235 -238 -235h-954zM908 347q132 0 212 60t80 161q0 75 -53 122t-162 76l-107 29q-61 16 -88 41t-27 63q0 52 41.5 85t107.5 33q127 0 165 -105q17 -38 54 -38q51 0 51 50q0 17 -8 36
q-22 66 -90.5 107t-166.5 41q-121 0 -197 -60t-76 -155q0 -73 46 -118.5t140 -70.5l116 -33q75 -21 105 -45t30 -67q0 -54 -47 -86t-118 -32q-139 0 -178 105q-19 39 -54 39q-24 0 -38 -13.5t-14 -37.5q0 -19 8 -38q21 -63 93 -106t175 -43z" />
    <glyph glyph-name="uni1000BB.small" unicode="T&#x20de;&#x25a0;" horiz-adv-x="1830" 
d="M438 6q-238 0 -238 235v959q0 236 238 236h954q238 0 238 -236v-959q0 -235 -238 -235h-954zM912 352q28 0 43 17.5t15 47.5v578h205q22 0 35.5 13t13.5 34q0 22 -13.5 35t-35.5 13h-521q-21 0 -34.5 -13t-13.5 -35q0 -21 13.5 -34t34.5 -13h202v-578q0 -29 15 -47
t41 -18z" />
    <glyph glyph-name="uni1000BD.small" unicode="U&#x20de;&#x25a0;" horiz-adv-x="1830" 
d="M438 6q-238 0 -238 235v959q0 236 238 236h954q238 0 238 -236v-959q0 -235 -238 -235h-954zM915 347q138 0 222.5 74t84.5 198v418q0 30 -15 47t-43 17q-26 0 -41 -17t-15 -47v-407q0 -86 -53 -137t-140 -51t-139.5 51t-52.5 137v407q0 30 -15 47t-43 17q-27 0 -42 -17
t-15 -47v-418q0 -124 84.5 -198t222.5 -74z" />
    <glyph glyph-name="uni1000BF.small" unicode="V&#x20de;&#x25a0;" horiz-adv-x="1830" 
d="M438 6q-238 0 -238 235v959q0 236 238 236h954q238 0 238 -236v-959q0 -235 -238 -235h-954zM916 348q60 0 85 68l229 599q6 18 6 31q0 24 -16 39t-42 15q-44 0 -61 -49l-199 -566h-6l-199 566q-9 26 -23 37.5t-38 11.5q-26 0 -42 -15t-16 -39q0 -13 6 -31l230 -600
q14 -36 33.5 -51.5t52.5 -15.5z" />
    <glyph glyph-name="uni1000C1.small" unicode="W&#x20de;&#x25a0;" horiz-adv-x="1830" 
d="M438 6q-238 0 -238 235v959q0 236 238 236h954q238 0 238 -236v-959q0 -235 -238 -235h-954zM702 348q60 0 74 57l136 524h6l136 -524q12 -57 73 -57q59 0 74 58l160 619q3 11 3 21q0 24 -15 39t-40 15t-38 -13t-20 -43l-127 -532h-5l-141 539q-12 47 -63 47t-63 -47
l-141 -539h-5l-127 532q-6 30 -19.5 43t-38.5 13t-40 -15t-15 -39q0 -10 3 -21l160 -619q15 -58 73 -58z" />
    <glyph glyph-name="uni1000C3.small" unicode="X&#x20de;&#x25a0;" horiz-adv-x="1830" 
d="M438 6q-238 0 -238 235v959q0 236 238 236h954q238 0 238 -236v-959q0 -235 -238 -235h-954zM678 355q17 0 28 7t25 26l179 258h4l178 -258q14 -19 25 -26t28 -7q25 0 40.5 14.5t15.5 37.5q0 19 -13 38l-204 283l206 284q14 20 14 38q0 22 -16 36.5t-39 14.5
q-30 0 -52 -32l-174 -258h-4l-176 258q-22 32 -55 32q-23 0 -39.5 -15.5t-16.5 -37.5q0 -21 16 -41l196 -276l-206 -289q-13 -18 -13 -37q0 -22 15 -36t38 -14z" />
    <glyph glyph-name="uni1000C5.small" unicode="Y&#x20de;&#x25a0;" horiz-adv-x="1830" 
d="M438 6q-238 0 -238 235v959q0 236 238 236h954q238 0 238 -236v-959q0 -235 -238 -235h-954zM915 355q58 0 58 64v224l231 374q10 14 10 32q0 23 -15 37.5t-37 14.5q-32 0 -53 -36l-190 -313h-5l-190 313q-20 36 -54 36q-22 0 -37.5 -14.5t-15.5 -35.5q0 -18 10 -34
l232 -375v-223q0 -29 14.5 -46.5t41.5 -17.5z" />
    <glyph glyph-name="uni1000C7.small" unicode="Z&#x20de;&#x25a0;" horiz-adv-x="1830" 
d="M438 6q-238 0 -238 235v959q0 236 238 236h954q238 0 238 -236v-959q0 -235 -238 -235h-954zM684 364h471q21 0 34.5 13t13.5 34q0 22 -13.5 34.5t-34.5 12.5h-375v7l380 526q19 27 19 48q0 23 -15.5 38t-40.5 15h-445q-21 0 -35 -13t-14 -34q0 -22 13.5 -34.5
t35.5 -12.5h354v-7l-381 -527q-21 -30 -21 -50q0 -22 15 -36t39 -14z" />
    <glyph glyph-name="uni10005C.small" unicode="&#x3f;&#x20dd;" horiz-adv-x="1865" 
d="M932 -70q-159 0 -305.5 63t-253 169.5t-170 253t-63.5 306.5t63 306.5t169.5 253t253 169.5t306.5 63q159 0 306 -63t253.5 -169.5t170 -253t63.5 -306.5t-63.5 -306.5t-170 -253t-253 -169.5t-306.5 -63zM932 47q138 0 263.5 53.5t215.5 143.5t143.5 215t53.5 263
t-53.5 263t-144 215t-215.5 143.5t-263 53.5t-263 -53.5t-215 -143.5t-143 -215t-53 -263q0 -184 90 -339.5t245 -245.5t339 -90zM917 560q-56 0 -56 55v14q0 52 24.5 87.5t72.5 68.5q58 40 80 66t22 64q0 47 -34 76t-91 29q-86 0 -124 -83q-4 -4 -11 -14t-10.5 -14
t-10.5 -9.5t-15.5 -7.5t-19.5 -2q-19 0 -33.5 13t-14.5 35q0 19 6 37q15 59 79 99t159 40q102 0 171 -52t69 -142q0 -62 -31 -102.5t-96 -83.5q-44 -30 -62.5 -54t-18.5 -57v-13q0 -22 -15 -36t-40 -14zM915 332q-32 0 -55 22.5t-23 53.5t23 53.5t55 22.5t55.5 -22.5
t23.5 -53.5t-23.5 -53.5t-55.5 -22.5z" />
    <glyph glyph-name="uni10005D.small" unicode="&#x3f;&#x20dd;&#x25cf;" horiz-adv-x="1865" 
d="M932 -70q-159 0 -305.5 63t-253 169.5t-170 253t-63.5 306.5t63 306.5t169.5 253t253 169.5t306.5 63q159 0 306 -63t253.5 -169.5t170 -253t63.5 -306.5t-63.5 -306.5t-170 -253t-253 -169.5t-306.5 -63zM916 557q26 0 42 14.5t16 36.5v13q0 34 19 58.5t64 55.5
q67 44 98.5 85.5t31.5 105.5q0 93 -71 146t-176 53q-98 0 -163.5 -41t-81.5 -101q-6 -24 -6 -39q0 -22 15.5 -35.5t34.5 -13.5q12 0 20.5 2t15.5 8t11 9.5t11.5 14.5t11.5 15q38 83 126 83q58 0 93 -29t35 -77q0 -39 -22.5 -65.5t-82.5 -67.5q-50 -35 -74.5 -71t-24.5 -90
v-13q0 -57 57 -57zM914 322q33 0 57.5 23t24.5 55q0 33 -24 56t-58 23q-33 0 -57 -23.5t-24 -55.5t24 -55t57 -23z" />
    <glyph glyph-name="uni1000EC.small" unicode="&#x3f;&#x20de;" horiz-adv-x="1830" 
d="M438 6q-238 0 -238 235v959q0 236 238 236h954q238 0 238 -236v-959q0 -235 -238 -235h-954zM440 117h950q62 0 95.5 33t33.5 97v947q0 64 -33.5 97.5t-95.5 33.5h-950q-63 0 -96 -33.5t-33 -97.5v-947q0 -64 33 -97t96 -33zM900 561q-55 0 -55 55v14q0 52 24 87t73 69
q58 41 80 66.5t22 63.5q0 47 -34.5 75.5t-91.5 28.5q-86 0 -123 -82q-3 -4 -11 -15t-11 -14t-10.5 -9t-15.5 -8t-19 -2q-19 0 -34 13.5t-15 35.5q0 11 6 37q16 59 79.5 99t158.5 40q102 0 171.5 -52t69.5 -142q0 -62 -31 -102.5t-96 -83.5q-44 -30 -62.5 -54t-18.5 -57v-13
q0 -22 -15 -36t-41 -14zM899 333q-32 0 -55.5 22t-23.5 53t23.5 53.5t55.5 22.5t55 -22t23 -54q0 -31 -23 -53t-55 -22z" />
    <glyph glyph-name="uni1000ED.small" unicode="&#x3f;&#x20de;&#x25a0;" horiz-adv-x="1830" 
d="M438 6q-238 0 -238 235v959q0 236 238 236h954q238 0 238 -236v-959q0 -235 -238 -235h-954zM900 557q26 0 41.5 14.5t15.5 36.5v13q0 34 19 58.5t64 55.5q67 44 99 85.5t32 105.5q0 92 -71.5 145.5t-176.5 53.5q-98 0 -163 -41t-81 -101q-7 -21 -7 -39q0 -22 15.5 -35.5
t34.5 -13.5q15 0 26 5t15 8t15.5 18t13.5 18q38 83 126 83q58 0 93 -29t35 -77q0 -39 -22.5 -65.5t-81.5 -67.5q-50 -35 -75 -71t-25 -90v-13q0 -57 58 -57zM898 322q33 0 57 23t24 55q0 33 -24 56t-57 23t-57 -23.5t-24 -55.5t24 -55t57 -23z" />
    <glyph glyph-name="uni10005E.small" unicode="&#x21;&#x20dd;" horiz-adv-x="1865" 
d="M932 -70q-159 0 -305.5 63t-253 169.5t-170 253t-63.5 306.5t63 306.5t169.5 253t253 169.5t306.5 63q159 0 306 -63t253.5 -169.5t170 -253t63.5 -306.5t-63.5 -306.5t-170 -253t-253 -169.5t-306.5 -63zM932 47q138 0 263.5 53.5t215.5 143.5t143.5 215t53.5 263
t-53.5 263t-144 215t-215.5 143.5t-263 53.5t-263 -53.5t-215 -143.5t-143 -215t-53 -263q0 -184 90 -339.5t245 -245.5t339 -90zM932 580q-54 0 -56 57l-9 417q-1 27 17 44.5t47 17.5q28 0 46.5 -18t17.5 -45l-10 -416q0 -57 -53 -57zM932 332q-32 0 -55.5 22.5t-23.5 53.5
t23.5 53.5t55.5 22.5t55 -22.5t23 -53.5t-23 -53.5t-55 -22.5z" />
    <glyph glyph-name="uni10005F.small" unicode="&#x21;&#x20dd;&#x25cf;" horiz-adv-x="1865" 
d="M932 -70q-159 0 -305.5 63t-253 169.5t-170 253t-63.5 306.5t63 306.5t169.5 253t253 169.5t306.5 63q159 0 306 -63t253.5 -169.5t170 -253t63.5 -306.5t-63.5 -306.5t-170 -253t-253 -169.5t-306.5 -63zM932 577q26 0 40.5 15.5t14.5 43.5l11 426q0 28 -19 46.5
t-48 18.5t-47.5 -18t-18.5 -46l10 -427q0 -59 57 -59zM932 322q33 0 57 23t24 55q0 33 -24 56t-57 23t-57 -23.5t-24 -55.5t24 -55t57 -23z" />
    <glyph glyph-name="uni1000EE.small" unicode="&#x21;&#x20de;" horiz-adv-x="1830" 
d="M438 6q-238 0 -238 235v959q0 236 238 236h954q238 0 238 -236v-959q0 -235 -238 -235h-954zM440 117h950q62 0 95.5 33t33.5 97v947q0 64 -33.5 97.5t-95.5 33.5h-950q-63 0 -96 -33.5t-33 -97.5v-947q0 -64 33 -97t96 -33zM915 581q-53 0 -55 57l-10 416q0 27 18 45
t46 18q29 0 47.5 -18t17.5 -45l-10 -416q-2 -57 -54 -57zM915 333q-32 0 -55.5 22t-23.5 53t23.5 53.5t55.5 22.5t55 -22t23 -54q0 -31 -23 -53t-55 -22z" />
    <glyph glyph-name="uni1000EF.small" unicode="&#x21;&#x20de;&#x25a0;" horiz-adv-x="1830" 
d="M438 6q-238 0 -238 235v959q0 236 238 236h954q238 0 238 -236v-959q0 -235 -238 -235h-954zM915 577q54 0 56 59l10 426q1 28 -18.5 46.5t-48.5 18.5t-47.5 -18t-17.5 -46l9 -427q2 -59 57 -59zM915 322q33 0 57 23t24 55q0 33 -24 56t-57 23t-57 -23.5t-24 -55.5
t24 -55t57 -23z" />
    <glyph glyph-name="uni10004D.small" unicode="&#x2b;&#x20dd;&#x25cf;" horiz-adv-x="1865" 
d="M932 -70q-159 0 -305.5 63t-253 169.5t-170 253t-63.5 306.5t63 306.5t169.5 253t253 169.5t306.5 63q159 0 306 -63t253.5 -169.5t170 -253t63.5 -306.5t-63.5 -306.5t-170 -253t-253 -169.5t-306.5 -63zM559 721q0 -25 17.5 -41.5t43.5 -16.5h252v-253q0 -26 16.5 -43
t42.5 -17q27 0 44 17t17 43v253h252q26 0 43 16.5t17 41.5q0 27 -17 44t-43 17h-252v252q0 27 -17 44t-44 17q-26 0 -42.5 -17t-16.5 -44v-252h-252q-27 0 -44 -17t-17 -44z" />
    <glyph glyph-name="uni1000DC.small" unicode="&#x2b;&#x20de;" horiz-adv-x="1830" 
d="M438 6q-238 0 -238 235v959q0 236 238 236h954q238 0 238 -236v-959q0 -235 -238 -235h-954zM440 117h950q62 0 95.5 33t33.5 97v947q0 64 -33.5 97.5t-95.5 33.5h-950q-63 0 -96 -33.5t-33 -97.5v-947q0 -64 33 -97t96 -33zM611 664q-26 0 -42.5 16t-16.5 41
q0 26 16.5 42.5t42.5 16.5h246v246q0 26 16 42.5t41 16.5q26 0 42.5 -16.5t16.5 -42.5v-246h247q26 0 42 -16.5t16 -42.5q0 -25 -16.5 -41t-41.5 -16h-247v-246q0 -26 -16.5 -42.5t-42.5 -16.5q-25 0 -41 16.5t-16 42.5v246h-246z" />
    <glyph glyph-name="uni1000DD.small" unicode="&#x2b;&#x20de;&#x25a0;" horiz-adv-x="1830" 
d="M438 6q-238 0 -238 235v959q0 236 238 236h954q238 0 238 -236v-959q0 -235 -238 -235h-954zM542 721q0 -25 17.5 -41.5t44.5 -16.5h251v-253q0 -26 16.5 -43t42.5 -17q27 0 44 17t17 43v253h252q26 0 43.5 16.5t17.5 41.5q0 27 -17 44t-44 17h-252v252q0 27 -17 44
t-44 17q-26 0 -42.5 -17t-16.5 -44v-252h-251q-27 0 -44.5 -17t-17.5 -44z" />
    <glyph glyph-name="uni10004F.small" unicode="&#x2212;&#x20dd;&#x25cf;" horiz-adv-x="1865" 
d="M932 -70q-159 0 -305.5 63t-253 169.5t-170 253t-63.5 306.5t63 306.5t169.5 253t253 169.5t306.5 63q159 0 306 -63t253.5 -169.5t170 -253t63.5 -306.5t-63.5 -306.5t-170 -253t-253 -169.5t-306.5 -63zM606 661h652q30 0 48.5 16t18.5 43q0 29 -18 45t-49 16h-652
q-31 0 -49.5 -16t-18.5 -45q0 -27 19 -43t49 -16z" />
    <glyph glyph-name="uni1000DE.small" unicode="&#x2212;&#x20de;" horiz-adv-x="1830" 
d="M438 6q-238 0 -238 235v959q0 236 238 236h954q238 0 238 -236v-959q0 -235 -238 -235h-954zM440 117h950q62 0 95.5 33t33.5 97v947q0 64 -33.5 97.5t-95.5 33.5h-950q-63 0 -96 -33.5t-33 -97.5v-947q0 -64 33 -97t96 -33zM597 663q-29 0 -47 15t-18 42q0 28 17.5 43.5
t47.5 15.5h637q30 0 47.5 -15.5t17.5 -43.5q0 -27 -18 -42t-47 -15h-637z" />
    <glyph glyph-name="uni1000DF.small" unicode="&#x2212;&#x20de;&#x25a0;" horiz-adv-x="1830" 
d="M438 6q-238 0 -238 235v959q0 236 238 236h954q238 0 238 -236v-959q0 -235 -238 -235h-954zM589 661h652q30 0 48.5 16t18.5 43q0 29 -17.5 45t-49.5 16h-652q-31 0 -49 -16t-18 -45q0 -27 18.5 -43t48.5 -16z" />
    <glyph glyph-name="uni100051.small" unicode="&#xd7;&#x20dd;&#x25cf;" horiz-adv-x="1865" 
d="M932 -70q-159 0 -305.5 63t-253 169.5t-170 253t-63.5 306.5t63 306.5t169.5 253t253 169.5t306.5 63q159 0 306 -63t253.5 -169.5t170 -253t63.5 -306.5t-63.5 -306.5t-170 -253t-253 -169.5t-306.5 -63zM654 386q25 0 43 18l235 236l235 -236q20 -18 42 -18q24 0 41 17
t17 41t-17 41l-236 236l236 237q18 18 18 41q0 24 -17 40.5t-41 16.5q-23 0 -40 -18l-238 -236l-237 236q-17 17 -41 17q-23 0 -40 -16.5t-17 -40.5t17 -41l237 -236l-237 -236q-17 -17 -17 -41t17 -41t40 -17z" />
    <glyph glyph-name="uni1000E0.small" unicode="&#xd7;&#x20de;" horiz-adv-x="1830" 
d="M438 6q-238 0 -238 235v959q0 236 238 236h954q238 0 238 -236v-959q0 -235 -238 -235h-954zM440 117h950q62 0 95.5 33t33.5 97v947q0 64 -33.5 97.5t-95.5 33.5h-950q-63 0 -96 -33.5t-33 -97.5v-947q0 -64 33 -97t96 -33zM645 395q-23 0 -39.5 16.5t-16.5 39.5
q0 22 17 39l231 231l-231 231q-17 17 -17 39q0 23 16.5 39t39.5 16t39 -17l231 -230l232 231q18 17 40 17q23 0 39.5 -16t16.5 -39q0 -21 -18 -39l-231 -232l231 -230q17 -19 17 -40q0 -23 -16.5 -39.5t-39.5 -16.5q-25 0 -40 17l-231 230l-230 -230q-16 -17 -40 -17z" />
    <glyph glyph-name="uni1000E1.small" unicode="&#xd7;&#x20de;&#x25a0;" horiz-adv-x="1830" 
d="M438 6q-238 0 -238 235v959q0 236 238 236h954q238 0 238 -236v-959q0 -235 -238 -235h-954zM638 386q26 0 42 18l235 236l236 -236q18 -18 41 -18q25 0 41.5 17t16.5 41t-17 41l-236 236l237 237q17 17 17 41t-17 40.5t-40 16.5q-24 0 -41 -18l-238 -236l-237 236
q-17 17 -40 17q-24 0 -40.5 -16.5t-16.5 -40.5q0 -25 17 -41l236 -236l-236 -236q-17 -16 -17 -41q0 -24 16.5 -41t40.5 -17z" />
    <glyph glyph-name="uni100052.small" unicode="&#xf7;&#x20dd;" horiz-adv-x="1865" 
d="M932 -70q-159 0 -305.5 63t-253 169.5t-170 253t-63.5 306.5t63 306.5t169.5 253t253 169.5t306.5 63q159 0 306 -63t253.5 -169.5t170 -253t63.5 -306.5t-63.5 -306.5t-170 -253t-253 -169.5t-306.5 -63zM932 47q138 0 263.5 53.5t215.5 143.5t143.5 215t53.5 263
t-53.5 263t-144 215t-215.5 143.5t-263 53.5t-263 -53.5t-215 -143.5t-143 -215t-53 -263q0 -184 90 -339.5t245 -245.5t339 -90zM930 924q-35 0 -60 22.5t-25 56.5q0 37 24.5 61t60.5 24q39 0 63.5 -23.5t24.5 -61.5q0 -33 -25 -56t-63 -23zM618 663q-30 0 -47.5 15
t-17.5 42q0 28 17.5 43t47.5 15h628q30 0 47.5 -15t17.5 -43q0 -27 -17.5 -42t-47.5 -15h-628zM930 352q-35 0 -60 23t-25 56q0 37 24.5 61t60.5 24q39 0 63.5 -23.5t24.5 -60.5q0 -34 -25 -57t-63 -23z" />
    <glyph glyph-name="uni100053.small" unicode="&#xf7;&#x20dd;&#x25cf;" horiz-adv-x="1865" 
d="M932 -70q-159 0 -305.5 63t-253 169.5t-170 253t-63.5 306.5t63 306.5t169.5 253t253 169.5t306.5 63q159 0 306 -63t253.5 -169.5t170 -253t63.5 -306.5t-63.5 -306.5t-170 -253t-253 -169.5t-306.5 -63zM930 929q39 0 65 23.5t26 58.5q0 39 -25.5 64t-65.5 25
q-36 0 -61.5 -25.5t-25.5 -63.5q0 -34 25.5 -58t61.5 -24zM610 662h644q31 0 48.5 15t17.5 43q0 29 -17.5 44.5t-48.5 15.5h-644q-31 0 -49 -15.5t-18 -44.5q0 -28 18 -43t49 -15zM930 342q39 0 65 24t26 59q0 38 -25.5 63t-65.5 25q-36 0 -61.5 -25.5t-25.5 -63.5
q0 -34 25.5 -58t61.5 -24z" />
    <glyph glyph-name="uni1000E2.small" unicode="&#xf7;&#x20de;" horiz-adv-x="1830" 
d="M438 6q-238 0 -238 235v959q0 236 238 236h954q238 0 238 -236v-959q0 -235 -238 -235h-954zM440 117h950q62 0 95.5 33t33.5 97v947q0 64 -33.5 97.5t-95.5 33.5h-950q-63 0 -96 -33.5t-33 -97.5v-947q0 -64 33 -97t96 -33zM914 925q-36 0 -60.5 22.5t-24.5 55.5
q0 37 24.5 61.5t60.5 24.5q38 0 62.5 -24t24.5 -61q0 -34 -24.5 -56.5t-62.5 -22.5zM601 663q-30 0 -47.5 15t-17.5 42q0 28 17.5 43.5t47.5 15.5h629q30 0 47 -15.5t17 -43.5q0 -27 -17.5 -42t-46.5 -15h-629zM914 353q-36 0 -60.5 23t-24.5 56q0 37 24.5 61t60.5 24
q38 0 62.5 -24t24.5 -61q0 -33 -24.5 -56t-62.5 -23z" />
    <glyph glyph-name="uni1000E3.small" unicode="&#xf7;&#x20de;&#x25a0;" horiz-adv-x="1830" 
d="M438 6q-238 0 -238 235v959q0 236 238 236h954q238 0 238 -236v-959q0 -235 -238 -235h-954zM914 929q39 0 64.5 23.5t25.5 58.5q0 39 -25 64t-65 25q-37 0 -62.5 -25.5t-25.5 -63.5q0 -34 25.5 -58t62.5 -24zM593 662h644q31 0 49 15t18 43q0 29 -18 44.5t-49 15.5h-644
q-31 0 -49 -15.5t-18 -44.5q0 -28 18 -43t49 -15zM914 342q39 0 64.5 24t25.5 59q0 38 -25 63t-65 25q-37 0 -62.5 -25t-25.5 -64q0 -34 25.5 -58t62.5 -24z" />
    <glyph glyph-name="uni100055.small" unicode="&#x3d;&#x20dd;&#x25cf;" horiz-adv-x="1865" 
d="M932 -70q-159 0 -305.5 63t-253 169.5t-170 253t-63.5 306.5t63 306.5t169.5 253t253 169.5t306.5 63q159 0 306 -63t253.5 -169.5t170 -253t63.5 -306.5t-63.5 -306.5t-170 -253t-253 -169.5t-306.5 -63zM622 813h618q28 0 45 14.5t17 40.5t-17 40.5t-45 14.5h-618
q-28 0 -45 -14.5t-17 -40.5t17 -40.5t45 -14.5zM622 519h618q28 0 45 14t17 40q0 27 -17 41.5t-45 14.5h-618q-28 0 -45 -14.5t-17 -41.5q0 -26 17 -40t45 -14z" />
    <glyph glyph-name="uni1000E4.small" unicode="&#x3d;&#x20de;" horiz-adv-x="1830" 
d="M438 6q-238 0 -238 235v959q0 236 238 236h954q238 0 238 -236v-959q0 -235 -238 -235h-954zM440 117h950q62 0 95.5 33t33.5 97v947q0 64 -33.5 97.5t-95.5 33.5h-950q-63 0 -96 -33.5t-33 -97.5v-947q0 -64 33 -97t96 -33zM613 811q-27 0 -43.5 13.5t-16.5 39.5
q0 53 60 53h603q28 0 44 -13.5t16 -39.5t-16.5 -39.5t-43.5 -13.5h-603zM613 525q-27 0 -43.5 13.5t-16.5 38.5q0 26 16 40t44 14h603q28 0 44 -14t16 -40q0 -25 -16.5 -38.5t-43.5 -13.5h-603z" />
    <glyph glyph-name="uni1000E5.small" unicode="&#x3d;&#x20de;&#x25a0;" horiz-adv-x="1830" 
d="M438 6q-238 0 -238 235v959q0 236 238 236h954q238 0 238 -236v-959q0 -235 -238 -235h-954zM606 813h617q28 0 45 14.5t17 40.5q0 27 -16.5 41t-45.5 14h-617q-29 0 -46 -14.5t-17 -40.5t17 -40.5t46 -14.5zM606 519h617q29 0 45.5 14t16.5 40q0 56 -62 56h-617
q-29 0 -46 -14.5t-17 -41.5q0 -26 17 -40t46 -14z" />
    <glyph glyph-name="uni100058.small" unicode="&#x3c;&#x20dd;" horiz-adv-x="1865" 
d="M932 -70q-159 0 -305.5 63t-253 169.5t-170 253t-63.5 306.5t63 306.5t169.5 253t253 169.5t306.5 63q159 0 306 -63t253.5 -169.5t170 -253t63.5 -306.5t-63.5 -306.5t-170 -253t-253 -169.5t-306.5 -63zM932 47q138 0 263.5 53.5t215.5 143.5t143.5 215t53.5 263
t-53.5 263t-144 215t-215.5 143.5t-263 53.5t-263 -53.5t-215 -143.5t-143 -215t-53 -263q0 -184 90 -339.5t245 -245.5t339 -90zM1131 409q-17 0 -33 8l-462 243q-41 22 -41 61q0 38 41 61l462 250q15 8 35 8q24 0 40 -15.5t16 -38.5q0 -36 -41 -57l-400 -203v-5l400 -201
q41 -18 41 -56q0 -23 -16.5 -39t-41.5 -16z" />
    <glyph glyph-name="uni100059.small" unicode="&#x3c;&#x20dd;&#x25cf;" horiz-adv-x="1865" 
d="M932 -70q-159 0 -305.5 63t-253 169.5t-170 253t-63.5 306.5t63 306.5t169.5 253t253 169.5t306.5 63q159 0 306 -63t253.5 -169.5t170 -253t63.5 -306.5t-63.5 -306.5t-170 -253t-253 -169.5t-306.5 -63zM1138 401q25 0 42 16.5t17 40.5q0 38 -42 58l-410 206v4l410 209
q42 20 42 59q0 24 -16.5 40t-41.5 16q-18 0 -36 -9l-474 -256q-42 -24 -42 -63q0 -41 42 -64l474 -248q17 -9 35 -9z" />
    <glyph glyph-name="uni1000E6.small" unicode="&#x3c;&#x20de;" horiz-adv-x="1830" 
d="M438 6q-238 0 -238 235v959q0 236 238 236h954q238 0 238 -236v-959q0 -235 -238 -235h-954zM440 117h950q62 0 95.5 33t33.5 97v947q0 64 -33.5 97.5t-95.5 33.5h-950q-63 0 -96 -33.5t-33 -97.5v-947q0 -64 33 -97t96 -33zM1115 410q-18 0 -34 8l-461 242
q-41 21 -41 62q0 39 41 61l461 250q15 8 35 8q24 0 40 -15.5t16 -38.5q0 -37 -40 -57l-400 -204v-4l400 -201q40 -19 40 -56q0 -24 -16 -39.5t-41 -15.5z" />
    <glyph glyph-name="uni1000E7.small" unicode="&#x3c;&#x20de;&#x25a0;" horiz-adv-x="1830" 
d="M438 6q-238 0 -238 235v959q0 236 238 236h954q238 0 238 -236v-959q0 -235 -238 -235h-954zM1121 401q26 0 43 16.5t17 40.5q0 38 -42 58l-411 206v4l411 209q42 20 42 59q0 23 -17 39.5t-42 16.5q-18 0 -36 -9l-473 -256q-43 -25 -43 -63q0 -41 43 -64l473 -248
q16 -9 35 -9z" />
    <glyph glyph-name="uni100056.small" unicode="&#x3e;&#x20dd;" horiz-adv-x="1865" 
d="M932 -70q-159 0 -305.5 63t-253 169.5t-170 253t-63.5 306.5t63 306.5t169.5 253t253 169.5t306.5 63q159 0 306 -63t253.5 -169.5t170 -253t63.5 -306.5t-63.5 -306.5t-170 -253t-253 -169.5t-306.5 -63zM932 47q138 0 263.5 53.5t215.5 143.5t143.5 215t53.5 263
t-53.5 263t-144 215t-215.5 143.5t-263 53.5t-263 -53.5t-215 -143.5t-143 -215t-53 -263q0 -184 90 -339.5t245 -245.5t339 -90zM732 409q-25 0 -41 16t-16 39q0 38 40 56l400 201v5l-400 203q-40 21 -40 57q0 23 15.5 38.5t40.5 15.5q20 0 35 -8l461 -250q41 -22 41 -61
q0 -40 -41 -61l-461 -243q-18 -8 -34 -8z" />
    <glyph glyph-name="uni100057.small" unicode="&#x3e;&#x20dd;&#x25cf;" horiz-adv-x="1865" 
d="M932 -70q-159 0 -305.5 63t-253 169.5t-170 253t-63.5 306.5t63 306.5t169.5 253t253 169.5t306.5 63q159 0 306 -63t253.5 -169.5t170 -253t63.5 -306.5t-63.5 -306.5t-170 -253t-253 -169.5t-306.5 -63zM727 401q19 0 35 9l473 248q43 23 43 64q0 39 -43 63l-473 256
q-18 9 -36 9q-25 0 -42 -16.5t-17 -39.5q0 -39 42 -59l411 -209v-4l-411 -206q-42 -20 -42 -58q0 -24 17.5 -40.5t42.5 -16.5z" />
    <glyph glyph-name="uni1000E8.small" unicode="&#x3e;&#x20de;" horiz-adv-x="1830" 
d="M438 6q-238 0 -238 235v959q0 236 238 236h954q238 0 238 -236v-959q0 -235 -238 -235h-954zM440 117h950q62 0 95.5 33t33.5 97v947q0 64 -33.5 97.5t-95.5 33.5h-950q-63 0 -96 -33.5t-33 -97.5v-947q0 -64 33 -97t96 -33zM716 410q-25 0 -41.5 15.5t-16.5 39.5
q0 37 41 56l400 201v4l-400 204q-41 20 -41 57q0 23 16 38.5t40 15.5q20 0 35 -8l461 -250q41 -22 41 -61q0 -41 -41 -62l-461 -242q-16 -8 -33 -8z" />
    <glyph glyph-name="uni1000E9.small" unicode="&#x3e;&#x20de;&#x25a0;" horiz-adv-x="1830" 
d="M438 6q-238 0 -238 235v959q0 236 238 236h954q238 0 238 -236v-959q0 -235 -238 -235h-954zM710 401q18 0 35 9l474 248q42 23 42 64q0 39 -42 63l-474 256q-17 9 -36 9q-25 0 -41.5 -16t-16.5 -40q0 -39 42 -59l410 -209v-4l-410 -206q-42 -20 -42 -58q0 -24 17 -40.5
t42 -16.5z" />
    <glyph glyph-name="uni10005A.small" unicode="&#x23;&#x20dd;" horiz-adv-x="1865" 
d="M932 -70q-159 0 -305.5 63t-253 169.5t-170 253t-63.5 306.5t63 306.5t169.5 253t253 169.5t306.5 63q159 0 306 -63t253.5 -169.5t170 -253t63.5 -306.5t-63.5 -306.5t-170 -253t-253 -169.5t-306.5 -63zM932 47q138 0 263.5 53.5t215.5 143.5t143.5 215t53.5 263
t-53.5 263t-144 215t-215.5 143.5t-263 53.5t-263 -53.5t-215 -143.5t-143 -215t-53 -263q0 -184 90 -339.5t245 -245.5t339 -90zM734 346q-22 0 -35 15.5t-9 37.5l33 160h-77q-17 0 -28.5 11.5t-11.5 29.5q0 20 13.5 33.5t33.5 13.5h89l34 165h-74q-18 0 -29 12t-11 30
q0 20 13 33.5t34 13.5h86l35 165q8 40 51 40q22 0 35 -16t8 -37l-32 -152h152l35 165q8 40 50 40q22 0 35 -15.5t9 -37.5l-31 -152h75q17 0 28.5 -12t11.5 -30q0 -20 -13.5 -33.5t-33.5 -13.5h-87l-35 -165h73q18 0 29 -11.5t11 -29.5q0 -20 -13 -33.5t-34 -13.5h-84
l-37 -173q-7 -40 -52 -40q-22 0 -34.5 15.5t-8.5 37.5l34 159h-152l-36 -172q-9 -40 -50 -40zM834 640h160l38 179h-161z" />
    <glyph glyph-name="uni10005B.small" unicode="&#x23;&#x20dd;&#x25cf;" horiz-adv-x="1865" 
d="M932 -70q-159 0 -305.5 63t-253 169.5t-170 253t-63.5 306.5t63 306.5t169.5 253t253 169.5t306.5 63q159 0 306 -63t253.5 -169.5t170 -253t63.5 -306.5t-63.5 -306.5t-170 -253t-253 -169.5t-306.5 -63zM729 336q42 0 51 42l38 176h155l-35 -163q-4 -22 9 -38.5
t36 -16.5q45 0 54 42l36 177h87q22 0 35.5 14t13.5 35q0 18 -11.5 30t-30.5 12h-74l36 169h88q22 0 35.5 14t13.5 35q0 19 -11.5 31t-30.5 12h-76l32 155q4 22 -9.5 38.5t-36.5 16.5q-43 0 -52 -42l-36 -168h-154l32 155q4 22 -9 38.5t-36 16.5q-44 0 -53 -42l-35 -168h-88
q-22 0 -35.5 -14t-13.5 -36q0 -18 11.5 -30t30.5 -12h76l-35 -169h-91q-22 0 -35.5 -14t-13.5 -34q0 -19 11.5 -31t30.5 -12h78l-34 -164q-4 -22 9.5 -38.5t36.5 -16.5zM831 638l38 184h165l-38 -184h-165z" />
    <glyph glyph-name="uni1000EA.small" unicode="&#x23;&#x20de;" horiz-adv-x="1830" 
d="M438 6q-238 0 -238 235v959q0 236 238 236h954q238 0 238 -236v-959q0 -235 -238 -235h-954zM440 117h950q62 0 95.5 33t33.5 97v947q0 64 -33.5 97.5t-95.5 33.5h-950q-63 0 -96 -33.5t-33 -97.5v-947q0 -64 33 -97t96 -33zM718 346q-22 0 -35.5 16t-9.5 37l33 161h-76
q-18 0 -29 11.5t-11 29.5q0 20 13 33.5t33 13.5h89l35 165h-74q-18 0 -29.5 11.5t-11.5 29.5q0 20 13.5 33.5t33.5 13.5h87l34 165q9 41 51 41q22 0 35 -16t9 -37l-32 -153h151l35 165q9 41 50 41q22 0 35.5 -16t9.5 -37l-32 -153h75q18 0 29 -11.5t11 -29.5
q0 -20 -13 -33.5t-34 -13.5h-86l-35 -165h72q18 0 29.5 -11.5t11.5 -29.5q0 -20 -13.5 -33.5t-33.5 -13.5h-85l-36 -173q-9 -41 -52 -41q-22 0 -35 16t-8 37l33 160h-151l-37 -172q-8 -41 -49 -41zM817 640h161l37 179h-161z" />
    <glyph glyph-name="uni1000EB.small" unicode="&#x23;&#x20de;&#x25a0;" horiz-adv-x="1830" 
d="M438 6q-238 0 -238 235v959q0 236 238 236h954q238 0 238 -236v-959q0 -235 -238 -235h-954zM712 336q44 0 51 42l38 176h155l-34 -163q-4 -22 9 -38.5t35 -16.5q47 0 54 42l37 177h87q21 0 34.5 14t13.5 35q0 18 -11.5 30t-29.5 12h-75l36 169h89q21 0 34.5 14t13.5 35
q0 19 -11.5 31t-29.5 12h-77l33 155q4 22 -9.5 38.5t-36.5 16.5q-44 0 -52 -42l-36 -168h-155l33 155q4 22 -9 38.5t-36 16.5q-45 0 -53 -42l-35 -168h-89q-21 0 -35 -14t-14 -36q0 -18 12 -30t30 -12h76l-35 -169h-91q-21 0 -35 -14t-14 -34q0 -19 12 -31t30 -12h79
l-35 -164q-4 -22 9.5 -38.5t36.5 -16.5zM815 638l38 184h165l-39 -184h-164z" />
    <glyph glyph-name="uni100060.small" unicode="&#x2717;&#x20dd;" horiz-adv-x="1865" 
d="M932 -70q-159 0 -305.5 63t-253 169.5t-170 253t-63.5 306.5t63 306.5t169.5 253t253 169.5t306.5 63q159 0 306 -63t253.5 -169.5t170 -253t63.5 -306.5t-63.5 -306.5t-170 -253t-253 -169.5t-306.5 -63zM932 47q138 0 263.5 53.5t215.5 143.5t143.5 215t53.5 263
t-53.5 263t-144 215t-215.5 143.5t-263 53.5t-263 -53.5t-215 -143.5t-143 -215t-53 -263q0 -184 90 -339.5t245 -245.5t339 -90zM662 394q-24 0 -40 16.5t-16 39.5q0 25 17 39l230 231l-230 231q-17 16 -17 40q0 23 16 38.5t40 15.5q23 0 39 -16l231 -231l232 231
q18 18 39 18q23 0 39.5 -16.5t16.5 -39.5q0 -22 -17 -39l-231 -232l230 -230q17 -16 17 -40q0 -23 -16 -39.5t-40 -16.5q-23 0 -40 17l-230 231l-230 -231q-17 -17 -40 -17z" />
    <glyph glyph-name="uni100061.small" unicode="&#x2717;&#x20dd;&#x25cf;" horiz-adv-x="1865" 
d="M932 -70q-159 0 -305.5 63t-253 169.5t-170 253t-63.5 306.5t63 306.5t169.5 253t253 169.5t306.5 63q159 0 306 -63t253.5 -169.5t170 -253t63.5 -306.5t-63.5 -306.5t-170 -253t-253 -169.5t-306.5 -63zM654 386q25 0 43 18l235 236l235 -236q20 -18 42 -18q24 0 41 17
t17 41t-17 41l-236 236l236 237q18 18 18 41q0 24 -17 40.5t-41 16.5q-23 0 -40 -18l-238 -236l-237 236q-17 17 -41 17q-23 0 -40 -16.5t-17 -40.5t17 -41l237 -236l-237 -236q-17 -17 -17 -41t17 -41t40 -17z" />
    <glyph glyph-name="uni1000F1.small" unicode="&#x2717;&#x20de;&#x25a0;" horiz-adv-x="1830" 
d="M438 6q-238 0 -238 235v959q0 236 238 236h954q238 0 238 -236v-959q0 -235 -238 -235h-954zM638 386q26 0 42 18l235 236l236 -236q18 -18 41 -18q25 0 41.5 17t16.5 41t-17 41l-236 236l237 237q17 17 17 41t-17 40.5t-40 16.5q-24 0 -41 -18l-238 -236l-237 236
q-17 17 -40 17q-24 0 -40.5 -16.5t-16.5 -40.5q0 -25 17 -41l236 -236l-236 -236q-17 -16 -17 -41q0 -24 16.5 -41t40.5 -17z" />
    <glyph glyph-name="uni100062.small" unicode="&#x2713;&#x20dd;" horiz-adv-x="1865" 
d="M932 -70q-159 0 -305.5 63t-253 169.5t-170 253t-63.5 306.5t63 306.5t169.5 253t253 169.5t306.5 63q159 0 306 -63t253.5 -169.5t170 -253t63.5 -306.5t-63.5 -306.5t-170 -253t-253 -169.5t-306.5 -63zM932 47q138 0 263.5 53.5t215.5 143.5t143.5 215t53.5 263
t-53.5 263t-144 215t-215.5 143.5t-263 53.5t-263 -53.5t-215 -143.5t-143 -215t-53 -263q0 -184 90 -339.5t245 -245.5t339 -90zM847 349q-33 0 -59 32l-200 243q-16 22 -16 44q0 23 15.5 39t37.5 16q30 0 51 -28l168 -211l340 541q20 31 48 31q22 0 39 -14.5t17 -36.5
q0 -18 -16 -44l-370 -580q-20 -32 -55 -32z" />
    <glyph glyph-name="uni100063.small" unicode="&#x2713;&#x20dd;&#x25cf;" horiz-adv-x="1865" 
d="M932 -70q-159 0 -305.5 63t-253 169.5t-170 253t-63.5 306.5t63 306.5t169.5 253t253 169.5t306.5 63q159 0 306 -63t253.5 -169.5t170 -253t63.5 -306.5t-63.5 -306.5t-170 -253t-253 -169.5t-306.5 -63zM845 341q36 0 57 33l378 593q17 26 17 46q0 23 -17.5 38
t-40.5 15q-29 0 -49 -32l-348 -554l-172 216q-22 29 -52 29q-23 0 -39.5 -17t-16.5 -40t17 -45l205 -249q25 -33 61 -33z" />
    <glyph glyph-name="uni1000F3.small" unicode="&#x2713;&#x20de;&#x25a0;" horiz-adv-x="1830" 
d="M438 6q-238 0 -238 235v959q0 236 238 236h954q238 0 238 -236v-959q0 -235 -238 -235h-954zM828 341q35 0 58 33l378 593q17 30 17 46q0 23 -17.5 38t-40.5 15q-30 0 -50 -32l-348 -554l-172 216q-21 29 -52 29q-23 0 -39 -17t-16 -40q0 -25 17 -45l204 -249
q26 -33 61 -33z" />
    <glyph glyph-name="uni10006A.small" unicode="&#x25c0;&#x20dd;" horiz-adv-x="1865" 
d="M932 -70q-159 0 -305.5 63t-253 169.5t-170 253t-63.5 306.5t63 306.5t169.5 253t253 169.5t306.5 63q159 0 306 -63t253.5 -169.5t170 -253t63.5 -306.5t-63.5 -306.5t-170 -253t-253 -169.5t-306.5 -63zM932 47q138 0 263.5 53.5t215.5 143.5t143.5 215t53.5 263
t-53.5 263t-144 215t-215.5 143.5t-263 53.5t-263 -53.5t-215 -143.5t-143 -215t-53 -263q0 -184 90 -339.5t245 -245.5t339 -90zM618 680q-24 14 -23.5 40.5t23.5 40.5l447 266q24 15 49 5t25 -37v-548q0 -27 -24 -37.5t-50 5.5z" />
    <glyph glyph-name="uni10006B.small" unicode="&#x25c0;&#x20dd;&#x25cf;" horiz-adv-x="1865" 
d="M932 -70q-159 0 -305.5 63t-253 169.5t-170 253t-63.5 306.5t63 306.5t169.5 253t253 169.5t306.5 63q159 0 306 -63t253.5 -169.5t170 -253t63.5 -306.5t-63.5 -306.5t-170 -253t-253 -169.5t-306.5 -63zM612 680l458 -272q26 -16 51 -5.5t25 37.5v563q0 27 -25.5 37.5
t-50.5 -5.5l-458 -272q-24 -14 -24.5 -41.5t24.5 -41.5z" />
    <glyph glyph-name="uni1000FA.small" unicode="&#x25c0;&#x20de;" horiz-adv-x="1830" 
d="M438 6q-238 0 -238 235v959q0 236 238 236h954q238 0 238 -236v-959q0 -235 -238 -235h-954zM440 117h950q62 0 95.5 33t33.5 97v947q0 64 -33.5 97.5t-95.5 33.5h-950q-63 0 -96 -33.5t-33 -97.5v-947q0 -64 33 -97t96 -33zM602 681q-24 13 -24 40t24 40l446 267
q24 15 49.5 4.5t25.5 -36.5v-549q0 -26 -24.5 -36.5t-50.5 5.5z" />
    <glyph glyph-name="uni1000FB.small" unicode="&#x25c0;&#x20de;&#x25a0;" horiz-adv-x="1830" 
d="M438 6q-238 0 -238 235v959q0 236 238 236h954q238 0 238 -236v-959q0 -235 -238 -235h-954zM595 680l458 -272q27 -16 52 -5.5t25 37.5v563q0 27 -26 37.5t-51 -5.5l-458 -272q-24 -14 -24.5 -41.5t24.5 -41.5z" />
    <glyph glyph-name="uni10006C.small" unicode="&#x25b6;&#x20dd;" horiz-adv-x="1865" 
d="M932 -70q-159 0 -305.5 63t-253 169.5t-170 253t-63.5 306.5t63 306.5t169.5 253t253 169.5t306.5 63q159 0 306 -63t253.5 -169.5t170 -253t63.5 -306.5t-63.5 -306.5t-170 -253t-253 -169.5t-306.5 -63zM932 47q138 0 263.5 53.5t215.5 143.5t143.5 215t53.5 263
t-53.5 263t-144 215t-215.5 143.5t-263 53.5t-263 -53.5t-215 -143.5t-143 -215t-53 -263q0 -184 90 -339.5t245 -245.5t339 -90zM1231 680l-446 -265q-26 -16 -50.5 -5.5t-24.5 37.5v548q0 27 25 37t50 -5l446 -266q23 -14 23.5 -40.5t-23.5 -40.5z" />
    <glyph glyph-name="uni10006D.small" unicode="&#x25b6;&#x20dd;&#x25cf;" horiz-adv-x="1865" 
d="M932 -70q-159 0 -305.5 63t-253 169.5t-170 253t-63.5 306.5t63 306.5t169.5 253t253 169.5t306.5 63q159 0 306 -63t253.5 -169.5t170 -253t63.5 -306.5t-63.5 -306.5t-170 -253t-253 -169.5t-306.5 -63zM1240 679q25 14 24.5 41.5t-24.5 41.5l-458 273q-25 15 -50.5 5
t-25.5 -37v-563q0 -27 25 -37.5t51 5.5z" />
    <glyph glyph-name="uni1000FC.small" unicode="&#x25b6;&#x20de;" horiz-adv-x="1830" 
d="M438 6q-238 0 -238 235v959q0 236 238 236h954q238 0 238 -236v-959q0 -235 -238 -235h-954zM440 117h950q62 0 95.5 33t33.5 97v947q0 64 -33.5 97.5t-95.5 33.5h-950q-63 0 -96 -33.5t-33 -97.5v-947q0 -64 33 -97t96 -33zM1215 681l-447 -265q-26 -16 -50 -5.5
t-24 36.5v549q0 26 25 36.5t49 -4.5l447 -267q23 -14 23.5 -40t-23.5 -40z" />
    <glyph glyph-name="uni1000FD.small" unicode="&#x25b6;&#x20de;&#x25a0;" horiz-adv-x="1830" 
d="M438 6q-238 0 -238 235v959q0 236 238 236h954q238 0 238 -236v-959q0 -235 -238 -235h-954zM1224 679q24 14 24 41.5t-24 41.5l-459 273q-24 15 -50 5t-26 -37v-563q0 -27 25 -37.5t51 5.5z" />
    <glyph glyph-name="uni100066.small" unicode="&#x25b2;&#x20dd;" horiz-adv-x="1865" 
d="M932 -70q-159 0 -305.5 63t-253 169.5t-170 253t-63.5 306.5t63 306.5t169.5 253t253 169.5t306.5 63q159 0 306 -63t253.5 -169.5t170 -253t63.5 -306.5t-63.5 -306.5t-170 -253t-253 -169.5t-306.5 -63zM932 47q138 0 263.5 53.5t215.5 143.5t143.5 215t53.5 263
t-53.5 263t-144 215t-215.5 143.5t-263 53.5t-263 -53.5t-215 -143.5t-143 -215t-53 -263q0 -184 90 -339.5t245 -245.5t339 -90zM1207 482h-550q-26 0 -36 25.5t5 49.5l266 446q14 24 40.5 24.5t40.5 -24.5l265 -446q16 -26 5.5 -50.5t-36.5 -24.5z" />
    <glyph glyph-name="uni100067.small" unicode="&#x25b2;&#x20dd;&#x25cf;" horiz-adv-x="1865" 
d="M932 -70q-159 0 -305.5 63t-253 169.5t-170 253t-63.5 306.5t63 306.5t169.5 253t253 169.5t306.5 63q159 0 306 -63t253.5 -169.5t170 -253t63.5 -306.5t-63.5 -306.5t-170 -253t-253 -169.5t-306.5 -63zM1213 476q28 0 38 25t-6 51l-271 459q-15 24 -42.5 24t-41.5 -24
l-273 -459q-15 -25 -4.5 -50.5t37.5 -25.5h563z" />
    <glyph glyph-name="uni1000F6.small" unicode="&#x25b2;&#x20de;" horiz-adv-x="1830" 
d="M438 6q-238 0 -238 235v959q0 236 238 236h954q238 0 238 -236v-959q0 -235 -238 -235h-954zM440 117h950q62 0 95.5 33t33.5 97v947q0 64 -33.5 97.5t-95.5 33.5h-950q-63 0 -96 -33.5t-33 -97.5v-947q0 -64 33 -97t96 -33zM1190 483h-549q-26 0 -36.5 25t4.5 49
l266 447q14 24 40.5 24t41.5 -24l264 -447q16 -25 6 -49.5t-37 -24.5z" />
    <glyph glyph-name="uni1000F7.small" unicode="&#x25b2;&#x20de;&#x25a0;" horiz-adv-x="1830" 
d="M438 6q-238 0 -238 235v959q0 236 238 236h954q238 0 238 -236v-959q0 -235 -238 -235h-954zM1197 476q27 0 37 25t-6 51l-271 459q-14 24 -41.5 24t-41.5 -24l-273 -459q-15 -25 -5 -50.5t37 -25.5h564z" />
    <glyph glyph-name="uni100068.small" unicode="&#x25bc;&#x20dd;" horiz-adv-x="1865" 
d="M932 -70q-159 0 -305.5 63t-253 169.5t-170 253t-63.5 306.5t63 306.5t169.5 253t253 169.5t306.5 63q159 0 306 -63t253.5 -169.5t170 -253t63.5 -306.5t-63.5 -306.5t-170 -253t-253 -169.5t-306.5 -63zM932 47q138 0 263.5 53.5t215.5 143.5t143.5 215t53.5 263
t-53.5 263t-144 215t-215.5 143.5t-263 53.5t-263 -53.5t-215 -143.5t-143 -215t-53 -263q0 -184 90 -339.5t245 -245.5t339 -90zM1207 948q26 0 36.5 -24t-5.5 -50l-265 -447q-14 -24 -40.5 -24t-40.5 24l-266 447q-15 24 -5 49t36 25h550z" />
    <glyph glyph-name="uni100069.small" unicode="&#x25bc;&#x20dd;&#x25cf;" horiz-adv-x="1865" 
d="M932 -70q-159 0 -305.5 63t-253 169.5t-170 253t-63.5 306.5t63 306.5t169.5 253t253 169.5t306.5 63q159 0 306 -63t253.5 -169.5t170 -253t63.5 -306.5t-63.5 -306.5t-170 -253t-253 -169.5t-306.5 -63zM1213 956h-564q-27 0 -37 -26t5 -51l273 -458q14 -24 41 -24.5
t42 24.5l271 458q16 27 6 52t-37 25z" />
    <glyph glyph-name="uni1000F8.small" unicode="&#x25bc;&#x20de;" horiz-adv-x="1830" 
d="M438 6q-238 0 -238 235v959q0 236 238 236h954q238 0 238 -236v-959q0 -235 -238 -235h-954zM440 117h950q62 0 95.5 33t33.5 97v947q0 64 -33.5 97.5t-95.5 33.5h-950q-63 0 -96 -33.5t-33 -97.5v-947q0 -64 33 -97t96 -33zM1190 949q27 0 37 -24.5t-6 -50.5l-264 -446
q-15 -25 -41.5 -24.5t-40.5 24.5l-266 446q-15 24 -4.5 49.5t36.5 25.5h549z" />
    <glyph glyph-name="uni1000F9.small" unicode="&#x25bc;&#x20de;&#x25a0;" horiz-adv-x="1830" 
d="M438 6q-238 0 -238 235v959q0 236 238 236h954q238 0 238 -236v-959q0 -235 -238 -235h-954zM1196 956h-563q-27 0 -37.5 -26t4.5 -51l273 -458q14 -24 41.5 -24.5t42.5 24.5l271 458q16 27 5.5 52t-37.5 25z" />
    <glyph glyph-name="uni1000C8.small" unicode="&#x30;&#x20de;" horiz-adv-x="1830" 
d="M438 6q-238 0 -238 235v959q0 236 238 236h954q238 0 238 -236v-959q0 -235 -238 -235h-954zM440 117h950q62 0 95.5 33t33.5 97v947q0 64 -33.5 97.5t-95.5 33.5h-950q-63 0 -96 -33.5t-33 -97.5v-947q0 -64 33 -97t96 -33zM915 352q-121 0 -196 102t-75 268t75 268
t196 102t196 -102t75 -268t-75 -268t-196 -102zM915 442q74 0 119 77t45 203t-45 203t-119 77t-119 -77t-45 -203t45 -203t119 -77z" />
    <glyph glyph-name="uni1000C9.small" unicode="&#x30;&#x20de;&#x25a0;" horiz-adv-x="1830" 
d="M438 6q-238 0 -238 235v959q0 236 238 236h954q238 0 238 -236v-959q0 -235 -238 -235h-954zM915 342q125 0 201.5 105t76.5 275t-76.5 275t-201.5 105t-201.5 -105t-76.5 -275t76.5 -275t201.5 -105zM915 435q-75 0 -121.5 79.5t-46.5 207.5t46.5 207.5t121.5 79.5
t121.5 -79.5t46.5 -207.5t-46.5 -207.5t-121.5 -79.5z" />
    <glyph glyph-name="uni1000CA.small" unicode="&#x31;&#x20de;" horiz-adv-x="1830" 
d="M438 6q-238 0 -238 235v959q0 236 238 236h954q238 0 238 -236v-959q0 -235 -238 -235h-954zM440 117h950q62 0 95.5 33t33.5 97v947q0 64 -33.5 97.5t-95.5 33.5h-950q-63 0 -96 -33.5t-33 -97.5v-947q0 -64 33 -97t96 -33zM954 367q-26 0 -40.5 16.5t-14.5 45.5v528h-5
l-112 -73q-16 -12 -33 -12q-16 0 -28 12.5t-12 29.5q0 25 22 39l146 98q40 28 74 28q28 0 43.5 -16.5t15.5 -46.5v-587q0 -29 -14.5 -45.5t-41.5 -16.5z" />
    <glyph glyph-name="uni1000CB.small" unicode="&#x31;&#x20de;&#x25a0;" horiz-adv-x="1830" 
d="M438 6q-238 0 -238 235v959q0 236 238 236h954q238 0 238 -236v-959q0 -235 -238 -235h-954zM955 358q28 0 43 17t15 46v603q0 31 -16 47.5t-45 16.5q-36 0 -76 -28l-150 -101q-23 -16 -23 -41q0 -17 12 -30t30 -13q15 0 34 13l114 74h6v-541q0 -29 15 -46t41 -17z" />
    <glyph glyph-name="uni1000CC.small" unicode="&#x32;&#x20de;" horiz-adv-x="1830" 
d="M438 6q-238 0 -238 235v959q0 236 238 236h954q238 0 238 -236v-959q0 -235 -238 -235h-954zM440 117h950q62 0 95.5 33t33.5 97v947q0 64 -33.5 97.5t-95.5 33.5h-950q-63 0 -96 -33.5t-33 -97.5v-947q0 -64 33 -97t96 -33zM738 369q-23 0 -36.5 12.5t-13.5 33.5
q0 22 19 42l254 275q31 33 47.5 52.5t31 48.5t14.5 56q0 51 -36 82.5t-94 31.5q-56 0 -92.5 -30.5t-52.5 -75.5q-20 -36 -49 -36q-21 0 -33.5 12.5t-12.5 32.5q0 15 4 30q17 67 82.5 111.5t148.5 44.5q106 0 170 -53.5t64 -142.5q0 -58 -28.5 -107t-88.5 -114l-195 -209v-6
h299q21 0 34 -12.5t13 -33.5q0 -20 -13.5 -32.5t-33.5 -12.5h-402z" />
    <glyph glyph-name="uni1000CD.small" unicode="&#x32;&#x20de;&#x25a0;" horiz-adv-x="1830" 
d="M438 6q-238 0 -238 235v959q0 236 238 236h954q238 0 238 -236v-959q0 -235 -238 -235h-954zM734 359h412q21 0 34.5 13t13.5 35q0 21 -13.5 34t-34.5 13h-305v5l198 215q62 66 91.5 116.5t29.5 110.5q0 90 -66 145.5t-175 55.5q-84 0 -151.5 -45.5t-85.5 -114.5
q-5 -15 -5 -31q0 -21 13 -34t35 -13q32 0 51 38q16 46 53.5 76.5t94.5 30.5q60 0 96.5 -32t36.5 -84q0 -28 -15 -58t-31.5 -49.5t-48.5 -53.5l-261 -282q-19 -20 -19 -43q0 -22 14 -35t38 -13z" />
    <glyph glyph-name="uni1000CE.small" unicode="&#x33;&#x20de;" horiz-adv-x="1830" 
d="M438 6q-238 0 -238 235v959q0 236 238 236h954q238 0 238 -236v-959q0 -235 -238 -235h-954zM440 117h950q62 0 95.5 33t33.5 97v947q0 64 -33.5 97.5t-95.5 33.5h-950q-63 0 -96 -33.5t-33 -97.5v-947q0 -64 33 -97t96 -33zM912 352q-93 0 -161.5 41.5t-85.5 108.5
q-4 13 -4 28q0 21 13.5 34.5t34.5 13.5q35 0 49 -37q14 -45 54 -72.5t102 -27.5q71 0 115 34t44 90q0 55 -43.5 90t-111.5 35h-57q-19 0 -31.5 12t-12.5 31t12.5 31.5t31.5 12.5h53q58 0 96 33.5t38 84.5q0 50 -36 79t-97 29q-56 0 -93.5 -27t-49.5 -73q-10 -37 -48 -37
q-21 0 -34.5 13t-13.5 34q0 16 4 29q14 68 79 109t158 41q103 0 169 -52t66 -133q0 -61 -40.5 -109t-99.5 -57v-6q71 -7 118 -56.5t47 -117.5q0 -92 -72.5 -150.5t-192.5 -58.5z" />
    <glyph glyph-name="uni1000CF.small" unicode="&#x33;&#x20de;&#x25a0;" horiz-adv-x="1830" 
d="M438 6q-238 0 -238 235v959q0 236 238 236h954q238 0 238 -236v-959q0 -235 -238 -235h-954zM912 342q123 0 197.5 60t74.5 156q0 69 -48 120t-121 58v5q61 10 102 59t41 111q0 83 -67.5 137t-173.5 54q-95 0 -162 -42t-82 -112q-3 -16 -3 -30q0 -22 13.5 -35.5
t35.5 -13.5q38 0 50 39q12 47 50.5 74.5t95.5 27.5q63 0 99.5 -30t36.5 -81q0 -52 -39 -86t-98 -34h-54q-20 0 -32.5 -13t-12.5 -33q0 -19 13 -31.5t32 -12.5h58q70 0 114 -36t44 -92q0 -57 -44.5 -92t-117.5 -35q-64 0 -104.5 28t-55.5 74q-14 39 -50 39q-22 0 -36 -14
t-14 -36q0 -13 3 -29q18 -69 88.5 -111.5t166.5 -42.5z" />
    <glyph glyph-name="uni1000D0.small" unicode="&#x34;&#x20de;" horiz-adv-x="1830" 
d="M438 6q-238 0 -238 235v959q0 236 238 236h954q238 0 238 -236v-959q0 -235 -238 -235h-954zM440 117h950q62 0 95.5 33t33.5 97v947q0 64 -33.5 97.5t-95.5 33.5h-950q-63 0 -96 -33.5t-33 -97.5v-947q0 -64 33 -97t96 -33zM1015 367q-23 0 -37 15.5t-14 42.5v92h-285
q-34 0 -54 18.5t-20 50.5q0 30 19 61q57 93 253 385q39 60 106 60q37 0 60.5 -20.5t23.5 -53.5v-409h66q21 0 34 -12.5t13 -33.5q0 -20 -13 -33t-34 -13h-66v-92q0 -58 -52 -58zM964 609v391h-5q-207 -311 -251 -387v-4h256z" />
    <glyph glyph-name="uni1000D1.small" unicode="&#x34;&#x20de;&#x25a0;" horiz-adv-x="1830" 
d="M438 6q-238 0 -238 235v959q0 236 238 236h954q238 0 238 -236v-959q0 -235 -238 -235h-954zM1018 357q26 0 40 16t14 44v94h67q21 0 34.5 13t13.5 34q0 22 -13 35t-35 13h-67v419q0 34 -24 55.5t-63 21.5q-71 0 -110 -62q-214 -320 -259 -394q-20 -34 -20 -63
q0 -33 20.5 -52.5t55.5 -19.5h293v-94q0 -28 14 -44t39 -16zM965 606h-262v5q44 75 257 395h5v-400z" />
    <glyph glyph-name="uni1000D2.small" unicode="&#x35;&#x20de;" horiz-adv-x="1830" 
d="M438 6q-238 0 -238 235v959q0 236 238 236h954q238 0 238 -236v-959q0 -235 -238 -235h-954zM440 117h950q62 0 95.5 33t33.5 97v947q0 64 -33.5 97.5t-95.5 33.5h-950q-63 0 -96 -33.5t-33 -97.5v-947q0 -64 33 -97t96 -33zM911 352q-91 0 -155 35.5t-87 96.5
q-7 19 -7 34q0 20 13 33t34 13q31 0 49 -34q19 -41 59.5 -65.5t92.5 -24.5q68 0 113 45t45 112t-40.5 109t-105.5 42q-63 0 -118 -51q-36 -27 -68 -27q-29 0 -45 18.5t-14 48.5l22 272q3 31 23.5 48.5t54.5 17.5h327q19 0 30.5 -12t11.5 -31t-12 -31t-30 -12h-316l-19 -227
h5q23 31 67.5 50.5t92.5 19.5q106 0 172.5 -65t66.5 -168q0 -111 -72.5 -179t-189.5 -68z" />
    <glyph glyph-name="uni1000D3.small" unicode="&#x35;&#x20de;&#x25a0;" horiz-adv-x="1830" 
d="M438 6q-238 0 -238 235v959q0 236 238 236h954q238 0 238 -236v-959q0 -235 -238 -235h-954zM911 342q120 0 194.5 70t74.5 184q0 106 -68.5 172.5t-176.5 66.5q-50 0 -95.5 -20t-68.5 -52h-5l19 232h324q19 0 31 12.5t12 32.5t-12 32.5t-31 12.5h-335q-35 0 -56.5 -18.5
t-24.5 -50.5l-22 -278q-2 -31 14.5 -50t46.5 -19q34 0 70 28q58 52 120 52q67 0 108 -42.5t41 -112.5q0 -69 -46 -114.5t-115 -45.5q-53 0 -94.5 24.5t-60.5 66.5q-17 35 -51 35q-22 0 -35.5 -13t-13.5 -34q0 -17 8 -35q23 -62 89 -99t159 -37z" />
    <glyph glyph-name="uni1000D4.small" unicode="&#x36;&#x20de;" horiz-adv-x="1830" 
d="M438 6q-238 0 -238 235v959q0 236 238 236h954q238 0 238 -236v-959q0 -235 -238 -235h-954zM440 117h950q62 0 95.5 33t33.5 97v947q0 64 -33.5 97.5t-95.5 33.5h-950q-63 0 -96 -33.5t-33 -97.5v-947q0 -64 33 -97t96 -33zM921 352q-156 0 -224 117q-50 84 -50 235
q0 189 77.5 288.5t214.5 99.5q74 0 132.5 -33t76.5 -78q6 -15 6 -30q0 -18 -12 -30t-30 -12q-27 0 -59 35q-42 59 -117 59q-84 0 -135.5 -75.5t-51.5 -202.5v-8h6q22 49 71.5 81t123.5 32q97 0 165.5 -62.5t68.5 -166.5q0 -116 -72.5 -182.5t-190.5 -66.5zM917 437
q72 0 115 43t43 115q0 68 -43.5 111t-113.5 43t-114 -43t-44 -110q0 -70 44 -114.5t113 -44.5z" />
    <glyph glyph-name="uni1000D5.small" unicode="&#x36;&#x20de;&#x25a0;" horiz-adv-x="1830" 
d="M438 6q-238 0 -238 235v959q0 236 238 236h954q238 0 238 -236v-959q0 -235 -238 -235h-954zM921 342q121 0 195.5 68.5t74.5 186.5q0 108 -70 172t-170 64q-76 0 -126.5 -32.5t-73.5 -83.5h-6v9q0 130 52.5 206.5t138.5 76.5q77 0 120 -59q34 -36 61 -36q18 0 31 12
t13 31q0 14 -7 31q-18 45 -78 79.5t-136 34.5q-142 0 -221 -102t-79 -297q0 -159 51 -241q71 -120 230 -120zM917 430q-70 0 -115.5 46t-45.5 117q0 68 45.5 112.5t116.5 44.5t116 -44t45 -114q0 -74 -44.5 -118t-117.5 -44z" />
    <glyph glyph-name="uni1000D6.small" unicode="&#x37;&#x20de;" horiz-adv-x="1830" 
d="M438 6q-238 0 -238 235v959q0 236 238 236h954q238 0 238 -236v-959q0 -235 -238 -235h-954zM440 117h950q62 0 95.5 33t33.5 97v947q0 64 -33.5 97.5t-95.5 33.5h-950q-63 0 -96 -33.5t-33 -97.5v-947q0 -64 33 -97t96 -33zM810 354q-24 0 -39.5 14t-15.5 36q0 17 10 36
l292 543v6h-341q-18 0 -30 12t-12 31t12 31t30 12h384q34 0 55.5 -19t21.5 -48q0 -22 -17 -55l-295 -561q-20 -38 -55 -38z" />
    <glyph glyph-name="uni1000D7.small" unicode="&#x37;&#x20de;&#x25a0;" horiz-adv-x="1830" 
d="M438 6q-238 0 -238 235v959q0 236 238 236h954q238 0 238 -236v-959q0 -235 -238 -235h-954zM807 344q36 0 57 39l302 575q18 31 18 57q0 30 -22 50t-58 20h-393q-19 0 -31.5 -12.5t-12.5 -32.5q0 -19 12.5 -32t31.5 -13h349v-6l-300 -556q-10 -19 -10 -37
q0 -23 16.5 -37.5t40.5 -14.5z" />
    <glyph glyph-name="uni1000D8.small" unicode="&#x38;&#x20de;" horiz-adv-x="1830" 
d="M438 6q-238 0 -238 235v959q0 236 238 236h954q238 0 238 -236v-959q0 -235 -238 -235h-954zM440 117h950q62 0 95.5 33t33.5 97v947q0 64 -33.5 97.5t-95.5 33.5h-950q-63 0 -96 -33.5t-33 -97.5v-947q0 -64 33 -97t96 -33zM914 352q-121 0 -196 58t-75 152
q0 65 43.5 114.5t112.5 62.5v5q-58 18 -92 60.5t-34 98.5q0 83 67.5 136t174.5 53t175 -53t68 -136q0 -56 -34.5 -99.5t-92.5 -59.5v-5q70 -13 113 -62.5t43 -114.5q0 -93 -76 -151.5t-197 -58.5zM915 776q61 0 100.5 33.5t39.5 85.5t-39.5 85t-100.5 33t-100.5 -33
t-39.5 -85t39.5 -85.5t100.5 -33.5zM916 430q72 0 119 38.5t47 98.5q0 59 -46.5 96.5t-119.5 37.5t-120.5 -38t-47.5 -96q0 -60 47.5 -98.5t120.5 -38.5z" />
    <glyph glyph-name="uni1000D9.small" unicode="&#x38;&#x20de;&#x25a0;" horiz-adv-x="1830" 
d="M438 6q-238 0 -238 235v959q0 236 238 236h954q238 0 238 -236v-959q0 -235 -238 -235h-954zM914 342q125 0 203 60t78 156q0 67 -44.5 117.5t-115.5 64.5v5q58 16 93.5 61t35.5 102q0 85 -69.5 139.5t-179.5 54.5t-179.5 -54.5t-69.5 -139.5q0 -57 35 -101t95 -62v-5
q-72 -14 -116.5 -65t-44.5 -118q0 -96 77 -155.5t202 -59.5zM915 778q-62 0 -102.5 34.5t-40.5 87.5t40 87t103 34t103 -34t40 -87t-40 -87.5t-103 -34.5zM916 423q-74 0 -122.5 39.5t-48.5 100.5q0 59 49 98.5t122 39.5q75 0 122.5 -39t47.5 -99q0 -61 -48 -100.5
t-122 -39.5z" />
    <glyph glyph-name="uni1000DA.small" unicode="&#x39;&#x20de;" horiz-adv-x="1830" 
d="M438 6q-238 0 -238 235v959q0 236 238 236h954q238 0 238 -236v-959q0 -235 -238 -235h-954zM440 117h950q62 0 95.5 33t33.5 97v947q0 64 -33.5 97.5t-95.5 33.5h-950q-63 0 -96 -33.5t-33 -97.5v-947q0 -64 33 -97t96 -33zM896 352q-87 0 -145.5 37t-73.5 82
q-5 15 -5 25q0 20 13 33t33 13q27 0 48 -30q50 -71 129 -71q87 0 137 76.5t49 212.5h-5q-22 -51 -71.5 -83t-123.5 -32q-96 0 -164 63t-68 167q0 112 71.5 179.5t189.5 67.5q129 0 200.5 -88t71.5 -254q0 -196 -73.5 -297t-212.5 -101zM913 695q69 0 113.5 44t44.5 110
q0 69 -44.5 114t-112.5 45q-70 0 -114 -43.5t-44 -113.5q0 -68 44 -112t113 -44z" />
    <glyph glyph-name="uni1000DB.small" unicode="&#x39;&#x20de;&#x25a0;" horiz-adv-x="1830" 
d="M438 6q-238 0 -238 235v959q0 236 238 236h954q238 0 238 -236v-959q0 -235 -238 -235h-954zM896 342q143 0 218 103.5t75 305.5q0 170 -73 260.5t-206 90.5q-121 0 -194.5 -69.5t-73.5 -183.5q0 -107 69.5 -171.5t168.5 -64.5q76 0 127 32.5t73 84.5h5
q1 -138 -50.5 -216.5t-139.5 -78.5q-83 0 -132 72q-22 30 -50 30q-21 0 -34 -13t-13 -34q0 -14 4 -25q15 -47 75.5 -85t150.5 -38zM913 695q-70 0 -115.5 45t-45.5 114q0 72 45 116.5t117 44.5q69 0 115 -46.5t46 -116.5q0 -68 -46 -112.5t-116 -44.5z" />
    <glyph glyph-name=".notdef" horiz-adv-x="2048" 
d="M100 1646v304h1848v-304h-1848zM100 1218v305h1848v-305h-1848zM100 790v304h1848v-304h-1848zM100 362v304h1848v-304h-1848zM100 -66v304h1848v-304h-1848zM100 -494v304h1848v-304h-1848z" />
    <glyph glyph-name=".null" horiz-adv-x="0" 
 />
    <glyph glyph-name="nonmarkingreturn" unicode="&#x2029;" horiz-adv-x="0" 
 />
    <glyph glyph-name="nonmarkingreturn" unicode="&#x2028;" horiz-adv-x="0" 
 />
    <glyph glyph-name="space" unicode=" " horiz-adv-x="552" 
 />
    <glyph glyph-name="exclamationmark" unicode="!" horiz-adv-x="617" 
d="M245 457l-12 987h150l-11 -987h-127zM308 -14q-49 0 -80.5 31.5t-31.5 80.5t31.5 81t80.5 32t80.5 -31.5t31.5 -81.5q0 -49 -31.5 -80.5t-80.5 -31.5z" />
    <glyph glyph-name="quotedbl" unicode="&#x22;" horiz-adv-x="919" 
d="M241 911l-15 532h141l-15 -532h-111zM567 911l-15 532h141l-15 -532h-111z" />
    <glyph glyph-name="numbersign" unicode="#" horiz-adv-x="1278" 
d="M301 0h-111l86 419h-249l21 111h250l81 395h-260l22 110h261l84 410h110l-84 -410h361l85 410h111l-84 -410h266l-21 -110h-268l-81 -395h277l-22 -111h-277l-86 -419h-112l86 419h-361zM409 530h361l81 395h-361z" />
    <glyph glyph-name="dollarsign" unicode="$" horiz-adv-x="1278" 
d="M593 -156v179q-192 13 -320 118.5t-135 272.5v2h133v-2q12 -114 94 -187t228 -85v540l-31 7q-194 47 -290.5 134.5t-96.5 226.5v2q0 154 117.5 254.5t300.5 113.5v170h95v-170q181 -12 301.5 -114.5t127.5 -257.5v-1l-133 -1v2q-9 108 -89.5 175t-206.5 78v-512l46 -11
q202 -48 301.5 -136t99.5 -236v-2q0 -168 -125.5 -269t-321.5 -113v-178h-95zM583 814l10 -2v488q-129 -12 -207 -79.5t-78 -160.5v-2q0 -88 66 -149t209 -95zM713 653l-25 6v-517q154 9 234.5 77.5t80.5 175.5v2q0 97 -65.5 158t-224.5 98z" />
    <glyph glyph-name="percent" unicode="%" horiz-adv-x="1840" 
d="M414 705q-131 0 -206 101t-75 276v1q0 175 75 276t206 101t206.5 -101.5t75.5 -275.5v-1q0 -174 -75.5 -275.5t-206.5 -101.5zM495 0h-125l975 1443h125zM414 797q82 0 128.5 76t46.5 209v1q0 134 -46.5 209t-128.5 75t-128 -75.5t-46 -208.5v-1q0 -133 46 -209t128 -76z
M1425 -17q-131 0 -206 101.5t-75 275.5v2q0 174 75 275t206 101t206 -101t75 -275v-2q0 -174 -75 -275.5t-206 -101.5zM1425 76q82 0 128.5 75.5t46.5 208.5v2q0 133 -46.5 208.5t-128.5 75.5q-83 0 -129 -75.5t-46 -208.5v-2q0 -133 46 -208.5t129 -75.5z" />
    <glyph glyph-name="ampersand" unicode="&#x26;" horiz-adv-x="1472" 
d="M596 -25q-209 0 -341.5 112.5t-132.5 288.5v2q0 250 286 394l72 37q-113 122 -155 197t-42 154v2q0 133 102.5 221.5t255.5 88.5t253.5 -88.5t100.5 -222.5v-2q0 -107 -75 -196t-253 -182l398 -421q94 166 94 397v46h128v-46q0 -298 -129 -495l247 -261v-1h-172l-154 165
q-188 -190 -483 -190zM414 1153q0 -63 37 -122.5t142 -170.5q149 76 211 145t62 150v2q0 88 -64 146.5t-161 58.5q-96 0 -161.5 -59t-65.5 -148v-2zM258 384q0 -128 97 -210t252 -82q230 0 385 167l-434 466l-73 -37q-111 -56 -169 -133.5t-58 -168.5v-2z" />
    <glyph glyph-name="quotesingle" unicode="'" horiz-adv-x="593" 
d="M241 911l-15 532h141l-15 -532h-111z" />
    <glyph glyph-name="parenleft" unicode="(" horiz-adv-x="751" 
d="M524 -357q-280 367 -280 932q0 566 280 931h114q-114 -149 -187 -412.5t-73 -518.5q0 -257 72.5 -520.5t187.5 -411.5h-114z" />
    <glyph glyph-name="parenright" unicode=")" horiz-adv-x="751" 
d="M227 -357h-114q115 148 187.5 411.5t72.5 520.5q0 255 -73 518.5t-187 412.5h114q280 -365 280 -931q0 -565 -280 -932z" />
    <glyph glyph-name="asterisk" unicode="*" horiz-adv-x="975" 
d="M435 749l9 267l-229 -139l-52 81l243 129l-243 128l52 81l229 -139l-9 267h105l-9 -266l229 138l52 -81l-244 -128l244 -129l-52 -81l-229 139l9 -267h-105z" />
    <glyph glyph-name="plus" unicode="+" horiz-adv-x="1278" 
d="M115 520v124h462v477h124v-477h462v-124h-462v-476h-124v476h-462z" />
    <glyph glyph-name="comma" unicode="," horiz-adv-x="593" 
d="M131 -349l91 532h153l-144 -532h-100z" />
    <glyph glyph-name="hyphen" unicode="&#x2011;" horiz-adv-x="975" 
d="M154 520v124h667v-124h-667z" />
    <glyph glyph-name="hyphen" unicode="&#x2010;" horiz-adv-x="975" 
d="M154 520v124h667v-124h-667z" />
    <glyph glyph-name="hyphen" unicode="-" horiz-adv-x="975" 
d="M154 520v124h667v-124h-667z" />
    <glyph glyph-name="period" unicode="." horiz-adv-x="593" 
d="M297 -8q-44 0 -75 30.5t-31 74.5t31 75t75 31t74.5 -31t30.5 -75t-30.5 -74.5t-74.5 -30.5z" />
    <glyph glyph-name="slash" unicode="/" horiz-adv-x="600" 
d="M600 1506l-473 -1863h-127l472 1863h128z" />
    <glyph glyph-name="zero" unicode="0" horiz-adv-x="1282" 
d="M640 -30q-237 0 -372 201.5t-135 548.5v3q0 347 135 548.5t372 201.5t373 -201.5t136 -548.5v-3q0 -347 -136 -548.5t-373 -201.5zM640 90q174 0 273 169t99 461v3q0 292 -99 460.5t-273 168.5q-173 0 -271.5 -168.5t-98.5 -460.5v-3q0 -292 98.5 -461t271.5 -169z" />
    <glyph glyph-name="one" unicode="1" horiz-adv-x="909" 
d="M512 0v1290h-12l-373 -259v145l386 267h135v-1443h-136z" />
    <glyph glyph-name="two" unicode="2" horiz-adv-x="1222" 
d="M157 0v96l497 533q154 165 205.5 249t51.5 180v2q0 126 -85.5 209.5t-222.5 83.5q-141 0 -230 -85.5t-91 -222.5v-1h-131l-2 1q2 187 132 307.5t330 120.5q187 0 313 -114.5t126 -285.5v-2q0 -121 -67 -233.5t-257 -309.5l-378 -392v-12h737v-124h-928z" />
    <glyph glyph-name="three" unicode="3" horiz-adv-x="1260" 
d="M636 -23q-214 0 -347.5 107.5t-151.5 278.5l-1 11h132l1 -9q15 -119 113.5 -193.5t253.5 -74.5q156 0 255 82.5t99 210.5v2q0 141 -98.5 219t-272.5 78h-173v117h168q144 0 235 76.5t91 196.5v2q0 122 -84 193.5t-226 71.5q-139 0 -229 -71t-101 -187l-1 -10h-132l1 10
q16 168 142 273t320 105q199 0 323 -103.5t124 -265.5v-2q0 -131 -83.5 -221.5t-223.5 -118.5v-4q163 -13 261 -108.5t98 -247.5v-2q0 -179 -140 -297.5t-353 -118.5z" />
    <glyph glyph-name="four" unicode="4" horiz-adv-x="1312" 
d="M844 0v326h-725v125q290 477 662 994h196v-996h216v-123h-216v-326h-133zM262 448h582v866h-9q-335 -465 -573 -857v-9z" />
    <glyph glyph-name="five" unicode="5" horiz-adv-x="1255" 
d="M628 -30q-193 0 -325.5 110.5t-149.5 276.5l-1 10h131l1 -7q15 -114 112.5 -191t233.5 -77q158 0 260 102.5t102 261.5v2q0 157 -101 260.5t-255 103.5q-175 0 -282 -118q-32 -32 -56 -74h-121l80 813h784v-123h-675l-58 -545h13q52 78 141 122t195 44q203 0 336 -136
t133 -344v-2q0 -214 -140.5 -351.5t-357.5 -137.5z" />
    <glyph glyph-name="six" unicode="6" horiz-adv-x="1287" 
d="M665 -30q-108 0 -202 41t-169.5 123.5t-119.5 222.5t-44 324v2q0 371 145 580.5t400 209.5q177 0 301 -97t158 -253l3 -13h-138l-3 11q-31 105 -116.5 167t-206.5 62q-102 0 -181 -49t-128 -135.5t-74.5 -197.5t-28.5 -243v-43h14q40 114 151.5 189.5t259.5 75.5
q204 0 339.5 -137.5t135.5 -343.5v-2q0 -213 -141 -353.5t-355 -140.5zM299 473q0 -159 104.5 -270t259.5 -111q152 0 256.5 107t104.5 262v2q0 157 -102 260.5t-257 103.5q-153 0 -259.5 -102.5t-106.5 -250.5v-1z" />
    <glyph glyph-name="seven" unicode="7" horiz-adv-x="1160" 
d="M240 0l667 1309v11h-800v123h939v-128l-660 -1315h-146z" />
    <glyph glyph-name="eight" unicode="8" horiz-adv-x="1294" 
d="M647 -23q-226 0 -370 116t-144 298v2q0 135 89 237t232 133v3q-124 35 -196.5 120.5t-72.5 201.5v2q0 163 130.5 269.5t331.5 106.5t332 -106.5t131 -269.5v-2q0 -116 -72.5 -201.5t-196.5 -120.5v-3q143 -31 232 -133t89 -237v-2q0 -182 -144.5 -298t-370.5 -116z
M647 818q144 0 235.5 72.5t91.5 186.5v2q0 116 -91.5 192t-235.5 76t-235 -76t-91 -192v-2q0 -114 91 -186.5t235 -72.5zM647 97q166 0 271 85t105 217v2q0 130 -105 212.5t-271 82.5t-270.5 -82.5t-104.5 -212.5v-2q0 -132 105 -217t270 -85z" />
    <glyph glyph-name="nine" unicode="9" horiz-adv-x="1287" 
d="M622 1473q86 0 163 -25t146 -80t118.5 -136.5t78.5 -201.5t29 -268v-2q0 -372 -144.5 -581t-399.5 -209q-178 0 -302 97t-158 253l-2 13h137l3 -11q30 -104 116 -166.5t207 -62.5q103 0 182 49t127.5 135.5t74 197.5t28.5 243v13.5v16v13.5h-14q-40 -114 -151 -189.5
t-260 -75.5q-203 0 -339 137.5t-136 343.5v2q0 213 141.5 353.5t354.5 140.5zM622 616q153 0 259.5 102.5t106.5 250.5v1q0 159 -104.5 270t-259.5 111q-151 0 -256 -107t-105 -262v-2q0 -157 102.5 -260.5t256.5 -103.5z" />
    <glyph glyph-name="colon" unicode=":" horiz-adv-x="593" 
d="M297 812q-44 0 -75 31t-31 75t31 74.5t75 30.5t74.5 -30.5t30.5 -74.5t-30.5 -75t-74.5 -31zM297 -8q-44 0 -75 30.5t-31 74.5t31 75t75 31t74.5 -31t30.5 -75t-30.5 -74.5t-74.5 -30.5z" />
    <glyph glyph-name="semicolon" unicode=";" horiz-adv-x="593" 
d="M297 812q-44 0 -75 31t-31 75t31 74.5t75 30.5t74.5 -30.5t30.5 -74.5t-30.5 -75t-74.5 -31zM131 -349l91 532h153l-144 -532h-100z" />
    <glyph glyph-name="less" unicode="&#x3c;" horiz-adv-x="1278" 
d="M142 517v130l993 444v-126l-872 -380l872 -381v-131z" />
    <glyph glyph-name="equal" unicode="=" horiz-adv-x="1278" 
d="M128 790v124h1022v-124h-1022zM128 251v124h1022v-124h-1022z" />
    <glyph glyph-name="greater" unicode="&#x3e;" horiz-adv-x="1278" 
d="M1135 647v-130l-993 -444v126l873 381l-873 380v131z" />
    <glyph glyph-name="questionmark" unicode="?" horiz-adv-x="1020" 
d="M399 430v94q-1 99 45 169t153 138q95 62 134 120.5t39 139.5v2q0 106 -77 175t-197 69t-197 -69.5t-87 -187.5l-1 -1l-130 -1l1 2q9 164 120 270t299 106q179 0 294.5 -102t115.5 -255v-2q0 -108 -52.5 -190t-158.5 -150q-98 -63 -133 -115.5t-35 -136.5v-75h-133z
M478 -14q-49 0 -80.5 31.5t-31.5 80.5q0 50 31.5 81.5t80.5 31.5t80 -31.5t31 -81.5q0 -49 -31 -80.5t-80 -31.5z" />
    <glyph glyph-name="at" unicode="@" horiz-adv-x="1871" 
d="M971 -232q-250 0 -439 103t-291.5 292.5t-102.5 439.5v2q0 241 104 430t291.5 294t427.5 105q233 0 415.5 -94t283.5 -263t101 -386v-2q0 -242 -94 -381.5t-257 -139.5q-91 0 -152.5 48.5t-72.5 128.5l-1 7h-13q-34 -85 -101 -131t-158 -46q-155 0 -252 117t-97 304v2
q0 183 97.5 299t251.5 116q84 0 152 -44t96 -117h13v141h116v-575q0 -72 36.5 -110t104.5 -38q103 0 162 113t59 308v2q0 285 -194.5 463.5t-504.5 178.5q-151 0 -282 -55t-224 -151.5t-146 -233.5t-53 -294v-2q0 -330 199 -531t526 -201q223 0 332 44v-99
q-132 -44 -333 -44zM928 284q111 0 177 85.5t66 228.5v2q0 140 -65.5 223t-176.5 83q-110 0 -176.5 -85.5t-66.5 -225.5v-2q0 -141 66 -225t176 -84z" />
    <glyph glyph-name="A" unicode="A" horiz-adv-x="1363" 
d="M74 0l539 1443h136l540 -1443h-144l-160 442h-607l-160 -442h-144zM675 1264l-255 -704h522l-255 704h-12z" />
    <glyph glyph-name="B" unicode="B" horiz-adv-x="1319" 
d="M185 0v1443h518q199 0 314.5 -96.5t115.5 -259.5v-2q0 -119 -74.5 -209.5t-189.5 -111.5v-12q151 -19 244.5 -114.5t93.5 -241.5v-2q0 -185 -129 -289.5t-367 -104.5h-526zM676 1322h-354v-520h323q167 0 258.5 68.5t91.5 193.5v2q0 119 -85 187.5t-234 68.5zM680 684
h-358v-563h369q186 0 281 72.5t95 207.5v2q0 135 -101.5 208t-285.5 73z" />
    <glyph glyph-name="C" unicode="C" horiz-adv-x="1455" 
d="M763 -30q-294 0 -465 201.5t-171 548.5v2q0 347 171 549t464 202q222 0 384.5 -132.5t191.5 -337.5l-1 -1h-137l-1 1q-32 152 -153 247.5t-284 95.5q-227 0 -361 -169t-134 -455v-2q0 -286 134 -454.5t362 -168.5q167 0 286.5 85.5t149.5 227.5l1 1l137 1l1 -2
q-31 -198 -188.5 -319t-386.5 -121z" />
    <glyph glyph-name="D" unicode="D" horiz-adv-x="1472" 
d="M185 0v1443h475q327 0 506 -191t179 -529v-2q0 -339 -178.5 -530t-506.5 -191h-475zM322 124h330q263 0 408 157.5t145 438.5v2q0 280 -145 438.5t-408 158.5h-330v-1195z" />
    <glyph glyph-name="E" unicode="E" horiz-adv-x="1197" 
d="M185 0v1443h872v-124h-735v-519h698v-122h-698v-554h735v-124h-872z" />
    <glyph glyph-name="F" unicode="F" horiz-adv-x="1155" 
d="M185 0v1443h856v-124h-719v-542h661v-122h-661v-655h-137z" />
    <glyph glyph-name="G" unicode="G" horiz-adv-x="1506" 
d="M769 -30q-293 0 -467.5 205t-174.5 549v2q0 339 175.5 543t466.5 204q229 0 386.5 -119t200.5 -322l2 -10h-137l-3 9q-45 152 -161.5 233.5t-287.5 81.5q-230 0 -366 -168t-136 -452v-2q0 -288 136 -457.5t366 -169.5q210 0 337.5 129.5t127.5 339.5v32h-446v121h583
v-141q0 -273 -165 -440.5t-437 -167.5z" />
    <glyph glyph-name="H" unicode="H" horiz-adv-x="1488" 
d="M185 0v1443h137v-642h844v642h137v-1443h-137v677h-844v-677h-137z" />
    <glyph glyph-name="I" unicode="I" horiz-adv-x="507" 
d="M185 0v1443h137v-1443h-137z" />
    <glyph glyph-name="J" unicode="J" horiz-adv-x="1088" 
d="M489 -30q-174 0 -280.5 98.5t-115.5 254.5l-1 10h137l1 -7q8 -100 77 -164.5t182 -64.5q133 0 205 78t72 223v1045h137v-1051q0 -197 -110.5 -309.5t-303.5 -112.5z" />
    <glyph glyph-name="K" unicode="&#x212a;" horiz-adv-x="1311" 
d="M185 0v1443h137v-746h12l683 746h171l-578 -623l637 -820h-177l-555 725l-193 -210v-515h-137z" />
    <glyph glyph-name="K" unicode="K" horiz-adv-x="1311" 
d="M185 0v1443h137v-746h12l683 746h171l-578 -623l637 -820h-177l-555 725l-193 -210v-515h-137z" />
    <glyph glyph-name="L" unicode="L" horiz-adv-x="1139" 
d="M185 0v1443h137v-1319h722v-124h-859z" />
    <glyph glyph-name="M" unicode="M" horiz-adv-x="1761" 
d="M186 0v1443h157l532 -1263h12l531 1263h158v-1443h-128v1177h-10l-498 -1177h-119l-497 1177h-10v-1177h-128z" />
    <glyph glyph-name="N" unicode="N" horiz-adv-x="1494" 
d="M185 0v1443h135l841 -1198h13v1198h135v-1443h-132l-844 1199h-13v-1199h-135z" />
    <glyph glyph-name="O" unicode="O" horiz-adv-x="1561" 
d="M781 -30q-304 0 -479 202.5t-175 548.5v2q0 346 176 548t478 202t477.5 -202t175.5 -548v-2q0 -346 -175 -548.5t-478 -202.5zM781 97q236 0 375 169.5t139 454.5v2q0 286 -139 454.5t-375 168.5t-375 -168.5t-139 -454.5v-2q0 -286 138 -455t376 -169z" />
    <glyph glyph-name="P" unicode="P" horiz-adv-x="1272" 
d="M185 0v1443h512q207 0 335 -123t128 -324v-2q0 -201 -128.5 -325.5t-334.5 -124.5h-375v-544h-137zM665 1321h-343v-655h343q167 0 261.5 87t94.5 240v2q0 152 -95 239t-261 87z" />
    <glyph glyph-name="Q" unicode="Q" horiz-adv-x="1561" 
d="M781 -30q-303 0 -478.5 202.5t-175.5 548.5v2q0 344 176 546.5t477 202.5q303 0 478.5 -202t175.5 -547v-2q0 -215 -70 -378t-201 -258l186 -255h-155l-140 193q-121 -53 -273 -53zM781 96q103 0 194 36l-192 263h155l146 -200q101 79 156 214.5t55 311.5v2
q0 286 -139 454.5t-376 168.5q-236 0 -374.5 -168.5t-138.5 -454.5v-2q0 -286 137.5 -455.5t376.5 -169.5z" />
    <glyph glyph-name="R" unicode="R" horiz-adv-x="1309" 
d="M185 0v1443h517q211 0 336 -114t125 -307v-2q0 -152 -82 -260.5t-227 -146.5l350 -613h-160l-332 591h-28h-362v-591h-137zM322 713h369q157 0 244.5 79.5t87.5 223.5v2q0 142 -90 222.5t-248 80.5h-363v-608z" />
    <glyph glyph-name="S" unicode="S" horiz-adv-x="1284" 
d="M649 -30q-226 0 -371.5 110t-161.5 285l-1 11h137l1 -11q11 -119 123.5 -193.5t279.5 -74.5q163 0 268 79t105 201v2q0 101 -76.5 169t-240.5 105l-148 33q-215 49 -313.5 143t-98.5 245v1q0 172 139 285t354 113q208 0 345 -106t150 -265l1 -13h-137l-1 12
q-16 107 -114 176.5t-248 68.5q-151 0 -250.5 -74.5t-99.5 -193.5v-1q0 -97 73 -159t235 -99l148 -34q223 -50 322 -144t99 -246v-1q0 -191 -143 -307.5t-376 -116.5z" />
    <glyph glyph-name="T" unicode="T" horiz-adv-x="1280" 
d="M572 0v1319h-484v124h1104v-124h-484v-1319h-136z" />
    <glyph glyph-name="U" unicode="U" horiz-adv-x="1485" 
d="M743 -30q-258 0 -408.5 144.5t-150.5 382.5v946h136v-938q0 -186 113 -297t310 -111t309 111t112 297v938h137v-946q0 -239 -150 -383t-408 -144z" />
    <glyph glyph-name="V" unicode="V" horiz-adv-x="1363" 
d="M614 0l-540 1443h144l457 -1264h13l457 1264h144l-539 -1443h-136z" />
    <glyph glyph-name="W" unicode="W" horiz-adv-x="1956" 
d="M492 0l-397 1443h142l317 -1230h9l347 1230h136l347 -1230h9l317 1230h142l-397 -1443h-127l-354 1205h-10l-354 -1205h-127z" />
    <glyph glyph-name="X" unicode="X" horiz-adv-x="1366" 
d="M94 0l502 723v4l-498 716h165l421 -614h6l424 614h156l-506 -722v-3l499 -718h-164l-420 610h-6l-423 -610h-156z" />
    <glyph glyph-name="Y" unicode="Y" horiz-adv-x="1319" 
d="M592 0v624l-518 819h157l423 -680h12l423 680h156l-517 -819v-624h-136z" />
    <glyph glyph-name="Z" unicode="Z" horiz-adv-x="1328" 
d="M138 0v99l863 1208v12h-834v124h1011v-100l-860 -1207v-12h872v-124h-1052z" />
    <glyph glyph-name="bracketleft" unicode="[" horiz-adv-x="751" 
d="M265 -357v1863h404v-106h-275v-1651h280v-106h-409z" />
    <glyph glyph-name="backslash" unicode="\" horiz-adv-x="600" 
d="M127 1506l473 -1863h-128l-472 1863h127z" />
    <glyph glyph-name="bracketright" unicode="]" horiz-adv-x="751" 
d="M486 -357h-409v106h280v1651h-275v106h404v-1863z" />
    <glyph glyph-name="asciicircum" unicode="^" horiz-adv-x="1278" 
d="M285 831h-141l433 612h123l433 -612h-141l-353 505z" />
    <glyph glyph-name="underscore" unicode="_" horiz-adv-x="1192" 
d="M0 -224v124h1192v-124h-1192z" />
    <glyph glyph-name="grave" unicode="`" horiz-adv-x="1024" 
d="M567 1229l-227 330h157l188 -330h-118z" />
    <glyph glyph-name="a" unicode="a" horiz-adv-x="1125" 
d="M466 -18q-158 0 -259 86.5t-101 228.5v2q0 140 100 220t288 93l336 22v101q0 118 -69.5 180t-200.5 62q-110 0 -183 -43t-94 -123l-1 -2h-133l1 4q21 129 133.5 205.5t280.5 76.5q189 0 294 -94.5t105 -264.5v-736h-133v185h-12q-48 -96 -140.5 -149.5t-211.5 -53.5z
M241 299q0 -91 70 -146t180 -55q144 0 241.5 87t97.5 216v125l-318 -22q-271 -18 -271 -203v-2z" />
    <glyph glyph-name="b" unicode="b" horiz-adv-x="1252" 
d="M685 -18q-123 0 -218.5 62t-142.5 171h-13v-215h-132v1506h132v-638h13q44 104 141.5 165.5t219.5 61.5q205 0 329 -152t124 -403v-2q0 -250 -124.5 -403t-328.5 -153zM658 100q159 0 252 119t93 320v2q0 200 -93 318t-252 118t-254 -119t-95 -318v-2q0 -199 95 -318.5
t254 -119.5z" />
    <glyph glyph-name="c" unicode="c" horiz-adv-x="1145" 
d="M601 -18q-223 0 -354.5 151.5t-131.5 407.5v2q0 252 131.5 402t353.5 150q180 0 297.5 -92.5t143.5 -238.5v-4l-131 -1l-1 3q-25 96 -107 155.5t-202 59.5q-160 0 -255 -117.5t-95 -316.5v-2q0 -201 95 -321t255 -120q119 0 198.5 53.5t108.5 151.5l2 5l132 1l-2 -8
q-33 -147 -146 -234t-292 -87z" />
    <glyph glyph-name="d" unicode="d" horiz-adv-x="1256" 
d="M570 -18q-204 0 -329.5 153t-125.5 402v2q0 250 125 403t330 153q122 0 219.5 -61.5t142.5 -166.5h12v639h133v-1506h-133v215h-12q-48 -109 -143 -171t-219 -62zM598 100q159 0 254 119t95 319v2q0 199 -95 318t-254 119q-160 0 -254 -118.5t-94 -318.5v-2
q0 -200 94 -319t254 -119z" />
    <glyph glyph-name="e" unicode="e" horiz-adv-x="1174" 
d="M603 -18q-226 0 -357 149.5t-131 403.5v2q0 252 130.5 405t346.5 153q215 0 341 -147t126 -388v-56h-809q3 -188 99 -295.5t257 -107.5q112 0 192 45.5t108 112.5l4 7h133l-3 -8q-34 -117 -150.5 -196.5t-286.5 -79.5zM592 977q-142 0 -235 -96.5t-106 -268.5h674
q-11 175 -101 270t-232 95z" />
    <glyph glyph-name="f" unicode="f" horiz-adv-x="718" 
d="M241 0v966h-179v111h179v138q0 149 74 225t216 76q55 0 105 -9v-107q-33 5 -81 5q-181 0 -181 -193v-135h252v-111h-252v-966h-133z" />
    <glyph glyph-name="g" unicode="g" horiz-adv-x="1242" 
d="M606 -376q-183 0 -300.5 75t-138.5 202l1 1h137l1 -1q18 -72 98.5 -115.5t201.5 -43.5q156 0 246.5 75t90.5 205v241h-13q-48 -107 -142.5 -165.5t-218.5 -58.5q-206 0 -330 146t-124 380v2q0 233 125 380.5t331 147.5q123 0 218.5 -63.5t142.5 -172.5h9v218h133v-1064
q0 -176 -128 -282.5t-340 -106.5zM595 157q161 0 255.5 112t94.5 294v2q0 182 -96 297t-254 115q-159 0 -252 -113.5t-93 -296.5v-2q0 -183 93 -295.5t252 -112.5z" />
    <glyph glyph-name="h" unicode="h" horiz-adv-x="1202" 
d="M179 0v1506h132v-618h13q43 100 130 153.5t211 53.5q180 0 278.5 -103.5t98.5 -291.5v-700h-132v667q0 310 -280 310q-143 0 -231 -92.5t-88 -244.5v-640h-132z" />
    <glyph glyph-name="i" unicode="i" horiz-adv-x="482" 
d="M242 1301q-41 0 -69.5 28.5t-28.5 68.5t28.5 68.5t69.5 28.5q40 0 68.5 -28.5t28.5 -68.5t-28.5 -68.5t-68.5 -28.5zM175 0v1077h132v-1077h-132z" />
    <glyph glyph-name="j" unicode="j" horiz-adv-x="481" 
d="M240 1301q-40 0 -68.5 28.5t-28.5 68.5t28.5 68.5t68.5 28.5q41 0 69.5 -28.5t28.5 -68.5t-28.5 -68.5t-69.5 -28.5zM3 -367h-24v118h21q93 0 133.5 41t40.5 137v1148h132v-1145q0 -156 -74.5 -227.5t-228.5 -71.5z" />
    <glyph glyph-name="k" unicode="k" horiz-adv-x="1092" 
d="M179 0v1506h132v-933h13l524 504h164l-485 -456l507 -621h-168l-434 532l-121 -114v-418h-132z" />
    <glyph glyph-name="l" unicode="l" horiz-adv-x="490" 
d="M179 0v1506h132v-1506h-132z" />
    <glyph glyph-name="m" unicode="m" horiz-adv-x="1772" 
d="M169 0v1077h132v-190h13q35 97 115 152.5t189 55.5q111 0 190.5 -56.5t114.5 -155.5h13q42 98 131.5 155t204.5 57q162 0 251.5 -93.5t89.5 -264.5v-737h-133v707q0 132 -63 201t-184 69q-123 0 -200 -83.5t-77 -210.5v-683h-132v721q0 116 -67.5 186t-179.5 70
q-117 0 -196.5 -92t-79.5 -224v-661h-132z" />
    <glyph glyph-name="n" unicode="n" horiz-adv-x="1192" 
d="M169 0v1077h132v-189h13q43 99 130 153t211 54q180 0 278.5 -103.5t98.5 -291.5v-700h-132v667q0 310 -280 310q-143 0 -231 -92.5t-88 -244.5v-640h-132z" />
    <glyph glyph-name="o" unicode="o" horiz-adv-x="1208" 
d="M604 -18q-226 0 -357.5 149.5t-131.5 406.5v2q0 257 131.5 406t357.5 149t358 -149t132 -406v-2q0 -257 -132 -406.5t-358 -149.5zM604 100q166 0 260 117t94 321v2q0 204 -94 320.5t-260 116.5t-260 -116.5t-94 -320.5v-2q0 -204 94 -321t260 -117z" />
    <glyph glyph-name="p" unicode="p" horiz-adv-x="1244" 
d="M169 -357v1434h132v-214h13q48 109 143 170.5t218 61.5q205 0 330.5 -153t125.5 -402v-2q0 -250 -125.5 -403t-330.5 -153q-122 0 -219.5 61.5t-141.5 166.5h-13v-567h-132zM648 100q160 0 254 119t94 319v2q0 200 -94 318.5t-254 118.5q-159 0 -254 -119t-95 -318v-2
q0 -200 95 -319t254 -119z" />
    <glyph glyph-name="q" unicode="q" horiz-adv-x="1242" 
d="M943 -357v562h-13q-44 -104 -140.5 -163.5t-221.5 -59.5q-204 0 -328.5 153t-124.5 403v2q0 251 124 403t329 152q121 0 218 -64t147 -174h10v220h132v-1434h-132zM596 100q158 0 254 120t96 318v1q0 199 -96 318.5t-255 119.5q-158 0 -251.5 -118.5t-93.5 -319.5v-2
q0 -200 93.5 -318.5t252.5 -118.5z" />
    <glyph glyph-name="r" unicode="r" horiz-adv-x="764" 
d="M169 0v1077h132v-177h13q32 93 108 144t185 51q58 0 101 -10v-130q-55 14 -115 14q-127 0 -209.5 -83.5t-82.5 -213.5v-672h-132z" />
    <glyph glyph-name="s" unicode="s" horiz-adv-x="1058" 
d="M531 -18q-176 0 -289.5 78t-130.5 210h136q22 -82 97.5 -129t190.5 -47q119 0 198 54.5t79 138.5v2q0 70 -53 113.5t-171 71.5l-150 36q-152 36 -222.5 102.5t-70.5 178.5v1q0 130 112 216.5t276 86.5q163 0 270 -75.5t126 -203.5h-130q-18 76 -89.5 122t-177.5 46
t-179 -53t-73 -133v-2q0 -65 50.5 -106t158.5 -67l149 -35q159 -38 234 -106.5t75 -182.5v-2q0 -138 -119 -226.5t-297 -88.5z" />
    <glyph glyph-name="t" unicode="t" horiz-adv-x="724" 
d="M525 -7q-155 0 -223 64t-68 211v698h-173v111h173v280h137v-280h246v-111h-246v-668q0 -100 39 -143.5t130 -43.5q41 0 77 4v-114q-48 -8 -92 -8z" />
    <glyph glyph-name="u" unicode="u" horiz-adv-x="1192" 
d="M538 -18q-180 0 -279 104.5t-99 290.5v700h132v-667q0 -152 70 -231t208 -79q150 0 235.5 91.5t85.5 245.5v640h132v-1077h-132v188h-12q-40 -98 -128.5 -152t-212.5 -54z" />
    <glyph glyph-name="v" unicode="v" horiz-adv-x="1078" 
d="M469 0l-402 1077h140l326 -934h12l325 934h141l-402 -1077h-140z" />
    <glyph glyph-name="w" unicode="w" horiz-adv-x="1566" 
d="M372 0l-305 1077h133l239 -914h12l266 914h131l266 -914h12l241 914h132l-307 -1077h-139l-265 894h-13l-265 -894h-138z" />
    <glyph glyph-name="x" unicode="x" horiz-adv-x="1047" 
d="M72 0l380 542l-382 535h157l293 -430h13l290 430h151l-378 -530l382 -547h-157l-293 440h-12l-294 -440h-150z" />
    <glyph glyph-name="y" unicode="y" horiz-adv-x="1079" 
d="M243 -372q-34 0 -59 4v110q16 -3 55 -3q77 0 125 39t80 134l27 81l-404 1084h142l325 -934h14l324 934h140l-435 -1171q-59 -158 -131.5 -218t-202.5 -60z" />
    <glyph glyph-name="z" unicode="z" horiz-adv-x="1082" 
d="M131 0v100l660 854v12h-659v111h816v-101l-658 -853v-12h660v-111h-819z" />
    <glyph glyph-name="braceleft" unicode="{" horiz-adv-x="751" 
d="M621 -357q-165 0 -243 80t-78 250v308q0 122 -48 169.5t-175 47.5v157q127 0 175 47.5t48 170.5v306q0 169 78 248t243 79h53v-109h-42q-109 0 -157.5 -53.5t-48.5 -178.5v-345q0 -110 -53.5 -166.5t-169.5 -65.5v-22q116 -9 169.5 -65.5t53.5 -166.5v-346
q0 -126 49.5 -181t156.5 -55h42v-109h-53z" />
    <glyph glyph-name="bar" unicode="|" horiz-adv-x="494" 
d="M185 -357v1800h124v-1800h-124z" />
    <glyph glyph-name="braceright" unicode="}" horiz-adv-x="751" 
d="M130 -357h-53v109h42q107 0 156.5 55t49.5 181v346q0 110 53.5 166.5t169.5 65.5v22q-116 9 -169.5 65.5t-53.5 166.5v345q0 125 -48.5 178.5t-157.5 53.5h-42v109h53q165 0 243 -79t78 -248v-306q0 -123 48 -170.5t175 -47.5v-157q-127 0 -175 -47.5t-48 -169.5v-308
q0 -170 -78 -250t-243 -80z" />
    <glyph glyph-name="asciitilde" unicode="~" horiz-adv-x="1278" 
d="M878 441q-58 0 -128 26t-123.5 57.5t-120 57.5t-119.5 26q-152 0 -259 -126v122q105 122 272 122q58 0 127.5 -26t123.5 -57.5t120.5 -57.5t119.5 -26q150 0 259 126v-122q-105 -122 -272 -122z" />
    <glyph glyph-name="nonbreakingspace" unicode="&#xa0;" horiz-adv-x="552" 
 />
    <glyph glyph-name="exclamationmarkinverted" unicode="&#xa1;" horiz-adv-x="617" 
d="M308 1091q50 0 81 -31.5t31 -80.5t-31 -80.5t-81 -31.5q-49 0 -80 31.5t-31 80.5t31 80.5t80 31.5zM372 620l12 -986h-150l11 986h127z" />
    <glyph glyph-name="centsign" unicode="&#xa2;" horiz-adv-x="1278" 
d="M615 0v177q-203 17 -322.5 162t-119.5 382v2q0 234 119.5 380t322.5 164v175h96v-175q169 -12 279 -112t130 -239v-4h-129l-1 4q-21 95 -94 159t-185 74v-855q110 10 183 70t95 157l2 3l129 1l1 -5q-22 -143 -133.5 -237.5t-276.5 -106.5v-176h-96zM308 721
q0 -185 82.5 -296.5t224.5 -129.5v853q-142 -18 -224.5 -130t-82.5 -295v-2z" />
    <glyph glyph-name="sterlingsign" unicode="&#xa3;" horiz-adv-x="1278" 
d="M108 30v117q140 28 226.5 120.5t86.5 214.5q0 86 -35 186h-263v106h223q-53 138 -53 234q0 195 132 304.5t367 109.5q182 0 296 -57v-123q-45 26 -126.5 42.5t-162.5 16.5q-173 0 -270 -77t-97 -213q0 -94 54 -237h498v-106h-460q31 -95 31 -181q0 -110 -59 -196.5
t-165 -131.5v-11h831v-118h-1054z" />
    <glyph glyph-name="currencysign" unicode="&#xa4;" horiz-adv-x="1278" 
d="M1038 722v-1q0 -133 -78 -240l194 -193l-82 -82l-194 194q-105 -78 -239 -78h-1q-134 0 -239 78l-194 -194l-82 82l194 193q-78 107 -78 240v1q0 134 78 239l-194 194l82 82l193 -194q107 78 240 78h1q133 0 240 -78l193 194l82 -82l-194 -193q78 -107 78 -240zM938 722
q0 125 -87 212t-212 87h-2q-125 0 -211.5 -87t-86.5 -212v-2q0 -125 86.5 -211.5t211.5 -86.5h2q125 0 212 86.5t87 211.5v2z" />
    <glyph glyph-name="yensign" unicode="&#xa5;" horiz-adv-x="1278" 
d="M229 329v95h342v172h-342v95h294l-457 722h156l414 -676h6l414 676h155l-456 -722h304v-95h-352v-172h352v-95h-352v-299h-136v299h-342z" />
    <glyph glyph-name="brokenbar" unicode="&#xa6;" horiz-adv-x="494" 
d="M309 1444v-715h-124v715h124zM185 -357v715h124v-715h-124z" />
    <glyph glyph-name="section" unicode="&#xa7;" horiz-adv-x="1178" 
d="M594 -225q-164 0 -273.5 78.5t-123.5 206.5l-1 11h133l2 -7q14 -80 88 -128t181 -48q112 0 183.5 53.5t71.5 138.5v2q0 69 -53 113.5t-169 75.5l-125 33q-166 44 -243.5 116t-78.5 182v2q0 99 65.5 172.5t175.5 103.5v10q-117 44 -172.5 109.5t-55.5 161.5v2
q0 138 107.5 224t278.5 86q159 0 264 -74t125 -200l2 -13h-132l-1 8q-13 75 -84 120.5t-177 45.5q-111 0 -181 -52.5t-70 -136.5v-3q0 -69 51 -113t163 -76l125 -33q167 -45 245 -114.5t78 -176.5v-2q0 -103 -65.5 -178t-176.5 -105v-10q120 -43 177 -108.5t57 -160.5v-2
q0 -138 -110 -226t-281 -88zM533 422l77 -20q115 11 182 70.5t67 151.5v2q0 76 -53 124t-161 78l-77 20q-116 -11 -182.5 -70t-66.5 -152v-2q0 -75 52.5 -123t161.5 -79z" />
    <glyph glyph-name="dieresis" unicode="&#xa8;" horiz-adv-x="1024" 
d="M302 1308q-37 0 -63.5 26.5t-26.5 63.5t26.5 63t63.5 26t63 -26t26 -63t-26 -63.5t-63 -26.5zM723 1308q-37 0 -63 26.5t-26 63.5t26 63t63 26t63.5 -26t26.5 -63t-26.5 -63.5t-63.5 -26.5z" />
    <glyph glyph-name="copyright" unicode="&#xa9;" horiz-adv-x="1800" 
d="M1673 725v-7q0 -159 -60 -301.5t-162.5 -245t-245 -162.5t-301.5 -60h-8q-159 0 -301.5 60t-245 162.5t-162.5 245t-60 301.5v7q0 159 60 301.5t162.5 245t245 162.5t301.5 60h8q159 0 301.5 -60t245 -162.5t162.5 -245t60 -301.5zM1570 725q0 184 -88 337t-241 241.5
t-337 88.5h-8q-184 0 -337 -88.5t-241 -241.5t-88 -337v-7q0 -184 88 -337t241 -241.5t337 -88.5h8q184 0 337 88.5t241 241.5t88 337v7zM914 363q-151 0 -239 96t-88 262v1q0 166 87.5 262t238.5 96q119 0 203 -68t97 -174v-4l-104 -1v3q-13 64 -67.5 105t-128.5 41
q-101 0 -159.5 -70t-58.5 -190v-1q0 -120 59 -190t160 -70q75 0 128 37.5t66 99.5l1 3h104v-4q-14 -105 -95.5 -169.5t-203.5 -64.5z" />
    <glyph glyph-name="a.sups" unicode="&#xaa;" horiz-adv-x="774" 
d="M312 786q-99 0 -162 52.5t-63 138.5v1q0 85 64 133.5t185 56.5l200 12v58q0 62 -40.5 94.5t-116.5 32.5q-135 0 -163 -88v-2h-102v4q14 80 86.5 128t182.5 48q122 0 189.5 -57t67.5 -160v-441h-104v104h-8q-29 -54 -86 -84.5t-130 -30.5zM192 982q0 -50 40.5 -79
t105.5 -29q84 0 141 46.5t57 115.5v67l-186 -12q-158 -10 -158 -108v-1z" />
    <glyph glyph-name="guillemetleft" unicode="&#xab;" horiz-adv-x="1324" 
d="M544 149l-359 414v6l359 414h157l-357 -411v-13l357 -410h-157zM956 149l-358 414v6l358 414h157l-357 -411v-13l357 -410h-157z" />
    <glyph glyph-name="logicalnot" unicode="&#xac;" horiz-adv-x="1278" 
d="M128 520v124h1022v-600h-124v476h-898z" />
    <glyph glyph-name="registered" unicode="&#xae;" horiz-adv-x="1364" 
d="M1237 922v-7q0 -152 -73 -279t-199.5 -200t-278.5 -73h-7q-152 0 -279 73t-200 200t-73 279v7q0 152 73 278.5t200 199.5t279 73h7q152 0 278.5 -73t199.5 -199.5t73 -278.5zM1137 922q0 190 -130.5 320.5t-320.5 130.5h-7q-190 0 -321 -130.5t-131 -320.5v-7
q0 -125 59.5 -229t163.5 -163.5t229 -59.5h7q190 0 320.5 131t130.5 321v7zM467 629v578h236q99 0 155 -48.5t56 -134.5q0 -57 -31.5 -100.5t-86.5 -62.5l136 -232h-115l-124 216h-126v-216h-100zM567 924h125q56 0 87 26.5t31 71.5v1q0 44 -32 70.5t-87 26.5h-124v-196z
" />
    <glyph glyph-name="macron" unicode="&#xaf;" horiz-adv-x="1024" 
d="M200 1345v105h624v-105h-624z" />
    <glyph glyph-name="degree" unicode="&#xb0;" horiz-adv-x="975" 
d="M487 765q-137 0 -229 93t-92 227v2q0 135 92 228t229 93q138 0 230 -93t92 -228v-2q0 -134 -92.5 -227t-229.5 -93zM487 873q89 0 147.5 62t58.5 150v2q0 89 -59 151t-147 62q-89 0 -147 -62t-58 -151v-2q0 -88 58.5 -150t146.5 -62z" />
    <glyph glyph-name="plusminus" unicode="&#xb1;" horiz-adv-x="1278" 
d="M579 172v424h-420v123h420v424h121v-424h418v-123h-418v-424h-121zM159 22v106h959v-106h-959z" />
    <glyph glyph-name="two.sups" unicode="&#xb2;" horiz-adv-x="674" 
d="M87 797v78l255 243q81 79 108.5 119t27.5 81v2q0 54 -40 89t-105 35q-67 0 -109.5 -37.5t-42.5 -95.5v-2h-99l-1 2q1 99 73 161.5t185 62.5q106 0 175 -58t69 -148v-1q0 -61 -37.5 -119.5t-137.5 -150.5l-177 -162v-6h369v-93h-513z" />
    <glyph glyph-name="three.sups" unicode="&#xb3;" horiz-adv-x="695" 
d="M350 783q-118 0 -192 57t-83 149v6h101v-5q8 -50 54.5 -82t119.5 -32t120 35t47 90v1q0 60 -47 92.5t-131 32.5h-88v84h86q70 0 113.5 32.5t43.5 83.5v1q0 52 -39.5 83t-107.5 31q-65 0 -108 -31t-49 -81v-5h-99l1 5q8 91 77 146.5t178 55.5q112 0 180.5 -52.5
t68.5 -136.5v-1q0 -66 -44 -110t-116 -58v-3q86 -7 137 -53t51 -120v-1q0 -94 -76.5 -154t-197.5 -60z" />
    <glyph glyph-name="acute" unicode="&#xb4;" horiz-adv-x="1024" 
d="M458 1229h-118l187 330h158z" />
    <glyph glyph-name="mu.grek" unicode="&#x3bc;" horiz-adv-x="1255" 
d="M172 -357v1434h132v-663q0 -154 71 -234.5t205 -80.5q141 0 226 92.5t85 245.5v640h132v-834q0 -74 24 -104.5t81 -30.5q26 0 54 6v-114q-33 -10 -78 -10q-101 0 -148.5 40.5t-57.5 134.5l-2 28h-12q-86 -212 -309 -212q-96 0 -163 41.5t-95 117.5h-13v-497h-132z" />
    <glyph glyph-name="mu.grek" unicode="&#xb5;" horiz-adv-x="1255" 
d="M172 -357v1434h132v-663q0 -154 71 -234.5t205 -80.5q141 0 226 92.5t85 245.5v640h132v-834q0 -74 24 -104.5t81 -30.5q26 0 54 6v-114q-33 -10 -78 -10q-101 0 -148.5 40.5t-57.5 134.5l-2 28h-12q-86 -212 -309 -212q-96 0 -163 41.5t-95 117.5h-13v-497h-132z" />
    <glyph glyph-name="paragraph" unicode="&#xb6;" horiz-adv-x="1178" 
d="M584 -195v828h-19q-192 0 -320 113t-129 285v2q0 180 127.5 295t322.5 115h141v-1638h-123zM869 -195v1638h123v-1638h-123z" />
    <glyph glyph-name="middledot" unicode="&#xb7;" horiz-adv-x="593" 
d="M297 476q-44 0 -75 31t-31 75t31 75t75 31t74.5 -31t30.5 -75t-30.5 -75t-74.5 -31z" />
    <glyph glyph-name="cedilla" unicode="&#xb8;" horiz-adv-x="1024" 
d="M486 -494q-81 0 -154 20v92q59 -17 132 -17q56 0 96.5 24.5t40.5 70.5v2q0 53 -41 76.5t-123 23.5h-40v71l89 151h98v-20l-70 -116q97 0 156 -48.5t59 -133.5v-2q0 -95 -69.5 -144.5t-173.5 -49.5z" />
    <glyph glyph-name="one.sups" unicode="&#xb9;" horiz-adv-x="502" 
d="M263 797v610h-7l-192 -124v106l200 129h105v-721h-106z" />
    <glyph glyph-name="o.sups" unicode="&#xba;" horiz-adv-x="831" 
d="M416 785q-146 0 -230 90t-84 245v1q0 154 84.5 244t229.5 90q144 0 228.5 -90t84.5 -244v-1q0 -155 -84 -245t-229 -90zM415 876q97 0 152 64.5t55 178.5v2q0 113 -55 177.5t-152 64.5t-151.5 -64.5t-54.5 -177.5v-2q0 -114 54.5 -178.5t151.5 -64.5z" />
    <glyph glyph-name="guillemetright" unicode="&#xbb;" horiz-adv-x="1324" 
d="M780 983l359 -414v-6l-359 -414h-157l357 410v13l-357 411h157zM368 983l358 -414v-6l-358 -414h-157l357 410v13l-357 411h157z" />
    <glyph glyph-name="onequarter" unicode="&#xbc;" horiz-adv-x="1538" 
d="M263 722v610h-7l-192 -124v105l200 130h105v-721h-106zM306 0h-125l975 1443h125zM1261 0v148h-378v92q139 226 330 482h150v-481h108v-93h-108v-148h-102zM983 238h279v393h-6q-156 -202 -273 -386v-7z" />
    <glyph glyph-name="onehalf" unicode="&#xbd;" horiz-adv-x="1600" 
d="M263 722v610h-7l-192 -124v105l200 130h105v-721h-106zM306 0h-125l975 1443h125zM1013 0v78l255 243q81 79 108.5 119t27.5 81v2q0 55 -40 89.5t-105 34.5q-67 0 -109.5 -37t-42.5 -96v-2h-99l-1 2q1 99 73 161.5t185 62.5q106 0 175 -57.5t69 -147.5v-2
q0 -61 -37.5 -119t-137.5 -150l-177 -163v-5h369v-94h-513z" />
    <glyph glyph-name="threequarters" unicode="&#xbe;" horiz-adv-x="1742" 
d="M350 707q-118 0 -192 57t-83 150v6h101v-5q8 -51 54.5 -82.5t119.5 -31.5t120 35t47 90v1q0 60 -47 92.5t-131 32.5h-88v84h86q70 0 113.5 32.5t43.5 83.5v1q0 52 -40 83t-107 31q-65 0 -108 -31t-49 -82v-5h-99l1 6q8 91 77 146.5t178 55.5q112 0 180.5 -52.5
t68.5 -136.5v-1q0 -66 -44 -110t-116 -58v-3q86 -7 137 -53t51 -120v-1q0 -95 -76.5 -155t-197.5 -60zM499 0h-125l975 1443h125zM1465 0v148h-378v92q145 235 330 482h149v-481h108v-93h-108v-148h-101zM1187 238h279v393h-6q-165 -213 -273 -386v-7z" />
    <glyph glyph-name="questionmarkinverted" unicode="&#xbf;" horiz-adv-x="1020" 
d="M542 1091q49 0 80.5 -31.5t31.5 -80.5t-31.5 -80.5t-80.5 -31.5t-80 31.5t-31 80.5t31 80.5t80 31.5zM621 648v-95q0 -98 -46 -168.5t-152 -138.5q-95 -62 -134 -120t-39 -139v-2q0 -107 76.5 -176t196.5 -69q121 0 198 70t86 187l2 1l129 1v-2q-9 -164 -120.5 -270
t-298.5 -106q-179 0 -294.5 102t-115.5 255v2q0 108 52.5 190t158.5 151q98 62 133 115t35 136v76h133z" />
    <glyph glyph-name="Agrave" unicode="&#xc0;" horiz-adv-x="1363" 
d="M634 1588l-217 314h154l178 -314h-115zM74 0l539 1443h136l540 -1443h-144l-160 442h-607l-160 -442h-144zM675 1264l-255 -704h522l-255 704h-12z" />
    <glyph glyph-name="Aacute" unicode="&#xc1;" horiz-adv-x="1363" 
d="M733 1588h-116l179 314h154zM74 0l539 1443h136l540 -1443h-144l-160 442h-607l-160 -442h-144zM675 1264l-255 -704h522l-255 704h-12z" />
    <glyph glyph-name="Acircumflex" unicode="&#xc2;" horiz-adv-x="1363" 
d="M367 1588l236 314h156l236 -314h-140l-168 228h-12l-168 -228h-140zM74 0l539 1443h136l540 -1443h-144l-160 442h-607l-160 -442h-144zM675 1264l-255 -704h522l-255 704h-12z" />
    <glyph glyph-name="Atilde" unicode="&#xc3;" horiz-adv-x="1363" 
d="M823 1602q-48 0 -86 21t-79 64l-15 14q-52 55 -92 55q-37 0 -58.5 -39.5t-21.5 -109.5v-8h-106v12q0 113 46.5 179.5t128.5 66.5t165 -85l14 -15q53 -54 93 -54q37 0 58 39t21 110v7h106v-11q0 -114 -46 -180t-128 -66zM74 0l539 1443h136l540 -1443h-144l-160 442h-607
l-160 -442h-144zM675 1264l-255 -704h522l-255 704h-12z" />
    <glyph glyph-name="Adieresis" unicode="&#xc4;" horiz-adv-x="1363" 
d="M479 1661q-36 0 -61.5 26t-25.5 62t25.5 62t61.5 26t62 -26t26 -62t-26 -62t-62 -26zM883 1661q-36 0 -61.5 26t-25.5 62t25.5 62t61.5 26t62 -26t26 -62t-26 -62t-62 -26zM74 0l539 1443h136l540 -1443h-144l-160 442h-607l-160 -442h-144zM675 1264l-255 -704h522
l-255 704h-12z" />
    <glyph glyph-name="Aring" unicode="&#x212b;" horiz-adv-x="1363" 
d="M683 1557q-80 0 -136.5 55t-56.5 133v1q0 79 56.5 133.5t136.5 54.5q81 0 137.5 -54.5t56.5 -133.5v-1q0 -78 -56.5 -133t-137.5 -55zM683 1634q48 0 81 32t33 79v1q0 47 -33 79t-81 32q-47 0 -80.5 -32.5t-33.5 -78.5v-1q0 -46 33.5 -78.5t80.5 -32.5zM74 0l539 1443
h136l540 -1443h-144l-160 442h-607l-160 -442h-144zM675 1264l-255 -704h522l-255 704h-12z" />
    <glyph glyph-name="Aring" unicode="&#xc5;" horiz-adv-x="1363" 
d="M683 1557q-80 0 -136.5 55t-56.5 133v1q0 79 56.5 133.5t136.5 54.5q81 0 137.5 -54.5t56.5 -133.5v-1q0 -78 -56.5 -133t-137.5 -55zM683 1634q48 0 81 32t33 79v1q0 47 -33 79t-81 32q-47 0 -80.5 -32.5t-33.5 -78.5v-1q0 -46 33.5 -78.5t80.5 -32.5zM74 0l539 1443
h136l540 -1443h-144l-160 442h-607l-160 -442h-144zM675 1264l-255 -704h522l-255 704h-12z" />
    <glyph glyph-name="AE" unicode="&#xc6;" horiz-adv-x="1955" 
d="M74 0l678 1443h1063v-124h-677v-526h640v-122h-640v-547h677v-124h-813v486h-559l-230 -486h-139zM841 1327l-342 -723h503v723h-161z" />
    <glyph glyph-name="Ccedilla" unicode="&#xc7;" horiz-adv-x="1455" 
d="M733 -494q-73 0 -153 20v92q51 -17 132 -17q56 0 96.5 24.5t40.5 70.5v2q0 53 -41 76.5t-123 23.5h-40v71l60 103q-269 21 -423.5 220t-154.5 528v2q0 347 171 549t464 202q222 0 384.5 -132.5t191.5 -337.5l-1 -1h-137l-1 1q-32 152 -153 247.5t-284 95.5
q-227 0 -361 -169t-134 -455v-2q0 -286 134 -454.5t362 -168.5q167 0 286.5 85.5t149.5 227.5l1 1l137 1l1 -2q-29 -186 -171 -305t-352 -133l-53 -88q98 0 156.5 -48.5t58.5 -133.5v-2q0 -95 -70 -144.5t-174 -49.5z" />
    <glyph glyph-name="Egrave" unicode="&#xc8;" horiz-adv-x="1197" 
d="M574 1588l-217 314h154l178 -314h-115zM185 0v1443h872v-124h-735v-519h698v-122h-698v-554h735v-124h-872z" />
    <glyph glyph-name="Eacute" unicode="&#xc9;" horiz-adv-x="1197" 
d="M673 1588h-116l178 314h154zM185 0v1443h872v-124h-735v-519h698v-122h-698v-554h735v-124h-872z" />
    <glyph glyph-name="Ecircumflex" unicode="&#xca;" horiz-adv-x="1197" 
d="M307 1588l236 314h156l236 -314h-140l-168 228h-12l-168 -228h-140zM185 0v1443h872v-124h-735v-519h698v-122h-698v-554h735v-124h-872z" />
    <glyph glyph-name="Edieresis" unicode="&#xcb;" horiz-adv-x="1197" 
d="M419 1661q-36 0 -62 26t-26 62t26 62t62 26t62 -26t26 -62t-26 -62t-62 -26zM823 1661q-36 0 -62 26t-26 62t26 62t62 26t62 -26t26 -62t-26 -62t-62 -26zM185 0v1443h872v-124h-735v-519h698v-122h-698v-554h735v-124h-872z" />
    <glyph glyph-name="Igrave" unicode="&#xcc;" horiz-adv-x="507" 
d="M206 1588l-217 314h154l179 -314h-116zM185 0v1443h137v-1443h-137z" />
    <glyph glyph-name="Iacute" unicode="&#xcd;" horiz-adv-x="507" 
d="M305 1588h-115l178 314h154zM185 0v1443h137v-1443h-137z" />
    <glyph glyph-name="Icircumflex" unicode="&#xce;" horiz-adv-x="507" 
d="M-61 1588l236 314h156l236 -314h-140l-168 228h-12l-167 -228h-141zM185 0v1443h137v-1443h-137z" />
    <glyph glyph-name="Idieresis" unicode="&#xcf;" horiz-adv-x="507" 
d="M51 1661q-35 0 -61 26t-26 62t26 62t61 26q37 0 62.5 -26t25.5 -62t-25.5 -62t-62.5 -26zM456 1661q-37 0 -62.5 26t-25.5 62t25.5 62t62.5 26q35 0 61 -26t26 -62t-26 -62t-61 -26zM185 0v1443h137v-1443h-137z" />
    <glyph glyph-name="Dstroke" unicode="&#x110;" horiz-adv-x="1533" 
d="M247 0v664h-186v116h186v663h475q327 0 505.5 -191t178.5 -529v-2q0 -339 -178.5 -530t-505.5 -191h-475zM383 124h330q263 0 408 157.5t145 438.5v2q0 280 -145 438.5t-408 158.5h-330v-539h364v-116h-364v-540z" />
    <glyph glyph-name="Dstroke" unicode="&#xd0;" horiz-adv-x="1533" 
d="M247 0v664h-186v116h186v663h475q327 0 505.5 -191t178.5 -529v-2q0 -339 -178.5 -530t-505.5 -191h-475zM383 124h330q263 0 408 157.5t145 438.5v2q0 280 -145 438.5t-408 158.5h-330v-539h364v-116h-364v-540z" />
    <glyph glyph-name="Ntilde" unicode="&#xd1;" horiz-adv-x="1494" 
d="M889 1602q-47 0 -85.5 21t-80.5 64l-14 14q-52 55 -93 55q-37 0 -58 -39.5t-21 -109.5v-8h-106v12q0 113 46 179.5t128 66.5q47 0 85 -21t81 -64l14 -15q53 -54 93 -54q37 0 58 39.5t21 109.5v7h106v-11q0 -114 -46 -180t-128 -66zM185 0v1443h135l841 -1198h13v1198h135
v-1443h-132l-844 1199h-13v-1199h-135z" />
    <glyph glyph-name="Ograve" unicode="&#xd2;" horiz-adv-x="1561" 
d="M733 1588l-217 314h155l178 -314h-116zM781 -30q-304 0 -479 202.5t-175 548.5v2q0 346 176 548t478 202t477.5 -202t175.5 -548v-2q0 -346 -175 -548.5t-478 -202.5zM781 97q236 0 375 169.5t139 454.5v2q0 286 -139 454.5t-375 168.5t-375 -168.5t-139 -454.5v-2
q0 -286 138 -455t376 -169z" />
    <glyph glyph-name="Oacute" unicode="&#xd3;" horiz-adv-x="1561" 
d="M832 1588h-115l178 314h154zM781 -30q-304 0 -479 202.5t-175 548.5v2q0 346 176 548t478 202t477.5 -202t175.5 -548v-2q0 -346 -175 -548.5t-478 -202.5zM781 97q236 0 375 169.5t139 454.5v2q0 286 -139 454.5t-375 168.5t-375 -168.5t-139 -454.5v-2q0 -286 138 -455
t376 -169z" />
    <glyph glyph-name="Ocircumflex" unicode="&#xd4;" horiz-adv-x="1561" 
d="M467 1588l236 314h156l236 -314h-141l-167 228h-12l-168 -228h-140zM781 -30q-304 0 -479 202.5t-175 548.5v2q0 346 176 548t478 202t477.5 -202t175.5 -548v-2q0 -346 -175 -548.5t-478 -202.5zM781 97q236 0 375 169.5t139 454.5v2q0 286 -139 454.5t-375 168.5
t-375 -168.5t-139 -454.5v-2q0 -286 138 -455t376 -169z" />
    <glyph glyph-name="Otilde" unicode="&#xd5;" horiz-adv-x="1561" 
d="M922 1602q-83 0 -165 85l-14 14q-52 55 -93 55q-37 0 -58 -39.5t-21 -109.5v-8h-107v12q0 113 46.5 179.5t128.5 66.5q47 0 85 -21t80 -64l15 -15q29 -30 49.5 -42t42.5 -12q37 0 58 39t21 110v7h107v-11q0 -114 -46.5 -180t-128.5 -66zM781 -30q-304 0 -479 202.5
t-175 548.5v2q0 346 176 548t478 202t477.5 -202t175.5 -548v-2q0 -346 -175 -548.5t-478 -202.5zM781 97q236 0 375 169.5t139 454.5v2q0 286 -139 454.5t-375 168.5t-375 -168.5t-139 -454.5v-2q0 -286 138 -455t376 -169z" />
    <glyph glyph-name="Odieresis" unicode="&#xd6;" horiz-adv-x="1561" 
d="M579 1661q-36 0 -62 26t-26 62t26 62t62 26t61.5 -26t25.5 -62t-25.5 -62t-61.5 -26zM983 1661q-36 0 -62 26t-26 62t26 62t62 26t61.5 -26t25.5 -62t-25.5 -62t-61.5 -26zM781 -30q-304 0 -479 202.5t-175 548.5v2q0 346 176 548t478 202t477.5 -202t175.5 -548v-2
q0 -346 -175 -548.5t-478 -202.5zM781 97q236 0 375 169.5t139 454.5v2q0 286 -139 454.5t-375 168.5t-375 -168.5t-139 -454.5v-2q0 -286 138 -455t376 -169z" />
    <glyph glyph-name="multiply" unicode="&#xd7;" horiz-adv-x="1278" 
d="M178 972l83 81l378 -388l377 388l83 -81l-379 -390l379 -390l-83 -82l-377 388l-378 -388l-83 82l379 390z" />
    <glyph glyph-name="Ostroke" unicode="&#xd8;" horiz-adv-x="1557" 
d="M779 -30q-260 0 -428 152l-136 -164l-83 70l145 174q-150 199 -150 519v2q0 346 175.5 548t476.5 202q258 0 427 -152l137 164l83 -69l-146 -176q150 -198 150 -517v-2q0 -346 -174.5 -548.5t-476.5 -202.5zM259 721q0 -251 106 -412l757 910q-136 130 -343 130
q-239 0 -379.5 -169t-140.5 -456v-3zM779 94q239 0 379.5 170.5t140.5 456.5v3q0 247 -107 410l-756 -910q136 -130 343 -130z" />
    <glyph glyph-name="Ugrave" unicode="&#xd9;" horiz-adv-x="1485" 
d="M695 1588l-217 314h154l178 -314h-115zM743 -30q-258 0 -408.5 144.5t-150.5 382.5v946h136v-938q0 -186 113 -297t310 -111t309 111t112 297v938h137v-946q0 -239 -150 -383t-408 -144z" />
    <glyph glyph-name="Uacute" unicode="&#xda;" horiz-adv-x="1485" 
d="M794 1588h-116l179 314h154zM743 -30q-258 0 -408.5 144.5t-150.5 382.5v946h136v-938q0 -186 113 -297t310 -111t309 111t112 297v938h137v-946q0 -239 -150 -383t-408 -144z" />
    <glyph glyph-name="Ucircumflex" unicode="&#xdb;" horiz-adv-x="1485" 
d="M428 1588l236 314h156l236 -314h-140l-168 228h-12l-168 -228h-140zM743 -30q-258 0 -408.5 144.5t-150.5 382.5v946h136v-938q0 -186 113 -297t310 -111t309 111t112 297v938h137v-946q0 -239 -150 -383t-408 -144z" />
    <glyph glyph-name="Udieresis" unicode="&#xdc;" horiz-adv-x="1485" 
d="M540 1661q-36 0 -61.5 26t-25.5 62t25.5 62t61.5 26t62 -26t26 -62t-26 -62t-62 -26zM944 1661q-36 0 -61.5 26t-25.5 62t25.5 62t61.5 26t62 -26t26 -62t-26 -62t-62 -26zM743 -30q-258 0 -408.5 144.5t-150.5 382.5v946h136v-938q0 -186 113 -297t310 -111t309 111
t112 297v938h137v-946q0 -239 -150 -383t-408 -144z" />
    <glyph glyph-name="Yacute" unicode="&#xdd;" horiz-adv-x="1319" 
d="M711 1588h-115l178 314h154zM592 0v624l-518 819h157l423 -680h12l423 680h156l-517 -819v-624h-136z" />
    <glyph glyph-name="Thorn" unicode="&#xde;" horiz-adv-x="1270" 
d="M185 0v1443h137v-274h386q184 0 307.5 -110.5t123.5 -298.5v-2q0 -188 -123.5 -299t-308.5 -111h-385v-348h-137zM674 1046h-352v-576h352q148 0 236.5 75.5t88.5 212.5v2q0 136 -88.5 211t-236.5 75z" />
    <glyph glyph-name="germandbls" unicode="&#xdf;" horiz-adv-x="1229" 
d="M676 -19q-88 0 -156 16v120q68 -18 147 -18q151 0 237.5 86t86.5 224v2q0 139 -98.5 227.5t-270.5 88.5h-77v112h70q118 0 191.5 82t73.5 215v2q0 117 -72 193.5t-193 76.5q-130 0 -202 -80.5t-72 -223.5v-1104h-130v1118q0 188 109.5 297.5t292.5 109.5
q177 0 288.5 -107t111.5 -273v-2q0 -122 -65.5 -217t-162.5 -124v-13q151 -15 246 -117t95 -263v-2q0 -183 -124.5 -304.5t-325.5 -121.5z" />
    <glyph glyph-name="agrave" unicode="&#xe0;" horiz-adv-x="1125" 
d="M513 1229l-227 330h158l187 -330h-118zM466 -18q-158 0 -259 86.5t-101 228.5v2q0 140 100 220t288 93l336 22v101q0 118 -69.5 180t-200.5 62q-110 0 -183 -43t-94 -123l-1 -2h-133l1 4q21 129 133.5 205.5t280.5 76.5q189 0 294 -94.5t105 -264.5v-736h-133v185h-12
q-48 -96 -140.5 -149.5t-211.5 -53.5zM241 299q0 -91 70 -146t180 -55q144 0 241.5 87t97.5 216v125l-318 -22q-271 -18 -271 -203v-2z" />
    <glyph glyph-name="aacute" unicode="&#xe1;" horiz-adv-x="1125" 
d="M616 1229h-119l188 330h158zM466 -18q-158 0 -259 86.5t-101 228.5v2q0 140 100 220t288 93l336 22v101q0 118 -69.5 180t-200.5 62q-110 0 -183 -43t-94 -123l-1 -2h-133l1 4q21 129 133.5 205.5t280.5 76.5q189 0 294 -94.5t105 -264.5v-736h-133v185h-12
q-48 -96 -140.5 -149.5t-211.5 -53.5zM241 299q0 -91 70 -146t180 -55q144 0 241.5 87t97.5 216v125l-318 -22q-271 -18 -271 -203v-2z" />
    <glyph glyph-name="acircumflex" unicode="&#xe2;" horiz-adv-x="1125" 
d="M237 1229l248 330h159l247 -330h-143l-178 241h-12l-177 -241h-144zM466 -18q-158 0 -259 86.5t-101 228.5v2q0 140 100 220t288 93l336 22v101q0 118 -69.5 180t-200.5 62q-110 0 -183 -43t-94 -123l-1 -2h-133l1 4q21 129 133.5 205.5t280.5 76.5q189 0 294 -94.5
t105 -264.5v-736h-133v185h-12q-48 -96 -140.5 -149.5t-211.5 -53.5zM241 299q0 -91 70 -146t180 -55q144 0 241.5 87t97.5 216v125l-318 -22q-271 -18 -271 -203v-2z" />
    <glyph glyph-name="atilde" unicode="&#xe3;" horiz-adv-x="1125" 
d="M713 1244q-50 0 -90 22.5t-84 67.5l-14 15q-32 33 -53 45.5t-45 12.5q-39 0 -61.5 -41.5t-22.5 -116.5v-8h-109v12q0 119 48 188t134 69q49 0 89 -22t85 -68l14 -15q32 -33 53 -45.5t45 -12.5q39 0 61.5 41.5t22.5 116.5v8h109v-12q0 -119 -48 -188t-134 -69zM466 -18
q-158 0 -259 86.5t-101 228.5v2q0 140 100 220t288 93l336 22v101q0 118 -69.5 180t-200.5 62q-110 0 -183 -43t-94 -123l-1 -2h-133l1 4q21 129 133.5 205.5t280.5 76.5q189 0 294 -94.5t105 -264.5v-736h-133v185h-12q-48 -96 -140.5 -149.5t-211.5 -53.5zM241 299
q0 -91 70 -146t180 -55q144 0 241.5 87t97.5 216v125l-318 -22q-271 -18 -271 -203v-2z" />
    <glyph glyph-name="adieresis" unicode="&#xe4;" horiz-adv-x="1125" 
d="M353 1308q-37 0 -63.5 26.5t-26.5 63.5t26.5 63t63.5 26t63.5 -26t26.5 -63t-26.5 -63.5t-63.5 -26.5zM775 1308q-37 0 -63.5 26.5t-26.5 63.5t26.5 63t63.5 26t63.5 -26t26.5 -63t-26.5 -63.5t-63.5 -26.5zM466 -18q-158 0 -259 86.5t-101 228.5v2q0 140 100 220t288 93
l336 22v101q0 118 -69.5 180t-200.5 62q-110 0 -183 -43t-94 -123l-1 -2h-133l1 4q21 129 133.5 205.5t280.5 76.5q189 0 294 -94.5t105 -264.5v-736h-133v185h-12q-48 -96 -140.5 -149.5t-211.5 -53.5zM241 299q0 -91 70 -146t180 -55q144 0 241.5 87t97.5 216v125
l-318 -22q-271 -18 -271 -203v-2z" />
    <glyph glyph-name="aring" unicode="&#xe5;" horiz-adv-x="1125" 
d="M564 1231q-88 0 -150 60.5t-62 146.5v1q0 86 62 146.5t150 60.5q89 0 151 -60.5t62 -146.5v-1q0 -86 -62.5 -146.5t-150.5 -60.5zM564 1312q54 0 91.5 36.5t37.5 89.5v1q0 53 -37.5 89.5t-91.5 36.5t-91 -36.5t-37 -89.5v-1q0 -53 37 -89.5t91 -36.5zM466 -18
q-158 0 -259 86.5t-101 228.5v2q0 140 100 220t288 93l336 22v101q0 118 -69.5 180t-200.5 62q-110 0 -183 -43t-94 -123l-1 -2h-133l1 4q21 129 133.5 205.5t280.5 76.5q189 0 294 -94.5t105 -264.5v-736h-133v185h-12q-48 -96 -140.5 -149.5t-211.5 -53.5zM241 299
q0 -91 70 -146t180 -55q144 0 241.5 87t97.5 216v125l-318 -22q-271 -18 -271 -203v-2z" />
    <glyph glyph-name="ae" unicode="&#xe6;" horiz-adv-x="1880" 
d="M480 -19q-167 0 -270.5 86t-103.5 227v2q0 138 99.5 217t287.5 91l338 21v78q0 133 -69 204t-202 71q-111 0 -185 -43.5t-93 -123.5v-2h-133v2q19 130 133 207.5t282 77.5q137 0 230 -61t124 -165h13q46 100 148.5 163t231.5 63q212 0 333.5 -140t121.5 -383v-58h-804
v-15q5 -184 102.5 -292.5t260.5 -108.5q102 0 179.5 44t111.5 123h133q-39 -131 -154.5 -208t-271.5 -77q-146 0 -257 71.5t-156 192.5h-12q-48 -124 -158 -194t-260 -70zM962 622h667q-2 162 -90.5 259t-234.5 97t-239 -97t-103 -259zM497 97q142 0 238 90t96 220v111
l-321 -21q-269 -19 -269 -198v-2q0 -91 71 -145.5t185 -54.5z" />
    <glyph glyph-name="ccedilla" unicode="&#xe7;" horiz-adv-x="1145" 
d="M574 -494q-75 0 -153 20v92q51 -17 131 -17q56 0 96.5 24.5t40.5 70.5v2q0 53 -40.5 76.5t-123.5 23.5h-40v71l68 115q-203 17 -320.5 166.5t-117.5 390.5v2q0 252 131.5 402t353.5 150q180 0 297.5 -92.5t143.5 -238.5v-4l-131 -1l-1 3q-25 96 -107 155.5t-202 59.5
q-160 0 -255 -117.5t-95 -316.5v-2q0 -201 95 -321t255 -120q119 0 198.5 53.5t108.5 151.5l2 5l132 1l-2 -8q-30 -134 -126 -218.5t-250 -99.5l-60 -101q97 0 155.5 -48.5t58.5 -133.5v-2q0 -95 -69.5 -144.5t-173.5 -49.5z" />
    <glyph glyph-name="egrave" unicode="&#xe8;" horiz-adv-x="1174" 
d="M543 1229l-227 330h158l188 -330h-119zM603 -18q-226 0 -357 149.5t-131 403.5v2q0 252 130.5 405t346.5 153q215 0 341 -147t126 -388v-56h-809q3 -188 99 -295.5t257 -107.5q112 0 192 45.5t108 112.5l4 7h133l-3 -8q-34 -117 -150.5 -196.5t-286.5 -79.5zM592 977
q-142 0 -235 -96.5t-106 -268.5h674q-11 175 -101 270t-232 95z" />
    <glyph glyph-name="eacute" unicode="&#xe9;" horiz-adv-x="1174" 
d="M646 1229h-118l187 330h158zM603 -18q-226 0 -357 149.5t-131 403.5v2q0 252 130.5 405t346.5 153q215 0 341 -147t126 -388v-56h-809q3 -188 99 -295.5t257 -107.5q112 0 192 45.5t108 112.5l4 7h133l-3 -8q-34 -117 -150.5 -196.5t-286.5 -79.5zM592 977
q-142 0 -235 -96.5t-106 -268.5h674q-11 175 -101 270t-232 95z" />
    <glyph glyph-name="ecircumflex" unicode="&#xea;" horiz-adv-x="1174" 
d="M267 1229l248 330h159l248 -330h-144l-178 241h-11l-178 -241h-144zM603 -18q-226 0 -357 149.5t-131 403.5v2q0 252 130.5 405t346.5 153q215 0 341 -147t126 -388v-56h-809q3 -188 99 -295.5t257 -107.5q112 0 192 45.5t108 112.5l4 7h133l-3 -8
q-34 -117 -150.5 -196.5t-286.5 -79.5zM592 977q-142 0 -235 -96.5t-106 -268.5h674q-11 175 -101 270t-232 95z" />
    <glyph glyph-name="edieresis" unicode="&#xeb;" horiz-adv-x="1174" 
d="M384 1308q-37 0 -63.5 26.5t-26.5 63.5t26.5 63t63.5 26t63 -26t26 -63t-26 -63.5t-63 -26.5zM805 1308q-37 0 -63.5 26.5t-26.5 63.5t26.5 63t63.5 26t63.5 -26t26.5 -63t-26.5 -63.5t-63.5 -26.5zM603 -18q-226 0 -357 149.5t-131 403.5v2q0 252 130.5 405t346.5 153
q215 0 341 -147t126 -388v-56h-809q3 -188 99 -295.5t257 -107.5q112 0 192 45.5t108 112.5l4 7h133l-3 -8q-34 -117 -150.5 -196.5t-286.5 -79.5zM592 977q-142 0 -235 -96.5t-106 -268.5h674q-11 175 -101 270t-232 95z" />
    <glyph glyph-name="igrave" unicode="&#xec;" horiz-adv-x="482" 
d="M190 1229l-227 330h158l188 -330h-119zM175 0v1077h132v-1077h-132z" />
    <glyph glyph-name="iacute" unicode="&#xed;" horiz-adv-x="482" 
d="M293 1229h-118l187 330h158zM175 0v1077h132v-1077h-132z" />
    <glyph glyph-name="icircumflex" unicode="&#xee;" horiz-adv-x="482" 
d="M-86 1229l248 330h159l248 -330h-144l-178 241h-11l-178 -241h-144zM175 0v1077h132v-1077h-132z" />
    <glyph glyph-name="idieresis" unicode="&#xef;" horiz-adv-x="482" 
d="M31 1308q-37 0 -63.5 26.5t-26.5 63.5t26.5 63t63.5 26t63 -26t26 -63t-26 -63.5t-63 -26.5zM452 1308q-37 0 -63.5 26.5t-26.5 63.5t26.5 63t63.5 26t63.5 -26t26.5 -63t-26.5 -63.5t-63.5 -26.5zM175 0v1077h132v-1077h-132z" />
    <glyph glyph-name="eth" unicode="&#xf0;" horiz-adv-x="1188" 
d="M599 -19q-222 0 -352.5 144t-130.5 386v2q0 236 127 383t328 147q102 0 193 -52.5t138 -142.5h12l-7 18q-54 132 -131.5 231.5t-192.5 181.5l-259 -164l-51 67l232 148q-101 63 -240 124l41 77q167 -65 291 -143l224 143l53 -67l-201 -127q401 -294 401 -788v-2
q0 -255 -127 -410.5t-348 -155.5zM599 99q153 0 246.5 112.5t93.5 296.5v2q0 190 -92.5 304.5t-247.5 114.5t-251 -114t-96 -302v-2q0 -187 94.5 -299.5t252.5 -112.5z" />
    <glyph glyph-name="ntilde" unicode="&#xf1;" horiz-adv-x="1192" 
d="M750 1244q-50 0 -90 22.5t-84 67.5l-14 15q-32 33 -53 45.5t-45 12.5q-39 0 -61.5 -41.5t-22.5 -116.5v-8h-109v12q0 119 48 188t134 69q49 0 89 -22t85 -68l14 -15q55 -58 98 -58q39 0 61 41.5t22 116.5v8h109v-12q0 -119 -48 -188t-133 -69zM169 0v1077h132v-189h13
q43 99 130 153t211 54q180 0 278.5 -103.5t98.5 -291.5v-700h-132v667q0 310 -280 310q-143 0 -231 -92.5t-88 -244.5v-640h-132z" />
    <glyph glyph-name="ograve" unicode="&#xf2;" horiz-adv-x="1208" 
d="M553 1229l-227 330h157l188 -330h-118zM604 -18q-226 0 -357.5 149.5t-131.5 406.5v2q0 257 131.5 406t357.5 149t358 -149t132 -406v-2q0 -257 -132 -406.5t-358 -149.5zM604 100q166 0 260 117t94 321v2q0 204 -94 320.5t-260 116.5t-260 -116.5t-94 -320.5v-2
q0 -204 94 -321t260 -117z" />
    <glyph glyph-name="oacute" unicode="&#xf3;" horiz-adv-x="1208" 
d="M656 1229h-119l188 330h157zM604 -18q-226 0 -357.5 149.5t-131.5 406.5v2q0 257 131.5 406t357.5 149t358 -149t132 -406v-2q0 -257 -132 -406.5t-358 -149.5zM604 100q166 0 260 117t94 321v2q0 204 -94 320.5t-260 116.5t-260 -116.5t-94 -320.5v-2q0 -204 94 -321
t260 -117z" />
    <glyph glyph-name="ocircumflex" unicode="&#xf4;" horiz-adv-x="1208" 
d="M277 1229l247 330h160l247 -330h-143l-178 241h-12l-178 -241h-143zM604 -18q-226 0 -357.5 149.5t-131.5 406.5v2q0 257 131.5 406t357.5 149t358 -149t132 -406v-2q0 -257 -132 -406.5t-358 -149.5zM604 100q166 0 260 117t94 321v2q0 204 -94 320.5t-260 116.5
t-260 -116.5t-94 -320.5v-2q0 -204 94 -321t260 -117z" />
    <glyph glyph-name="otilde" unicode="&#xf5;" horiz-adv-x="1208" 
d="M753 1244q-50 0 -90 22.5t-84 67.5l-14 15q-32 33 -53 45.5t-45 12.5q-39 0 -61.5 -41.5t-22.5 -116.5v-8h-109v12q0 119 48 188t134 69q49 0 89 -22t85 -68l14 -15q55 -58 98 -58q39 0 61 41.5t22 116.5v8h109v-12q0 -119 -48 -188t-133 -69zM604 -18
q-226 0 -357.5 149.5t-131.5 406.5v2q0 257 131.5 406t357.5 149t358 -149t132 -406v-2q0 -257 -132 -406.5t-358 -149.5zM604 100q166 0 260 117t94 321v2q0 204 -94 320.5t-260 116.5t-260 -116.5t-94 -320.5v-2q0 -204 94 -321t260 -117z" />
    <glyph glyph-name="odieresis" unicode="&#xf6;" horiz-adv-x="1208" 
d="M393 1308q-37 0 -63.5 26.5t-26.5 63.5t26.5 63t63.5 26t63.5 -26t26.5 -63t-26.5 -63.5t-63.5 -26.5zM814 1308q-37 0 -63 26.5t-26 63.5t26 63t63 26t63.5 -26t26.5 -63t-26.5 -63.5t-63.5 -26.5zM604 -18q-226 0 -357.5 149.5t-131.5 406.5v2q0 257 131.5 406
t357.5 149t358 -149t132 -406v-2q0 -257 -132 -406.5t-358 -149.5zM604 100q166 0 260 117t94 321v2q0 204 -94 320.5t-260 116.5t-260 -116.5t-94 -320.5v-2q0 -204 94 -321t260 -117z" />
    <glyph glyph-name="divide" unicode="&#xf7;" horiz-adv-x="1278" 
d="M640 877q-40 0 -67.5 27.5t-27.5 67.5t27.5 67.5t67.5 27.5t67.5 -27.5t27.5 -67.5t-27.5 -67.5t-67.5 -27.5zM96 520v124h1087v-124h-1087zM639 97q-39 0 -67 28t-28 68t28 67.5t67 27.5q40 0 67.5 -27.5t27.5 -67.5t-27.5 -68t-67.5 -28z" />
    <glyph glyph-name="ostroke" unicode="&#xf8;" horiz-adv-x="1208" 
d="M604 -18q-187 0 -312 105l-108 -130l-77 65l117 139q-108 145 -108 376v2q0 257 131.5 406.5t356.5 149.5q186 0 311 -105l109 130l76 -64l-117 -140q108 -145 108 -377v-2q0 -256 -131.5 -405.5t-355.5 -149.5zM246 537q0 -164 62 -274l527 631q-90 84 -232 84
q-167 0 -262 -117t-95 -322v-2zM603 98q168 0 263 117.5t95 321.5v2q0 164 -63 275l-527 -632q92 -84 232 -84z" />
    <glyph glyph-name="ugrave" unicode="&#xf9;" horiz-adv-x="1192" 
d="M540 1229l-227 330h158l187 -330h-118zM538 -18q-180 0 -279 104.5t-99 290.5v700h132v-667q0 -152 70 -231t208 -79q150 0 235.5 91.5t85.5 245.5v640h132v-1077h-132v188h-12q-40 -98 -128.5 -152t-212.5 -54z" />
    <glyph glyph-name="uacute" unicode="&#xfa;" horiz-adv-x="1192" 
d="M643 1229h-119l188 330h158zM538 -18q-180 0 -279 104.5t-99 290.5v700h132v-667q0 -152 70 -231t208 -79q150 0 235.5 91.5t85.5 245.5v640h132v-1077h-132v188h-12q-40 -98 -128.5 -152t-212.5 -54z" />
    <glyph glyph-name="ucircumflex" unicode="&#xfb;" horiz-adv-x="1192" 
d="M264 1229l248 330h159l248 -330h-144l-178 241h-11l-178 -241h-144zM538 -18q-180 0 -279 104.5t-99 290.5v700h132v-667q0 -152 70 -231t208 -79q150 0 235.5 91.5t85.5 245.5v640h132v-1077h-132v188h-12q-40 -98 -128.5 -152t-212.5 -54z" />
    <glyph glyph-name="udieresis" unicode="&#xfc;" horiz-adv-x="1192" 
d="M380 1308q-37 0 -63.5 26.5t-26.5 63.5t26.5 63t63.5 26t63.5 -26t26.5 -63t-26.5 -63.5t-63.5 -26.5zM802 1308q-37 0 -63.5 26.5t-26.5 63.5t26.5 63t63.5 26t63.5 -26t26.5 -63t-26.5 -63.5t-63.5 -26.5zM538 -18q-180 0 -279 104.5t-99 290.5v700h132v-667
q0 -152 70 -231t208 -79q150 0 235.5 91.5t85.5 245.5v640h132v-1077h-132v188h-12q-40 -98 -128.5 -152t-212.5 -54z" />
    <glyph glyph-name="yacute" unicode="&#xfd;" horiz-adv-x="1079" 
d="M588 1229h-119l188 330h158zM243 -372q-34 0 -59 4v110q16 -3 55 -3q77 0 125 39t80 134l27 81l-404 1084h142l325 -934h14l324 934h140l-435 -1171q-59 -158 -131.5 -218t-202.5 -60z" />
    <glyph glyph-name="thorn" unicode="&#xfe;" horiz-adv-x="1244" 
d="M169 -357v1863h132v-643h13q48 109 143 170.5t218 61.5q205 0 330.5 -153t125.5 -402v-2q0 -250 -125.5 -403t-330.5 -153q-122 0 -219.5 61.5t-141.5 166.5h-13v-567h-132zM648 100q160 0 254 119t94 319v2q0 200 -94 318.5t-254 118.5q-159 0 -254 -119t-95 -318v-2
q0 -200 95 -319t254 -119z" />
    <glyph glyph-name="ydieresis" unicode="&#xff;" horiz-adv-x="1079" 
d="M325 1308q-37 0 -63.5 26.5t-26.5 63.5t26.5 63t63.5 26t63.5 -26t26.5 -63t-26.5 -63.5t-63.5 -26.5zM747 1308q-37 0 -63.5 26.5t-26.5 63.5t26.5 63t63.5 26t63 -26t26 -63t-26 -63.5t-63 -26.5zM243 -372q-34 0 -59 4v110q16 -3 55 -3q77 0 125 39t80 134l27 81
l-404 1084h142l325 -934h14l324 934h140l-435 -1171q-59 -158 -131.5 -218t-202.5 -60z" />
    <glyph glyph-name="Amacron" unicode="&#x100;" horiz-adv-x="1363" 
d="M383 1697v103h596v-103h-596zM74 0l539 1443h136l540 -1443h-144l-160 442h-607l-160 -442h-144zM675 1264l-255 -704h522l-255 704h-12z" />
    <glyph glyph-name="amacron" unicode="&#x101;" horiz-adv-x="1125" 
d="M252 1345v105h624v-105h-624zM466 -18q-158 0 -259 86.5t-101 228.5v2q0 140 100 220t288 93l336 22v101q0 118 -69.5 180t-200.5 62q-110 0 -183 -43t-94 -123l-1 -2h-133l1 4q21 129 133.5 205.5t280.5 76.5q189 0 294 -94.5t105 -264.5v-736h-133v185h-12
q-48 -96 -140.5 -149.5t-211.5 -53.5zM241 299q0 -91 70 -146t180 -55q144 0 241.5 87t97.5 216v125l-318 -22q-271 -18 -271 -203v-2z" />
    <glyph glyph-name="Abreve" unicode="&#x102;" horiz-adv-x="1363" 
d="M681 1588q-148 0 -231 83t-83 223v2h111v-1q0 -96 52 -150.5t151 -54.5t151 54.5t52 150.5v1h111v-2q0 -140 -83 -223t-231 -83zM74 0l539 1443h136l540 -1443h-144l-160 442h-607l-160 -442h-144zM675 1264l-255 -704h522l-255 704h-12z" />
    <glyph glyph-name="abreve" unicode="&#x103;" horiz-adv-x="1125" 
d="M564 1229q-155 0 -241.5 87.5t-86.5 233.5v2h113v-1q0 -102 55 -159.5t160 -57.5t160 57.5t55 159.5v1h114v-2q0 -147 -86.5 -234t-242.5 -87zM466 -18q-158 0 -259 86.5t-101 228.5v2q0 140 100 220t288 93l336 22v101q0 118 -69.5 180t-200.5 62q-110 0 -183 -43
t-94 -123l-1 -2h-133l1 4q21 129 133.5 205.5t280.5 76.5q189 0 294 -94.5t105 -264.5v-736h-133v185h-12q-48 -96 -140.5 -149.5t-211.5 -53.5zM241 299q0 -91 70 -146t180 -55q144 0 241.5 87t97.5 216v125l-318 -22q-271 -18 -271 -203v-2z" />
    <glyph glyph-name="Aogonek" unicode="&#x104;" horiz-adv-x="1363" 
d="M74 0l539 1443h136l540 -1443q-188 -117 -188 -256v-2q0 -65 35.5 -100.5t88.5 -35.5q38 0 79 13v-94q-52 -19 -112 -19q-93 0 -158 54t-65 156v2q0 156 180 282h-4l-160 442h-607l-160 -442h-144zM675 1264l-255 -704h522l-255 704h-12z" />
    <glyph glyph-name="aogonek" unicode="&#x105;" horiz-adv-x="1125" 
d="M466 -18q-158 0 -259 86.5t-101 228.5v2q0 140 100 220t288 93l336 22v101q0 118 -69.5 180t-200.5 62q-110 0 -183 -43t-94 -123l-1 -2h-133l1 4q21 129 133.5 205.5t280.5 76.5q189 0 294 -94.5t105 -264.5v-736q-189 -117 -189 -256v-2q0 -64 36 -100t88 -36
q38 0 80 13v-94q-52 -19 -112 -19q-93 0 -158.5 54t-65.5 156v2q0 159 188 287v180h-12q-48 -96 -140.5 -149.5t-211.5 -53.5zM241 299q0 -91 70 -146t180 -55q144 0 241.5 87t97.5 216v125l-318 -22q-271 -18 -271 -203v-2z" />
    <glyph glyph-name="Cacute" unicode="&#x106;" horiz-adv-x="1455" 
d="M813 1588h-116l179 314h154zM763 -30q-294 0 -465 201.5t-171 548.5v2q0 347 171 549t464 202q222 0 384.5 -132.5t191.5 -337.5l-1 -1h-137l-1 1q-32 152 -153 247.5t-284 95.5q-227 0 -361 -169t-134 -455v-2q0 -286 134 -454.5t362 -168.5q167 0 286.5 85.5
t149.5 227.5l1 1l137 1l1 -2q-31 -198 -188.5 -319t-386.5 -121z" />
    <glyph glyph-name="cacute" unicode="&#x107;" horiz-adv-x="1145" 
d="M650 1229h-119l188 330h158zM601 -18q-223 0 -354.5 151.5t-131.5 407.5v2q0 252 131.5 402t353.5 150q180 0 297.5 -92.5t143.5 -238.5v-4l-131 -1l-1 3q-25 96 -107 155.5t-202 59.5q-160 0 -255 -117.5t-95 -316.5v-2q0 -201 95 -321t255 -120q119 0 198.5 53.5
t108.5 151.5l2 5l132 1l-2 -8q-33 -147 -146 -234t-292 -87z" />
    <glyph glyph-name="Ccircumflex" unicode="&#x108;" horiz-adv-x="1455" 
d="M447 1588l236 314h156l236 -314h-140l-168 228h-12l-167 -228h-141zM763 -30q-294 0 -465 201.5t-171 548.5v2q0 347 171 549t464 202q222 0 384.5 -132.5t191.5 -337.5l-1 -1h-137l-1 1q-32 152 -153 247.5t-284 95.5q-227 0 -361 -169t-134 -455v-2q0 -286 134 -454.5
t362 -168.5q167 0 286.5 85.5t149.5 227.5l1 1l137 1l1 -2q-31 -198 -188.5 -319t-386.5 -121z" />
    <glyph glyph-name="ccircumflex" unicode="&#x109;" horiz-adv-x="1145" 
d="M271 1229l248 330h159l248 -330h-144l-178 241h-11l-178 -241h-144zM601 -18q-223 0 -354.5 151.5t-131.5 407.5v2q0 252 131.5 402t353.5 150q180 0 297.5 -92.5t143.5 -238.5v-4l-131 -1l-1 3q-25 96 -107 155.5t-202 59.5q-160 0 -255 -117.5t-95 -316.5v-2
q0 -201 95 -321t255 -120q119 0 198.5 53.5t108.5 151.5l2 5l132 1l-2 -8q-33 -147 -146 -234t-292 -87z" />
    <glyph glyph-name="Cdotabove" unicode="&#x10a;" horiz-adv-x="1455" 
d="M761 1655q-38 0 -65 27.5t-27 65.5t27 65t65 27t65.5 -27t27.5 -65t-27.5 -65.5t-65.5 -27.5zM763 -30q-294 0 -465 201.5t-171 548.5v2q0 347 171 549t464 202q222 0 384.5 -132.5t191.5 -337.5l-1 -1h-137l-1 1q-32 152 -153 247.5t-284 95.5q-227 0 -361 -169
t-134 -455v-2q0 -286 134 -454.5t362 -168.5q167 0 286.5 85.5t149.5 227.5l1 1l137 1l1 -2q-31 -198 -188.5 -319t-386.5 -121z" />
    <glyph glyph-name="cdotabove" unicode="&#x10b;" horiz-adv-x="1145" 
d="M598 1301q-40 0 -68.5 28.5t-28.5 68.5t28.5 68.5t68.5 28.5q41 0 69.5 -28.5t28.5 -68.5t-28.5 -68.5t-69.5 -28.5zM601 -18q-223 0 -354.5 151.5t-131.5 407.5v2q0 252 131.5 402t353.5 150q180 0 297.5 -92.5t143.5 -238.5v-4l-131 -1l-1 3q-25 96 -107 155.5
t-202 59.5q-160 0 -255 -117.5t-95 -316.5v-2q0 -201 95 -321t255 -120q119 0 198.5 53.5t108.5 151.5l2 5l132 1l-2 -8q-33 -147 -146 -234t-292 -87z" />
    <glyph glyph-name="Ccaron" unicode="&#x10c;" horiz-adv-x="1455" 
d="M1075 1902l-236 -314h-156l-236 314h141l167 -227h12l168 227h140zM763 -30q-294 0 -465 201.5t-171 548.5v2q0 347 171 549t464 202q222 0 384.5 -132.5t191.5 -337.5l-1 -1h-137l-1 1q-32 152 -153 247.5t-284 95.5q-227 0 -361 -169t-134 -455v-2q0 -286 134 -454.5
t362 -168.5q167 0 286.5 85.5t149.5 227.5l1 1l137 1l1 -2q-31 -198 -188.5 -319t-386.5 -121z" />
    <glyph glyph-name="ccaron" unicode="&#x10d;" horiz-adv-x="1145" 
d="M926 1559l-248 -330h-159l-248 330h144l178 -241h11l178 241h144zM601 -18q-223 0 -354.5 151.5t-131.5 407.5v2q0 252 131.5 402t353.5 150q180 0 297.5 -92.5t143.5 -238.5v-4l-131 -1l-1 3q-25 96 -107 155.5t-202 59.5q-160 0 -255 -117.5t-95 -316.5v-2
q0 -201 95 -321t255 -120q119 0 198.5 53.5t108.5 151.5l2 5l132 1l-2 -8q-33 -147 -146 -234t-292 -87z" />
    <glyph glyph-name="Dcaron" unicode="&#x10e;" horiz-adv-x="1472" 
d="M1018 1902l-236 -314h-156l-236 314h141l167 -227h12l168 227h140zM185 0v1443h475q327 0 506 -191t179 -529v-2q0 -339 -178.5 -530t-506.5 -191h-475zM322 124h330q263 0 408 157.5t145 438.5v2q0 280 -145 438.5t-408 158.5h-330v-1195z" />
    <glyph glyph-name="dcaron" unicode="&#x10f;" horiz-adv-x="1399" 
d="M1183 1229l82 330h134l-129 -330h-87zM570 -18q-204 0 -329.5 153t-125.5 402v2q0 250 125 403t330 153q122 0 219.5 -61.5t142.5 -166.5h12v639h133v-1506h-133v215h-12q-48 -109 -143 -171t-219 -62zM598 100q159 0 254 119t95 319v2q0 199 -95 318t-254 119
q-160 0 -254 -118.5t-94 -318.5v-2q0 -200 94 -319t254 -119z" />
    <glyph glyph-name="dstroke" unicode="&#x111;" horiz-adv-x="1315" 
d="M570 -18q-204 0 -329.5 153t-125.5 402v2q0 250 125 403t330 153q122 0 219.5 -61.5t142.5 -166.5h12v382h-300v102h300v155h133v-155h179v-102h-179v-1249h-133v215h-12q-48 -109 -143 -171t-219 -62zM598 100q159 0 254 119t95 319v2q0 199 -95 318t-254 119
q-160 0 -254 -118.5t-94 -318.5v-2q0 -200 94 -319t254 -119z" />
    <glyph glyph-name="Emacron" unicode="&#x112;" horiz-adv-x="1197" 
d="M323 1697v103h596v-103h-596zM185 0v1443h872v-124h-735v-519h698v-122h-698v-554h735v-124h-872z" />
    <glyph glyph-name="emacron" unicode="&#x113;" horiz-adv-x="1174" 
d="M283 1345v105h624v-105h-624zM603 -18q-226 0 -357 149.5t-131 403.5v2q0 252 130.5 405t346.5 153q215 0 341 -147t126 -388v-56h-809q3 -188 99 -295.5t257 -107.5q112 0 192 45.5t108 112.5l4 7h133l-3 -8q-34 -117 -150.5 -196.5t-286.5 -79.5zM592 977
q-142 0 -235 -96.5t-106 -268.5h674q-11 175 -101 270t-232 95z" />
    <glyph glyph-name="Ebreve" unicode="&#x114;" horiz-adv-x="1197" 
d="M620 1588q-148 0 -230.5 83t-82.5 223v2h111v-1q0 -96 52 -150.5t150 -54.5q99 0 151.5 54.5t52.5 150.5v1h111v-2q0 -140 -83 -223t-232 -83zM185 0v1443h872v-124h-735v-519h698v-122h-698v-554h735v-124h-872z" />
    <glyph glyph-name="ebreve" unicode="&#x115;" horiz-adv-x="1174" 
d="M595 1229q-156 0 -242.5 87t-86.5 234v2h114v-1q0 -102 55 -159.5t160 -57.5q104 0 159.5 58t55.5 159v1h113v-2q0 -146 -86.5 -233.5t-241.5 -87.5zM603 -18q-226 0 -357 149.5t-131 403.5v2q0 252 130.5 405t346.5 153q215 0 341 -147t126 -388v-56h-809
q3 -188 99 -295.5t257 -107.5q112 0 192 45.5t108 112.5l4 7h133l-3 -8q-34 -117 -150.5 -196.5t-286.5 -79.5zM592 977q-142 0 -235 -96.5t-106 -268.5h674q-11 175 -101 270t-232 95z" />
    <glyph glyph-name="Edotabove" unicode="&#x116;" horiz-adv-x="1197" 
d="M621 1655q-38 0 -65.5 27.5t-27.5 65.5t27.5 65t65.5 27t65 -27t27 -65t-27 -65.5t-65 -27.5zM185 0v1443h872v-124h-735v-519h698v-122h-698v-554h735v-124h-872z" />
    <glyph glyph-name="edotabove" unicode="&#x117;" horiz-adv-x="1174" 
d="M595 1301q-41 0 -69.5 28.5t-28.5 68.5t28.5 68.5t69.5 28.5q40 0 68.5 -28.5t28.5 -68.5t-28.5 -68.5t-68.5 -28.5zM603 -18q-226 0 -357 149.5t-131 403.5v2q0 252 130.5 405t346.5 153q215 0 341 -147t126 -388v-56h-809q3 -188 99 -295.5t257 -107.5q112 0 192 45.5
t108 112.5l4 7h133l-3 -8q-34 -117 -150.5 -196.5t-286.5 -79.5zM592 977q-142 0 -235 -96.5t-106 -268.5h674q-11 175 -101 270t-232 95z" />
    <glyph glyph-name="Eogonek" unicode="&#x118;" horiz-adv-x="1197" 
d="M185 0v1443h872v-124h-735v-519h698v-122h-698v-554h735v-124q-189 -117 -189 -256v-2q0 -64 36 -100t88 -36q38 0 80 13v-94q-52 -19 -112 -19q-93 0 -158.5 54t-65.5 156v2q0 156 181 282h-732z" />
    <glyph glyph-name="eogonek" unicode="&#x119;" horiz-adv-x="1174" 
d="M597 -19q-222 0 -352 150t-130 406v2q0 254 130.5 405.5t350.5 151.5q215 0 339 -143.5t124 -390.5v-58h-809v-6q0 -182 96.5 -291t253.5 -109q114 0 194.5 44t115.5 124h132q-18 -63 -57 -120.5t-80.5 -99.5t-81 -86t-65 -99t-25.5 -119v-2q0 -65 34 -100.5t84 -35.5
q49 0 85 12v-91q-50 -19 -117 -19q-90 0 -154 54t-64 156v2q0 140 156 284q-73 -21 -160 -21zM595 979q-147 0 -241 -100.5t-103 -266.5h671q-2 167 -91.5 267t-235.5 100z" />
    <glyph glyph-name="Ecaron" unicode="&#x11a;" horiz-adv-x="1197" 
d="M935 1902l-236 -314h-156l-236 314h140l168 -227h12l168 227h140zM185 0v1443h872v-124h-735v-519h698v-122h-698v-554h735v-124h-872z" />
    <glyph glyph-name="ecaron" unicode="&#x11b;" horiz-adv-x="1174" 
d="M922 1559l-248 -330h-159l-248 330h144l178 -241h11l178 241h144zM603 -18q-226 0 -357 149.5t-131 403.5v2q0 252 130.5 405t346.5 153q215 0 341 -147t126 -388v-56h-809q3 -188 99 -295.5t257 -107.5q112 0 192 45.5t108 112.5l4 7h133l-3 -8q-34 -117 -150.5 -196.5
t-286.5 -79.5zM592 977q-142 0 -235 -96.5t-106 -268.5h674q-11 175 -101 270t-232 95z" />
    <glyph glyph-name="Gcircumflex" unicode="&#x11c;" horiz-adv-x="1506" 
d="M460 1588l236 314h156l236 -314h-141l-167 228h-12l-168 -228h-140zM769 -30q-293 0 -467.5 205t-174.5 549v2q0 339 175.5 543t466.5 204q229 0 386.5 -119t200.5 -322l2 -10h-137l-3 9q-45 152 -161.5 233.5t-287.5 81.5q-230 0 -366 -168t-136 -452v-2
q0 -288 136 -457.5t366 -169.5q210 0 337.5 129.5t127.5 339.5v32h-446v121h583v-141q0 -273 -165 -440.5t-437 -167.5z" />
    <glyph glyph-name="gcircumflex" unicode="&#x11d;" horiz-adv-x="1242" 
d="M291 1229l248 330h159l248 -330h-144l-178 241h-11l-178 -241h-144zM606 -376q-183 0 -300.5 75t-138.5 202l1 1h137l1 -1q18 -72 98.5 -115.5t201.5 -43.5q156 0 246.5 75t90.5 205v241h-13q-48 -107 -142.5 -165.5t-218.5 -58.5q-206 0 -330 146t-124 380v2
q0 233 125 380.5t331 147.5q123 0 218.5 -63.5t142.5 -172.5h9v218h133v-1064q0 -176 -128 -282.5t-340 -106.5zM595 157q161 0 255.5 112t94.5 294v2q0 182 -96 297t-254 115q-159 0 -252 -113.5t-93 -296.5v-2q0 -183 93 -295.5t252 -112.5z" />
    <glyph glyph-name="Gbreve" unicode="&#x11e;" horiz-adv-x="1506" 
d="M773 1588q-148 0 -231 83.5t-83 222.5v2h111v-1q0 -96 52 -150.5t151 -54.5t151.5 54.5t52.5 150.5v1h111v-2q0 -140 -83 -223t-232 -83zM769 -30q-293 0 -467.5 205t-174.5 549v2q0 339 175.5 543t466.5 204q229 0 386.5 -119t200.5 -322l2 -10h-137l-3 9
q-45 152 -161.5 233.5t-287.5 81.5q-230 0 -366 -168t-136 -452v-2q0 -288 136 -457.5t366 -169.5q210 0 337.5 129.5t127.5 339.5v32h-446v121h583v-141q0 -273 -165 -440.5t-437 -167.5z" />
    <glyph glyph-name="gbreve" unicode="&#x11f;" horiz-adv-x="1242" 
d="M618 1229q-155 0 -241.5 87.5t-86.5 233.5v2h113v-1q0 -101 55.5 -159t159.5 -58q105 0 160 57.5t55 159.5v1h114v-2q0 -147 -86.5 -234t-242.5 -87zM606 -376q-183 0 -300.5 75t-138.5 202l1 1h137l1 -1q18 -72 98.5 -115.5t201.5 -43.5q156 0 246.5 75t90.5 205v241
h-13q-48 -107 -142.5 -165.5t-218.5 -58.5q-206 0 -330 146t-124 380v2q0 233 125 380.5t331 147.5q123 0 218.5 -63.5t142.5 -172.5h9v218h133v-1064q0 -176 -128 -282.5t-340 -106.5zM595 157q161 0 255.5 112t94.5 294v2q0 182 -96 297t-254 115q-159 0 -252 -113.5
t-93 -296.5v-2q0 -183 93 -295.5t252 -112.5z" />
    <glyph glyph-name="Gdotabove" unicode="&#x120;" horiz-adv-x="1506" 
d="M774 1655q-38 0 -65.5 27.5t-27.5 65.5t27.5 65t65.5 27t65 -27t27 -65t-27 -65.5t-65 -27.5zM769 -30q-293 0 -467.5 205t-174.5 549v2q0 339 175.5 543t466.5 204q229 0 386.5 -119t200.5 -322l2 -10h-137l-3 9q-45 152 -161.5 233.5t-287.5 81.5q-230 0 -366 -168
t-136 -452v-2q0 -288 136 -457.5t366 -169.5q210 0 337.5 129.5t127.5 339.5v32h-446v121h583v-141q0 -273 -165 -440.5t-437 -167.5z" />
    <glyph glyph-name="gdotabove" unicode="&#x121;" horiz-adv-x="1242" 
d="M618 1301q-40 0 -68.5 28.5t-28.5 68.5t28.5 68.5t68.5 28.5q41 0 69.5 -28.5t28.5 -68.5t-28.5 -68.5t-69.5 -28.5zM606 -376q-183 0 -300.5 75t-138.5 202l1 1h137l1 -1q18 -72 98.5 -115.5t201.5 -43.5q156 0 246.5 75t90.5 205v241h-13q-48 -107 -142.5 -165.5
t-218.5 -58.5q-206 0 -330 146t-124 380v2q0 233 125 380.5t331 147.5q123 0 218.5 -63.5t142.5 -172.5h9v218h133v-1064q0 -176 -128 -282.5t-340 -106.5zM595 157q161 0 255.5 112t94.5 294v2q0 182 -96 297t-254 115q-159 0 -252 -113.5t-93 -296.5v-2q0 -183 93 -295.5
t252 -112.5z" />
    <glyph glyph-name="Gcommaaccent" unicode="&#x122;" horiz-adv-x="1506" 
d="M769 -30q-293 0 -467.5 205t-174.5 549v2q0 339 175.5 543t466.5 204q229 0 386.5 -119t200.5 -322l2 -10h-137l-3 9q-45 152 -161.5 233.5t-287.5 81.5q-230 0 -366 -168t-136 -452v-2q0 -288 136 -457.5t366 -169.5q210 0 337.5 129.5t127.5 339.5v32h-446v121h583
v-141q0 -273 -165 -440.5t-437 -167.5zM608 -494l91 342h143l-141 -342h-93z" />
    <glyph glyph-name="gcommaaccent" unicode="&#x123;" horiz-adv-x="1242" 
d="M784 1571l-91 -342h-143l141 342h93zM606 -376q-183 0 -300.5 75t-138.5 202l1 1h137l1 -1q18 -72 98.5 -115.5t201.5 -43.5q156 0 246.5 75t90.5 205v241h-13q-48 -107 -142.5 -165.5t-218.5 -58.5q-206 0 -330 146t-124 380v2q0 233 125 380.5t331 147.5
q123 0 218.5 -63.5t142.5 -172.5h9v218h133v-1064q0 -176 -128 -282.5t-340 -106.5zM595 157q161 0 255.5 112t94.5 294v2q0 182 -96 297t-254 115q-159 0 -252 -113.5t-93 -296.5v-2q0 -183 93 -295.5t252 -112.5z" />
    <glyph glyph-name="Hcircumflex" unicode="&#x124;" horiz-adv-x="1488" 
d="M430 1588l236 314h156l236 -314h-141l-167 228h-12l-168 -228h-140zM185 0v1443h137v-642h844v642h137v-1443h-137v677h-844v-677h-137z" />
    <glyph glyph-name="hcircumflex" unicode="&#x125;" horiz-adv-x="1202" 
d="M-54 1652l225 299h149l225 -299h-134l-160 216h-11l-160 -216h-134zM179 0v1506h132v-618h13q43 100 130 153.5t211 53.5q180 0 278.5 -103.5t98.5 -291.5v-700h-132v667q0 310 -280 310q-143 0 -231 -92.5t-88 -244.5v-640h-132z" />
    <glyph glyph-name="Hstroke" unicode="&#x126;" horiz-adv-x="1610" 
d="M247 0v1082h-186v116h186v245h136v-245h844v245h137v-245h185v-116h-185v-1082h-137v677h-844v-677h-136zM383 801h844v281h-844v-281z" />
    <glyph glyph-name="hstroke" unicode="&#x127;" horiz-adv-x="1261" 
d="M238 0v1249h-179v102h179v155h132v-155h300v-102h-300v-361h13q43 100 130 153.5t211 53.5q180 0 279 -103.5t99 -291.5v-700h-133v667q0 310 -279 310q-144 0 -232 -92.5t-88 -244.5v-640h-132z" />
    <glyph glyph-name="Itilde" unicode="&#x128;" horiz-adv-x="507" 
d="M395 1602q-83 0 -165 85l-14 14q-52 55 -93 55q-37 0 -58.5 -39.5t-21.5 -109.5v-8h-106v12q0 113 46.5 179.5t128.5 66.5q47 0 85 -21t80 -64l14 -15q53 -54 93 -54q37 0 58 39t21 110v7h106v-11q0 -114 -46 -180t-128 -66zM185 0v1443h137v-1443h-137z" />
    <glyph glyph-name="itilde" unicode="&#x129;" horiz-adv-x="482" 
d="M390 1244q-49 0 -89 22t-85 68l-14 15q-55 58 -98 58q-39 0 -61.5 -41.5t-22.5 -116.5v-8h-109v12q0 119 48 188t134 69q50 0 90 -22t84 -68l14 -15q32 -32 53.5 -45t44.5 -13q39 0 61.5 41.5t22.5 116.5v8h109v-12q0 -119 -48 -188t-134 -69zM175 0v1077h132v-1077h-132
z" />
    <glyph glyph-name="Imacron" unicode="&#x12a;" horiz-adv-x="507" 
d="M-45 1697v103h597v-103h-597zM185 0v1443h137v-1443h-137z" />
    <glyph glyph-name="imacron" unicode="&#x12b;" horiz-adv-x="482" 
d="M6 1345v105h472v-105h-472zM175 0v1077h132v-1077h-132z" />
    <glyph glyph-name="Ibreve" unicode="&#x12c;" horiz-adv-x="507" 
d="M253 1588q-148 0 -231 83t-83 223v2h111v-1q0 -96 52 -150.5t151 -54.5t151 54.5t52 150.5v1h111v-2q0 -140 -83 -223t-231 -83zM185 0v1443h137v-1443h-137z" />
    <glyph glyph-name="ibreve" unicode="&#x12d;" horiz-adv-x="482" 
d="M242 1229q-156 0 -242.5 87t-86.5 234v2h114v-1q0 -102 55 -159.5t160 -57.5q104 0 159.5 58t55.5 159v1h113v-2q0 -146 -86.5 -233.5t-241.5 -87.5zM175 0v1077h132v-1077h-132z" />
    <glyph glyph-name="Iogonek" unicode="&#x12e;" horiz-adv-x="507" 
d="M225 -494q-93 0 -158 54t-65 156v2q0 158 183 284v1441h137v-1443q-189 -117 -189 -256v-2q0 -64 35.5 -100t88.5 -36q39 0 80 13v-94q-52 -19 -112 -19z" />
    <glyph glyph-name="iogonek" unicode="&#x12f;" horiz-adv-x="482" 
d="M242 1301q-41 0 -69.5 28.5t-28.5 68.5t28.5 68.5t69.5 28.5q40 0 68.5 -28.5t28.5 -68.5t-28.5 -68.5t-68.5 -28.5zM210 -494q-93 0 -158 54t-65 156v2q0 160 188 287v1072h132v-1077q-188 -117 -188 -256v-2q0 -65 35.5 -100.5t88.5 -35.5q38 0 79 13v-94
q-52 -19 -112 -19z" />
    <glyph glyph-name="Idotabove" unicode="&#x130;" horiz-adv-x="507" 
d="M253 1655q-38 0 -65 27.5t-27 65.5t27 65t65 27t65.5 -27t27.5 -65t-27.5 -65.5t-65.5 -27.5zM185 0v1443h137v-1443h-137z" />
    <glyph glyph-name="dotlessi" unicode="&#x131;" horiz-adv-x="482" 
d="M175 0v1077h132v-1077h-132z" />
    <glyph glyph-name="IJdigraph" unicode="&#x132;" horiz-adv-x="1595" 
d="M185 0v1443h137v-1443h-137zM996 -30q-174 0 -280.5 98.5t-115.5 254.5l-1 10h137l1 -7q8 -100 77 -164.5t182 -64.5q133 0 205 78t72 223v1045h137v-1051q0 -197 -110.5 -309.5t-303.5 -112.5z" />
    <glyph glyph-name="ijdigraph" unicode="&#x133;" horiz-adv-x="963" 
d="M242 1301q-41 0 -69.5 28.5t-28.5 68.5t28.5 68.5t69.5 28.5q40 0 68.5 -28.5t28.5 -68.5t-28.5 -68.5t-68.5 -28.5zM722 1301q-40 0 -68.5 28.5t-28.5 68.5t28.5 68.5t68.5 28.5t68.5 -28.5t28.5 -68.5t-28.5 -68.5t-68.5 -28.5zM175 0v1077h132v-1077h-132zM485 -367
h-25v118h22q93 0 133.5 41t40.5 137v1148h132v-1145q0 -156 -74.5 -227.5t-228.5 -71.5z" />
    <glyph glyph-name="Jcircumflex" unicode="&#x134;" horiz-adv-x="1088" 
d="M520 1588l236 314h156l236 -314h-140l-168 228h-12l-167 -228h-141zM489 -30q-174 0 -280.5 98.5t-115.5 254.5l-1 10h137l1 -7q8 -100 77 -164.5t182 -64.5q133 0 205 78t72 223v1045h137v-1051q0 -197 -110.5 -309.5t-303.5 -112.5z" />
    <glyph glyph-name="jcircumflex" unicode="&#x135;" horiz-adv-x="481" 
d="M-87 1229l248 330h159l247 -330h-143l-178 241h-12l-178 -241h-143zM3 -367h-24v118h21q93 0 133.5 41t40.5 137v1148h132v-1145q0 -156 -74.5 -227.5t-228.5 -71.5z" />
    <glyph glyph-name="Kcommaaccent" unicode="&#x136;" horiz-adv-x="1311" 
d="M185 0v1443h137v-746h12l683 746h171l-578 -623l637 -820h-177l-555 725l-193 -210v-515h-137zM469 -494l92 342h143l-141 -342h-94z" />
    <glyph glyph-name="kcommaaccent" unicode="&#x137;" horiz-adv-x="1092" 
d="M179 0v1506h132v-933h13l524 504h164l-485 -456l507 -621h-168l-434 532l-121 -114v-418h-132zM416 -494l91 342h144l-142 -342h-93z" />
    <glyph glyph-name="ka.cyrl" unicode="&#x43a;" horiz-adv-x="1095" 
d="M364 500h-53v-500h-133v1077h133v-472h53l466 472h162l-518 -516l542 -561h-173z" />
    <glyph glyph-name="ka.cyrl" unicode="&#x138;" horiz-adv-x="1095" 
d="M364 500h-53v-500h-133v1077h133v-472h53l466 472h162l-518 -516l542 -561h-173z" />
    <glyph glyph-name="Lacute" unicode="&#x139;" horiz-adv-x="1139" 
d="M325 1588h-116l179 314h154zM185 0v1443h137v-1319h722v-124h-859z" />
    <glyph glyph-name="lacute" unicode="&#x13a;" horiz-adv-x="490" 
d="M293 1645h-110l170 299h147zM179 0v1506h132v-1506h-132z" />
    <glyph glyph-name="Lcommaaccent" unicode="&#x13b;" horiz-adv-x="1139" 
d="M185 0v1443h137v-1319h722v-124h-859zM449 -494l91 342h143l-141 -342h-93z" />
    <glyph glyph-name="lcommaaccent" unicode="&#x13c;" horiz-adv-x="490" 
d="M179 0v1506h132v-1506h-132zM79 -494l91 342h143l-141 -342h-93z" />
    <glyph glyph-name="Lcaron" unicode="&#x13d;" horiz-adv-x="1139" 
d="M185 0v1443h137v-1319h722v-124h-859zM581 1032l75 411h141l-124 -411h-92z" />
    <glyph glyph-name="lcaron" unicode="&#x13e;" horiz-adv-x="633" 
d="M417 1229l82 330h134l-128 -330h-88zM179 0v1506h132v-1506h-132z" />
    <glyph glyph-name="Ldot.CAT" unicode="&#x13f;" horiz-adv-x="1139" 
d="M185 0v1443h137v-1319h722v-124h-859zM928 718v-2q0 -44 -30.5 -74.5t-74.5 -30.5h-2q-44 0 -74 30.5t-30 74.5v2q0 44 30 74.5t74 30.5h2q44 0 74.5 -30.5t30.5 -74.5z" />
    <glyph glyph-name="ldot.CAT" unicode="&#x140;" horiz-adv-x="681" 
d="M179 0v1506h132v-1506h-132zM681 701v-2q0 -40 -27.5 -67t-67.5 -27h-2q-40 0 -67 27t-27 67v2q0 40 27 67.5t67 27.5h2q40 0 67.5 -27.5t27.5 -67.5z" />
    <glyph glyph-name="Lstroke" unicode="&#x141;" horiz-adv-x="1135" 
d="M182 0v593l-121 -61v124l121 60v727h136v-658l422 210v-123l-422 -211v-537h723v-124h-859z" />
    <glyph glyph-name="lstroke" unicode="&#x142;" horiz-adv-x="629" 
d="M249 0v690l-190 -94v117l190 94v699h132v-632l188 94v-117l-188 -94v-757h-132z" />
    <glyph glyph-name="Nacute" unicode="&#x143;" horiz-adv-x="1494" 
d="M798 1588h-115l178 314h154zM185 0v1443h135l841 -1198h13v1198h135v-1443h-132l-844 1199h-13v-1199h-135z" />
    <glyph glyph-name="nacute" unicode="&#x144;" horiz-adv-x="1192" 
d="M653 1229h-119l188 330h158zM169 0v1077h132v-189h13q43 99 130 153t211 54q180 0 278.5 -103.5t98.5 -291.5v-700h-132v667q0 310 -280 310q-143 0 -231 -92.5t-88 -244.5v-640h-132z" />
    <glyph glyph-name="Ncommaaccent" unicode="&#x145;" horiz-adv-x="1494" 
d="M185 0v1443h135l841 -1198h13v1198h135v-1443h-132l-844 1199h-13v-1199h-135zM581 -494l91 342h143l-141 -342h-93z" />
    <glyph glyph-name="ncommaaccent" unicode="&#x146;" horiz-adv-x="1192" 
d="M169 0v1077h132v-189h13q43 99 130 153t211 54q180 0 278.5 -103.5t98.5 -291.5v-700h-132v667q0 310 -280 310q-143 0 -231 -92.5t-88 -244.5v-640h-132zM435 -494l91 342h144l-142 -342h-93z" />
    <glyph glyph-name="Ncaron" unicode="&#x147;" horiz-adv-x="1494" 
d="M1061 1902l-236 -314h-156l-236 314h140l168 -227h12l168 227h140zM185 0v1443h135l841 -1198h13v1198h135v-1443h-132l-844 1199h-13v-1199h-135z" />
    <glyph glyph-name="ncaron" unicode="&#x148;" horiz-adv-x="1192" 
d="M928 1559l-247 -330h-159l-248 330h143l178 -241h12l178 241h143zM169 0v1077h132v-189h13q43 99 130 153t211 54q180 0 278.5 -103.5t98.5 -291.5v-700h-132v667q0 310 -280 310q-143 0 -231 -92.5t-88 -244.5v-640h-132z" />
    <glyph glyph-name="Eng" unicode="&#x14a;" horiz-adv-x="1494" 
d="M320 0h-135v1443h135l841 -1198h13v1198h135v-1524q0 -147 -69 -217t-207 -70q-30 0 -56 4v109q10 -1 37 -1q158 0 158 169v92l-839 1194h-13v-1199z" />
    <glyph glyph-name="eng" unicode="&#x14b;" horiz-adv-x="1192" 
d="M169 0v1077h132v-189h13q43 99 130 153t211 54q180 0 278.5 -103.5t98.5 -291.5v-781q0 -147 -68.5 -217t-207.5 -70q-31 0 -57 4v109q9 -1 39 -1q162 0 162 169v754q0 310 -280 310q-143 0 -231 -92.5t-88 -244.5v-640h-132z" />
    <glyph glyph-name="Omacron" unicode="&#x14c;" horiz-adv-x="1561" 
d="M482 1697v103h597v-103h-597zM781 -30q-304 0 -479 202.5t-175 548.5v2q0 346 176 548t478 202t477.5 -202t175.5 -548v-2q0 -346 -175 -548.5t-478 -202.5zM781 97q236 0 375 169.5t139 454.5v2q0 286 -139 454.5t-375 168.5t-375 -168.5t-139 -454.5v-2
q0 -286 138 -455t376 -169z" />
    <glyph glyph-name="omacron" unicode="&#x14d;" horiz-adv-x="1208" 
d="M292 1345v105h624v-105h-624zM604 -18q-226 0 -357.5 149.5t-131.5 406.5v2q0 257 131.5 406t357.5 149t358 -149t132 -406v-2q0 -257 -132 -406.5t-358 -149.5zM604 100q166 0 260 117t94 321v2q0 204 -94 320.5t-260 116.5t-260 -116.5t-94 -320.5v-2q0 -204 94 -321
t260 -117z" />
    <glyph glyph-name="Obreve" unicode="&#x14e;" horiz-adv-x="1561" 
d="M780 1588q-148 0 -231 83.5t-83 222.5v2h111v-1q0 -96 52 -150.5t151 -54.5t151 54.5t52 150.5v1h112v-2q0 -140 -83.5 -223t-231.5 -83zM781 -30q-304 0 -479 202.5t-175 548.5v2q0 346 176 548t478 202t477.5 -202t175.5 -548v-2q0 -346 -175 -548.5t-478 -202.5z
M781 97q236 0 375 169.5t139 454.5v2q0 286 -139 454.5t-375 168.5t-375 -168.5t-139 -454.5v-2q0 -286 138 -455t376 -169z" />
    <glyph glyph-name="obreve" unicode="&#x14f;" horiz-adv-x="1208" 
d="M604 1229q-155 0 -241.5 87.5t-86.5 233.5v2h113v-1q0 -102 55 -159.5t160 -57.5t160 57.5t55 159.5v1h113v-2q0 -147 -86 -234t-242 -87zM604 -18q-226 0 -357.5 149.5t-131.5 406.5v2q0 257 131.5 406t357.5 149t358 -149t132 -406v-2q0 -257 -132 -406.5t-358 -149.5z
M604 100q166 0 260 117t94 321v2q0 204 -94 320.5t-260 116.5t-260 -116.5t-94 -320.5v-2q0 -204 94 -321t260 -117z" />
    <glyph glyph-name="Odblacute" unicode="&#x150;" horiz-adv-x="1561" 
d="M655 1588h-116l156 314h154zM1002 1588h-116l179 314h154zM781 -30q-304 0 -479 202.5t-175 548.5v2q0 346 176 548t478 202t477.5 -202t175.5 -548v-2q0 -346 -175 -548.5t-478 -202.5zM781 97q236 0 375 169.5t139 454.5v2q0 286 -139 454.5t-375 168.5t-375 -168.5
t-139 -454.5v-2q0 -286 138 -455t376 -169z" />
    <glyph glyph-name="odblacute" unicode="&#x151;" horiz-adv-x="1208" 
d="M468 1229h-118l164 330h158zM832 1229h-119l188 330h157zM604 -18q-226 0 -357.5 149.5t-131.5 406.5v2q0 257 131.5 406t357.5 149t358 -149t132 -406v-2q0 -257 -132 -406.5t-358 -149.5zM604 100q166 0 260 117t94 321v2q0 204 -94 320.5t-260 116.5t-260 -116.5
t-94 -320.5v-2q0 -204 94 -321t260 -117z" />
    <glyph glyph-name="OE" unicode="&#x152;" horiz-adv-x="2321" 
d="M774 -30q-299 0 -473 202.5t-174 548.5v2q0 344 174.5 547t472.5 203q173 0 315 -88t208 -237h12v295h872v-124h-748v-519h711v-122h-711v-554h748v-124h-872v302h-12q-66 -153 -207 -242.5t-316 -89.5zM788 97q234 0 370 168t136 456v2q0 288 -136 455.5t-370 167.5
q-240 0 -380.5 -168t-140.5 -455v-2q0 -288 140 -456t381 -168z" />
    <glyph glyph-name="oe" unicode="&#x153;" horiz-adv-x="2018" 
d="M604 -19q-226 0 -357.5 150t-131.5 407v2q0 257 131.5 406.5t357.5 149.5q148 0 260 -77t156 -208h13q44 131 153.5 208t252.5 77q214 0 339 -144t125 -390v-56h-808v-13q6 -179 102 -286.5t255 -107.5q109 0 188 43.5t113 123.5h133q-38 -131 -155.5 -208t-281.5 -77
q-153 0 -264 76t-153 206h-12q-35 -127 -149.5 -204.5t-266.5 -77.5zM604 99q166 0 260 116.5t94 320.5v2q0 205 -94.5 322.5t-259.5 117.5q-166 0 -260 -116.5t-94 -321.5v-2q0 -205 94 -322t260 -117zM1095 612h671q-2 164 -92 265t-235 101q-147 0 -240.5 -99.5
t-103.5 -266.5z" />
    <glyph glyph-name="Racute" unicode="&#x154;" horiz-adv-x="1309" 
d="M673 1588h-116l179 314h154zM185 0v1443h517q211 0 336 -114t125 -307v-2q0 -152 -82 -260.5t-227 -146.5l350 -613h-160l-332 591h-28h-362v-591h-137zM322 713h369q157 0 244.5 79.5t87.5 223.5v2q0 142 -90 222.5t-248 80.5h-363v-608z" />
    <glyph glyph-name="racute" unicode="&#x155;" horiz-adv-x="764" 
d="M426 1229h-119l188 330h158zM169 0v1077h132v-177h13q32 93 108 144t185 51q58 0 101 -10v-130q-55 14 -115 14q-127 0 -209.5 -83.5t-82.5 -213.5v-672h-132z" />
    <glyph glyph-name="Rcommaaccent" unicode="&#x156;" horiz-adv-x="1309" 
d="M185 0v1443h517q211 0 336 -114t125 -307v-2q0 -152 -82 -260.5t-227 -146.5l350 -613h-160l-332 591h-28h-362v-591h-137zM322 713h369q157 0 244.5 79.5t87.5 223.5v2q0 142 -90 222.5t-248 80.5h-363v-608zM489 -494l91 342h144l-142 -342h-93z" />
    <glyph glyph-name="rcommaaccent" unicode="&#x157;" horiz-adv-x="764" 
d="M169 0v1077h132v-177h13q32 93 108 144t185 51q58 0 101 -10v-130q-55 14 -115 14q-127 0 -209.5 -83.5t-82.5 -213.5v-672h-132zM69 -494l91 342h143l-141 -342h-93z" />
    </font>
</defs>
</svg>
