<?xml version="1.0" standalone="no"?>
<!DOCTYPE svg PUBLIC "-//W3C//DTD SVG 1.1//EN" "http://www.w3.org/Graphics/SVG/1.1/DTD/svg11.dtd" >
<svg xmlns="http://www.w3.org/2000/svg" xmlns:xlink="http://www.w3.org/1999/xlink" version="1.1">
<metadata>
Created by FontForge 20170731 at Tue Nov  3 19:06:23 2020
 By Aleksey,,,
(c) 2015-2020 Apple Inc. All rights reserved.
</metadata>
<defs>
<font id="SFProDisplay-Semibold" horiz-adv-x="1928" >
  <font-face 
    font-family="SF Pro Display"
    font-weight="600"
    font-stretch="normal"
    units-per-em="2048"
    panose-1="0 0 0 0 0 0 0 0 0 0"
    ascent="1638"
    descent="-410"
    x-height="1060"
    cap-height="1443"
    bbox="-858 -1198.61 5579 2584"
    underline-thickness="165"
    underline-position="-455"
    unicode-range="U+0020-100D86"
  />
<missing-glyph horiz-adv-x="2048" 
d="M100 1724v226h1848v-226h-1848zM100 1281v225h1848v-225h-1848zM100 837v226h1848v-226h-1848zM100 393v226h1848v-226h-1848zM100 -50v225h1848v-225h-1848zM100 -494v226h1848v-226h-1848z" />
    <glyph glyph-name="uni10004C.small" unicode="&#x2b;&#x20dd;" 
d="M964 -102q-166 0 -318.5 65.5t-263 176.5t-176.5 263.5t-66 318.5t65.5 318.5t176 263t263 176.5t318.5 66t319 -66t263.5 -176.5t176.5 -263t66 -318.5t-66 -318.5t-176.5 -263.5t-263 -176.5t-318.5 -65.5zM964 94q171 0 315.5 83.5t228.5 228t84 316.5
q0 128 -50 244.5t-134 200t-200 133t-245 49.5q-171 0 -315 -83.5t-227.5 -228t-83.5 -315.5q0 -129 49.5 -245t133 -200t200 -133.5t244.5 -49.5zM686 635q-38 0 -62.5 24t-24.5 62t24.5 62.5t62.5 24.5h191v191q0 38 24 62.5t62 24.5t62.5 -24.5t24.5 -62.5v-191h192
q38 0 62 -24.5t24 -62.5q0 -37 -24 -61.5t-62 -24.5h-192v-192q0 -38 -24.5 -62t-62.5 -24q-37 0 -61.5 24.5t-24.5 61.5v192h-191z" />
    <glyph glyph-name="uni10004E.small" unicode="&#x2212;&#x20dd;" 
d="M964 -102q-166 0 -318.5 65.5t-263 176.5t-176.5 263.5t-66 318.5t65.5 318.5t176 263t263 176.5t318.5 66t319 -66t263.5 -176.5t176.5 -263t66 -318.5t-66 -318.5t-176.5 -263.5t-263 -176.5t-318.5 -65.5zM964 94q171 0 315.5 83.5t228.5 228t84 316.5
q0 128 -50 244.5t-134 200t-200 133t-245 49.5q-171 0 -315 -83.5t-227.5 -228t-83.5 -315.5q0 -129 49.5 -245t133 -200t200 -133.5t244.5 -49.5zM684 634q-41 0 -67 23.5t-26 62.5t25.5 63t67.5 24h559q42 0 67.5 -23.5t25.5 -63.5q0 -39 -26 -62.5t-67 -23.5h-559z" />
    <glyph glyph-name="uni100050.small" unicode="&#xd7;&#x20dd;" 
d="M964 -102q-166 0 -318.5 65.5t-263 176.5t-176.5 263.5t-66 318.5t65.5 318.5t176 263t263 176.5t318.5 66t319 -66t263.5 -176.5t176.5 -263t66 -318.5t-66 -318.5t-176.5 -263.5t-263 -176.5t-318.5 -65.5zM964 94q171 0 315.5 83.5t228.5 228t84 316.5
q0 128 -50 244.5t-134 200t-200 133t-245 49.5q-171 0 -315 -83.5t-227.5 -228t-83.5 -315.5q0 -129 49.5 -245t133 -200t200 -133.5t244.5 -49.5zM717 391q-35 0 -59 24.5t-24 59.5q0 33 25 58l187 187l-187 188q-25 23 -25 57q0 35 24 59t59 24q37 0 59 -24l187 -186
l189 187q25 25 59 25q35 0 59.5 -24.5t24.5 -59.5q0 -32 -25 -57l-188 -189l187 -187q25 -25 25 -58q0 -35 -24 -59.5t-59 -24.5q-36 0 -61 25l-187 186l-185 -186q-24 -25 -61 -25z" />
    <glyph glyph-name="uni100054.small" unicode="&#x3d;&#x20dd;" 
d="M964 -102q-166 0 -318.5 65.5t-263 176.5t-176.5 263.5t-66 318.5t65.5 318.5t176 263t263 176.5t318.5 66t319 -66t263.5 -176.5t176.5 -263t66 -318.5t-66 -318.5t-176.5 -263.5t-263 -176.5t-318.5 -65.5zM964 94q171 0 315.5 83.5t228.5 228t84 316.5
q0 128 -50 244.5t-134 200t-200 133t-245 49.5q-171 0 -315 -83.5t-227.5 -228t-83.5 -315.5q0 -129 49.5 -245t133 -200t200 -133.5t244.5 -49.5zM696 788q-42 0 -66.5 20.5t-24.5 57.5q0 38 24 59t67 21h534q42 0 66.5 -21t24.5 -59q0 -37 -25 -57.5t-66 -20.5h-534z
M696 495q-42 0 -66.5 20t-24.5 58t24.5 59t66.5 21h534q42 0 66.5 -21t24.5 -59q0 -37 -24.5 -57.5t-66.5 -20.5h-534z" />
    <glyph glyph-name="uni10003A.small" unicode="&#x31;&#x20dd;" 
d="M964 -102q-166 0 -318.5 65.5t-263 176.5t-176.5 263.5t-66 318.5t65.5 318.5t176 263t263 176.5t318.5 66t319 -66t263.5 -176.5t176.5 -263t66 -318.5t-66 -318.5t-176.5 -263.5t-263 -176.5t-318.5 -65.5zM964 94q171 0 315.5 83.5t228.5 228t84 316.5
q0 128 -50 244.5t-134 200t-200 133t-245 49.5q-171 0 -315 -83.5t-227.5 -228t-83.5 -315.5q0 -129 49.5 -245t133 -200t200 -133.5t244.5 -49.5zM1011 365q-43 0 -67 25t-24 74v431h-7l-78 -53q-29 -18 -51 -18q-26 0 -43.5 19t-17.5 46q0 40 37 64l127 86q61 40 115 40
q47 0 74.5 -26.5t27.5 -72.5v-516q0 -49 -24.5 -74t-68.5 -25z" />
    <glyph glyph-name="uni10003C.small" unicode="&#x32;&#x20dd;" 
d="M964 -102q-166 0 -318.5 65.5t-263 176.5t-176.5 263.5t-66 318.5t65.5 318.5t176 263t263 176.5t318.5 66t319 -66t263.5 -176.5t176.5 -263t66 -318.5t-66 -318.5t-176.5 -263.5t-263 -176.5t-318.5 -65.5zM964 94q171 0 315.5 83.5t228.5 228t84 316.5
q0 128 -50 244.5t-134 200t-200 133t-245 49.5q-171 0 -315 -83.5t-227.5 -228t-83.5 -315.5q0 -129 49.5 -245t133 -200t200 -133.5t244.5 -49.5zM786 371q-34 0 -55.5 19.5t-21.5 51.5q0 40 34 71l224 224q45 43 67 72.5t22 61.5q0 36 -25 57.5t-66 21.5
q-27 0 -49.5 -12.5t-34 -25.5t-25.5 -35q-31 -46 -74 -46q-34 0 -54.5 18.5t-20.5 50.5q0 22 6 39q23 67 93 110t159 43q117 0 189 -57t72 -149q0 -59 -31 -109.5t-94 -110.5l-142 -143v-7h221q36 0 57 -19t21 -53t-21.5 -53.5t-56.5 -19.5h-394z" />
    <glyph glyph-name="uni10003E.small" unicode="&#x33;&#x20dd;" 
d="M964 -103q-166 0 -318.5 66t-263 176.5t-176.5 263t-66 318.5t65.5 318.5t176 263t263 176.5t318.5 66t319 -66t263.5 -176.5t176.5 -263t66 -318.5t-66 -318.5t-176.5 -263t-263 -176.5t-318.5 -66zM964 93q171 0 315.5 84t228.5 228.5t84 315.5t-84 315.5t-228.5 228.5
t-316.5 84q-171 0 -315 -84t-227.5 -228.5t-83.5 -315.5t83.5 -315.5t228 -228.5t315.5 -84zM961 351q-100 0 -173.5 41t-93.5 107q-5 16 -5 36q0 32 21 52t56 20q48 0 73 -45q34 -73 126 -73q51 0 82.5 23t31.5 61q0 41 -31.5 65t-84.5 24h-34q-33 0 -53 18.5t-20 48.5
q0 31 19.5 49t53.5 18h31q44 0 72 23.5t28 61.5q0 35 -25.5 55t-70.5 20q-83 0 -115 -73q-22 -45 -71 -45q-35 0 -56.5 19t-21.5 51q0 16 5 38q20 67 89.5 106t171.5 39q118 0 191 -53t73 -138q0 -58 -40 -103.5t-96 -53.5v-8q68 -6 113 -54.5t45 -116.5q0 -96 -78.5 -154.5
t-212.5 -58.5z" />
    <glyph glyph-name="uni100040.small" unicode="&#x34;&#x20dd;" 
d="M964 -102q-166 0 -318.5 65.5t-263 176.5t-176.5 263.5t-66 318.5t65.5 318.5t176 263t263 176.5t318.5 66t319 -66t263.5 -176.5t176.5 -263t66 -318.5t-66 -318.5t-176.5 -263.5t-263 -176.5t-318.5 -65.5zM964 94q171 0 315.5 83.5t228.5 228t84 316.5
q0 128 -50 244.5t-134 200t-200 133t-245 49.5q-171 0 -315 -83.5t-227.5 -228t-83.5 -315.5q0 -129 49.5 -245t133 -200t200 -133.5t244.5 -49.5zM1068 365q-37 0 -57.5 22.5t-20.5 63.5v44h-248q-50 0 -80 27.5t-30 74.5q0 43 26 91q52 90 192 308q32 52 70 74t96 22
q57 0 94 -32.5t37 -82.5v-341h38q34 0 54.5 -19.5t20.5 -51.5t-21 -51t-55 -19h-37v-44q0 -42 -21 -64t-58 -22zM990 636v324h-6q-132 -209 -193 -319v-5h199z" />
    <glyph glyph-name="uni100042.small" unicode="&#x35;&#x20dd;" 
d="M964 -102q-166 0 -318.5 65.5t-263 176.5t-176.5 263.5t-66 318.5t65.5 318.5t176 263t263 176.5t318.5 66t319 -66t263.5 -176.5t176.5 -263t66 -318.5t-66 -318.5t-176.5 -263.5t-263 -176.5t-318.5 -65.5zM964 94q171 0 315.5 83.5t228.5 228t84 316.5
q0 128 -50 244.5t-134 200t-200 133t-245 49.5q-171 0 -315 -83.5t-227.5 -228t-83.5 -315.5q0 -129 49.5 -245t133 -200t200 -133.5t244.5 -49.5zM959 351q-100 0 -168.5 32.5t-92.5 90.5q-10 22 -10 43q0 31 20.5 50t55.5 19q44 0 73 -36q42 -61 117 -61q51 0 85 33t34 82
q0 50 -29.5 80.5t-77.5 30.5q-43 0 -84 -30q-45 -29 -89 -29q-47 0 -72 26t-22 73l17 223q3 43 32 68.5t75 25.5h322q33 0 51.5 -17.5t18.5 -47.5q0 -31 -19 -48.5t-51 -17.5h-288l-14 -166h8q19 28 62 46.5t92 18.5q107 0 174 -64t67 -168q0 -117 -78.5 -187t-208.5 -70z
" />
    <glyph glyph-name="uni100044.small" unicode="&#x36;&#x20dd;" 
d="M964 -102q-166 0 -318.5 65.5t-263 176.5t-176.5 263.5t-66 318.5t65.5 318.5t176 263t263 176.5t318.5 66t319 -66t263.5 -176.5t176.5 -263t66 -318.5t-66 -318.5t-176.5 -263.5t-263 -176.5t-318.5 -65.5zM964 94q171 0 315.5 83.5t228.5 228t84 316.5
q0 128 -50 244.5t-134 200t-200 133t-245 49.5q-171 0 -315 -83.5t-227.5 -228t-83.5 -315.5q0 -129 49.5 -245t133 -200t200 -133.5t244.5 -49.5zM971 351q-170 0 -247 123q-56 87 -56 240q0 185 85 281.5t237 96.5q75 0 135 -28t83 -72q13 -24 13 -47q0 -28 -19 -45
t-48 -17q-23 0 -39 8.5t-41 28.5q-43 37 -87 37q-66 0 -106.5 -56.5t-40.5 -147.5q0 -11 1 -17h7q20 41 66 68t111 27q98 0 164.5 -60t66.5 -164q0 -119 -78.5 -187.5t-206.5 -68.5zM962 484q53 0 84.5 32t31.5 86q0 50 -32 82.5t-84 32.5q-51 0 -83.5 -32t-32.5 -82
q0 -52 32.5 -85.5t83.5 -33.5z" />
    <glyph glyph-name="uni100046.small" unicode="&#x37;&#x20dd;" 
d="M964 -102q-166 0 -318.5 65.5t-263 176.5t-176.5 263.5t-66 318.5t65.5 318.5t176 263t263 176.5t318.5 66t319 -66t263.5 -176.5t176.5 -263t66 -318.5t-66 -318.5t-176.5 -263.5t-263 -176.5t-318.5 -65.5zM964 94q171 0 315.5 83.5t228.5 228t84 316.5
q0 128 -50 244.5t-134 200t-200 133t-245 49.5q-171 0 -315 -83.5t-227.5 -228t-83.5 -315.5q0 -129 49.5 -245t133 -200t200 -133.5t244.5 -49.5zM873 352q-39 0 -64 21.5t-25 56.5q0 30 16 56l256 439v7h-290q-34 0 -54 19t-20 51t20 51t54 19h370q53 0 84 -28t31 -73
q0 -43 -27 -89l-264 -470q-19 -33 -38.5 -46.5t-48.5 -13.5z" />
    <glyph glyph-name="uni100048.small" unicode="&#x38;&#x20dd;" 
d="M964 -102q-166 0 -318.5 65.5t-263 176.5t-176.5 263.5t-66 318.5t65.5 318.5t176 263t263 176.5t318.5 66t319 -66t263.5 -176.5t176.5 -263t66 -318.5t-66 -318.5t-176.5 -263.5t-263 -176.5t-318.5 -65.5zM964 94q171 0 315.5 83.5t228.5 228t84 316.5
q0 128 -50 244.5t-134 200t-200 133t-245 49.5q-171 0 -315 -83.5t-227.5 -228t-83.5 -315.5q0 -129 49.5 -245t133 -200t200 -133.5t244.5 -49.5zM962 351q-137 0 -218.5 58t-81.5 155q0 66 43.5 114t115.5 60v7q-63 18 -96 58.5t-33 97.5q0 86 74.5 138.5t196.5 52.5
q123 0 197.5 -52.5t74.5 -138.5q0 -57 -33.5 -98t-96.5 -58v-7q73 -12 116.5 -59.5t43.5 -114.5q0 -97 -82.5 -155t-220.5 -58zM963 792q44 0 72.5 25.5t28.5 65.5q0 38 -28.5 63.5t-72.5 25.5q-43 0 -71.5 -25.5t-28.5 -63.5q0 -40 28 -65.5t72 -25.5zM964 471
q53 0 87 29.5t34 75.5q0 45 -34 75t-87 30q-52 0 -87 -30t-35 -75q0 -46 34.5 -75.5t87.5 -29.5z" />
    <glyph glyph-name="uni10004A.small" unicode="&#x39;&#x20dd;" 
d="M964 -102q-166 0 -318.5 65.5t-263 176.5t-176.5 263.5t-66 318.5t65.5 318.5t176 263t263 176.5t318.5 66t319 -66t263.5 -176.5t176.5 -263t66 -318.5t-66 -318.5t-176.5 -263.5t-263 -176.5t-318.5 -65.5zM964 94q171 0 315.5 83.5t228.5 228t84 316.5
q0 128 -50 244.5t-134 200t-200 133t-245 49.5q-171 0 -315 -83.5t-227.5 -228t-83.5 -315.5q0 -129 49.5 -245t133 -200t200 -133.5t244.5 -49.5zM950 351q-96 0 -156 32.5t-80 79.5q-7 17 -7 36q0 29 20 48.5t51 19.5q37 0 70 -31q44 -49 100 -49q67 0 106 61t35 161h-7
q-19 -42 -63 -69.5t-110 -27.5q-99 0 -166.5 60.5t-67.5 164.5q0 115 78.5 185t206.5 70q143 0 221 -93t78 -263q0 -186 -80 -285.5t-229 -99.5zM967 728q52 0 84.5 32t32.5 82q0 52 -33.5 85.5t-83.5 33.5q-53 0 -85 -32.5t-32 -85.5q0 -50 33 -82.5t84 -32.5z" />
    <glyph glyph-name="uni100004.small" unicode="A&#x20dd;" 
d="M964 -102q-166 0 -318.5 65.5t-263 176.5t-176.5 263.5t-66 318.5t65.5 318.5t176 263t263 176.5t318.5 66t319 -66t263.5 -176.5t176.5 -263t66 -318.5t-66 -318.5t-176.5 -263.5t-263 -176.5t-318.5 -65.5zM964 94q171 0 315.5 83.5t228.5 228t84 316.5
q0 128 -50 244.5t-134 200t-200 133t-245 49.5q-171 0 -315 -83.5t-227.5 -228t-83.5 -315.5q0 -129 49.5 -245t133 -200t200 -133.5t244.5 -49.5zM721 355q-39 0 -62 21.5t-23 58.5q0 22 12 59l180 502q35 102 134 102q102 0 137 -102l179 -502q12 -33 12 -59
q0 -37 -22.5 -58.5t-61.5 -21.5q-66 0 -86 76l-37 114h-239l-37 -114q-20 -76 -86 -76zM880 674h167l-79 256h-9z" />
    <glyph glyph-name="uni100006.small" unicode="B&#x20dd;" 
d="M964 -102q-166 0 -318.5 65.5t-263 176.5t-176.5 263.5t-66 318.5t65.5 318.5t176 263t263 176.5t318.5 66t319 -66t263.5 -176.5t176.5 -263t66 -318.5t-66 -318.5t-176.5 -263.5t-263 -176.5t-318.5 -65.5zM964 94q171 0 315.5 83.5t228.5 228t84 316.5
q0 128 -50 244.5t-134 200t-200 133t-245 49.5q-171 0 -315 -83.5t-227.5 -228t-83.5 -315.5q0 -129 49.5 -245t133 -200t200 -133.5t244.5 -49.5zM786 373q-50 0 -76.5 26.5t-26.5 76.5v502q0 50 26.5 76.5t76.5 26.5h234q103 0 163.5 -47t60.5 -127q0 -59 -35.5 -100.5
t-96.5 -54.5v-6q79 -10 124 -56.5t45 -118.5q0 -89 -71 -143.5t-187 -54.5h-237zM854 792h90q131 0 131 87q0 38 -28 60.5t-75 22.5h-118v-170zM854 496h99q150 0 150 93q0 45 -33 70.5t-91 25.5h-125v-189z" />
    <glyph glyph-name="uni100008.small" unicode="C&#x20dd;" 
d="M964 -102q-166 0 -318.5 65.5t-263 176.5t-176.5 263.5t-66 318.5t65.5 318.5t176 263t263 176.5t318.5 66t319 -66t263.5 -176.5t176.5 -263t66 -318.5t-66 -318.5t-176.5 -263.5t-263 -176.5t-318.5 -65.5zM964 94q171 0 315.5 83.5t228.5 228t84 316.5
q0 128 -50 244.5t-134 200t-200 133t-245 49.5q-171 0 -315 -83.5t-227.5 -228t-83.5 -315.5q0 -129 49.5 -245t133 -200t200 -133.5t244.5 -49.5zM962 355q-157 0 -250.5 101t-93.5 271t93.5 271t250.5 101q104 0 183 -44.5t111 -121.5q9 -21 9 -46q0 -34 -21 -53.5
t-58 -19.5q-48 0 -75 49q-46 88 -147 88q-75 0 -119.5 -61t-44.5 -163q0 -103 44.5 -163.5t119.5 -60.5q102 0 146 87q27 49 76 49q37 0 58 -19t21 -53q0 -27 -9 -46q-31 -77 -110 -121.5t-184 -44.5z" />
    <glyph glyph-name="uni10000A.small" unicode="D&#x20dd;" 
d="M964 -102q-166 0 -318.5 65.5t-263 176.5t-176.5 263.5t-66 318.5t65.5 318.5t176 263t263 176.5t318.5 66t319 -66t263.5 -176.5t176.5 -263t66 -318.5t-66 -318.5t-176.5 -263.5t-263 -176.5t-318.5 -65.5zM964 94q171 0 315.5 83.5t228.5 228t84 316.5
q0 128 -50 244.5t-134 200t-200 133t-245 49.5q-171 0 -315 -83.5t-227.5 -228t-83.5 -315.5q0 -129 49.5 -245t133 -200t200 -133.5t244.5 -49.5zM771 373q-47 0 -72 27.5t-25 76.5v500q0 49 25 76.5t72 27.5h195q167 0 256.5 -91t89.5 -262t-89.5 -263t-256.5 -92h-195z
M849 510h91q189 0 189 217t-189 217h-91v-434z" />
    <glyph glyph-name="uni10000C.small" unicode="E&#x20dd;" 
d="M964 -102q-166 0 -318.5 65.5t-263 176.5t-176.5 263.5t-66 318.5t65.5 318.5t176 263t263 176.5t318.5 66t319 -66t263.5 -176.5t176.5 -263t66 -318.5t-66 -318.5t-176.5 -263.5t-263 -176.5t-318.5 -65.5zM964 94q171 0 315.5 83.5t228.5 228t84 316.5
q0 128 -50 244.5t-134 200t-200 133t-245 49.5q-171 0 -315 -83.5t-227.5 -228t-83.5 -315.5q0 -129 49.5 -245t133 -200t200 -133.5t244.5 -49.5zM795 373q-47 0 -71.5 27t-24.5 77v500q0 50 24.5 77t71.5 27h343q34 0 54.5 -19t20.5 -52t-20.5 -51.5t-54.5 -18.5h-263
v-145h249q31 0 50 -17t19 -47t-19 -46.5t-50 -16.5h-249v-153h263q34 0 54.5 -19t20.5 -52t-20.5 -52t-54.5 -19h-343z" />
    <glyph glyph-name="uni10000E.small" unicode="F&#x20dd;" 
d="M964 -102q-166 0 -318.5 65.5t-263 176.5t-176.5 263.5t-66 318.5t65.5 318.5t176 263t263 176.5t318.5 66t319 -66t263.5 -176.5t176.5 -263t66 -318.5t-66 -318.5t-176.5 -263.5t-263 -176.5t-318.5 -65.5zM964 94q171 0 315.5 83.5t228.5 228t84 316.5
q0 128 -50 244.5t-134 200t-200 133t-245 49.5q-171 0 -315 -83.5t-227.5 -228t-83.5 -315.5q0 -129 49.5 -245t133 -200t200 -133.5t244.5 -49.5zM799 362q-43 0 -66.5 27t-23.5 75v513q0 50 24.5 77t71.5 27h349q35 0 55 -19t20 -52t-20 -51.5t-55 -18.5h-264v-157h244
q31 0 49.5 -17.5t18.5 -47.5q0 -31 -18.5 -48t-49.5 -17h-243v-189q0 -48 -24 -75t-68 -27z" />
    <glyph glyph-name="uni100010.small" unicode="G&#x20dd;" 
d="M964 -102q-166 0 -318.5 65.5t-263 176.5t-176.5 263.5t-66 318.5t65.5 318.5t176 263t263 176.5t318.5 66t319 -66t263.5 -176.5t176.5 -263t66 -318.5t-66 -318.5t-176.5 -263.5t-263 -176.5t-318.5 -65.5zM964 94q171 0 315.5 83.5t228.5 228t84 316.5
q0 128 -50 244.5t-134 200t-200 133t-245 49.5q-171 0 -315 -83.5t-227.5 -228t-83.5 -315.5q0 -129 49.5 -245t133 -200t200 -133.5t244.5 -49.5zM963 355q-158 0 -251.5 100.5t-93.5 271.5q0 170 93.5 271t250.5 101q105 0 182.5 -42.5t108.5 -115.5q9 -22 9 -44
q0 -32 -20.5 -51t-55.5 -19q-49 0 -76 45q-47 86 -144 86q-75 0 -120.5 -63.5t-45.5 -167.5q0 -105 46 -169.5t122 -64.5q68 0 105 31.5t37 83.5v38h-93q-28 0 -45 16.5t-17 41.5q0 27 16.5 43t45.5 16h179q42 0 64.5 -23t22.5 -65v-42q0 -122 -86.5 -200t-233.5 -78z" />
    <glyph glyph-name="uni100012.small" unicode="H&#x20dd;" 
d="M964 -102q-166 0 -318.5 65.5t-263 176.5t-176.5 263.5t-66 318.5t65.5 318.5t176 263t263 176.5t318.5 66t319 -66t263.5 -176.5t176.5 -263t66 -318.5t-66 -318.5t-176.5 -263.5t-263 -176.5t-318.5 -65.5zM964 94q171 0 315.5 83.5t228.5 228t84 316.5
q0 128 -50 244.5t-134 200t-200 133t-245 49.5q-171 0 -315 -83.5t-227.5 -228t-83.5 -315.5q0 -129 49.5 -245t133 -200t200 -133.5t244.5 -49.5zM728 362q-44 0 -68.5 27.5t-24.5 76.5v523q0 49 24.5 76t68.5 27t69 -27t25 -76v-185h282v185q0 49 24.5 76t68.5 27t69 -27
t25 -76v-523q0 -49 -25 -76.5t-69 -27.5t-68.5 27.5t-24.5 76.5v197h-282v-197q0 -49 -25 -76.5t-69 -27.5z" />
    <glyph glyph-name="uni100014.small" unicode="I&#x20dd;" 
d="M964 -102q-166 0 -318.5 65.5t-263 176.5t-176.5 263.5t-66 318.5t65.5 318.5t176 263t263 176.5t318.5 66t319 -66t263.5 -176.5t176.5 -263t66 -318.5t-66 -318.5t-176.5 -263.5t-263 -176.5t-318.5 -65.5zM964 94q171 0 315.5 83.5t228.5 228t84 316.5
q0 128 -50 244.5t-134 200t-200 133t-245 49.5q-171 0 -315 -83.5t-227.5 -228t-83.5 -315.5q0 -129 49.5 -245t133 -200t200 -133.5t244.5 -49.5zM963 362q-46 0 -70.5 28.5t-24.5 78.5v516q0 50 24.5 78.5t70.5 28.5t71 -28.5t25 -78.5v-516q0 -50 -25 -78.5t-71 -28.5z
" />
    <glyph glyph-name="uni100016.small" unicode="J&#x20dd;" 
d="M964 -102q-166 0 -318.5 65.5t-263 176.5t-176.5 263.5t-66 318.5t65.5 318.5t176 263t263 176.5t318.5 66t319 -66t263.5 -176.5t176.5 -263t66 -318.5t-66 -318.5t-176.5 -263.5t-263 -176.5t-318.5 -65.5zM964 94q171 0 315.5 83.5t228.5 228t84 316.5
q0 128 -50 244.5t-134 200t-200 133t-245 49.5q-171 0 -315 -83.5t-227.5 -228t-83.5 -315.5q0 -129 49.5 -245t133 -200t200 -133.5t244.5 -49.5zM927 355q-91 0 -158 39.5t-90 106.5q-7 24 -7 45q0 37 23.5 60t60.5 24q63 0 85 -60q26 -59 88 -59q79 0 79 103v374
q0 48 24 76t68 28q45 0 69.5 -27.5t24.5 -76.5v-379q0 -122 -69.5 -188t-197.5 -66z" />
    <glyph glyph-name="uni100018.small" unicode="&#x212a;&#x20dd;" 
d="M964 -102q-166 0 -318.5 65.5t-263 176.5t-176.5 263.5t-66 318.5t65.5 318.5t176 263t263 176.5t318.5 66t319 -66t263.5 -176.5t176.5 -263t66 -318.5t-66 -318.5t-176.5 -263.5t-263 -176.5t-318.5 -65.5zM964 94q171 0 315.5 83.5t228.5 228t84 316.5
q0 128 -50 244.5t-134 200t-200 133t-245 49.5q-171 0 -315 -83.5t-227.5 -228t-83.5 -315.5q0 -129 49.5 -245t133 -200t200 -133.5t244.5 -49.5zM758 367q-41 0 -64.5 26t-23.5 73v522q0 47 23.5 73t64.5 26q43 0 66.5 -26t23.5 -73v-212h6l250 272q32 39 73 39
q34 0 58 -21t24 -52q0 -33 -27 -63l-173 -187l189 -251q23 -33 23 -65q0 -35 -24.5 -58t-61.5 -23q-45 0 -76 43l-181 245l-80 -86v-106q0 -46 -24 -71t-66 -25z" />
    <glyph glyph-name="uni10001A.small" unicode="L&#x20dd;" 
d="M964 -102q-166 0 -318.5 65.5t-263 176.5t-176.5 263.5t-66 318.5t65.5 318.5t176 263t263 176.5t318.5 66t319 -66t263.5 -176.5t176.5 -263t66 -318.5t-66 -318.5t-176.5 -263.5t-263 -176.5t-318.5 -65.5zM964 94q171 0 315.5 83.5t228.5 228t84 316.5
q0 128 -50 244.5t-134 200t-200 133t-245 49.5q-171 0 -315 -83.5t-227.5 -228t-83.5 -315.5q0 -129 49.5 -245t133 -200t200 -133.5t244.5 -49.5zM826 373q-45 0 -70 29t-25 78v505q0 50 25 78.5t70 28.5q46 0 71.5 -28t25.5 -79v-461h240q37 0 58.5 -20t21.5 -55
t-22 -55.5t-58 -20.5h-337z" />
    <glyph glyph-name="uni10001C.small" unicode="M&#x20dd;" 
d="M964 -102q-166 0 -318.5 65.5t-263 176.5t-176.5 263.5t-66 318.5t65.5 318.5t176 263t263 176.5t318.5 66t319 -66t263.5 -176.5t176.5 -263t66 -318.5t-66 -318.5t-176.5 -263.5t-263 -176.5t-318.5 -65.5zM964 94q171 0 315.5 83.5t228.5 228t84 316.5
q0 128 -50 244.5t-134 200t-200 133t-245 49.5q-171 0 -315 -83.5t-227.5 -228t-83.5 -315.5q0 -129 49.5 -245t133 -200t200 -133.5t244.5 -49.5zM670 358q-34 0 -53.5 22t-19.5 60v556q0 43 27.5 69.5t71.5 26.5q78 0 103 -74l163 -428h4l161 428q25 74 104 74
q44 0 71.5 -26.5t27.5 -69.5v-556q0 -39 -19.5 -60.5t-54.5 -21.5q-34 0 -53.5 22t-19.5 60v377h-7l-142 -369q-19 -52 -72 -52q-52 0 -71 52l-140 369h-7v-377q0 -39 -19.5 -60.5t-54.5 -21.5z" />
    <glyph glyph-name="uni10001E.small" unicode="N&#x20dd;" 
d="M964 -102q-166 0 -318.5 65.5t-263 176.5t-176.5 263.5t-66 318.5t65.5 318.5t176 263t263 176.5t318.5 66t319 -66t263.5 -176.5t176.5 -263t66 -318.5t-66 -318.5t-176.5 -263.5t-263 -176.5t-318.5 -65.5zM964 94q171 0 315.5 83.5t228.5 228t84 316.5
q0 128 -50 244.5t-134 200t-200 133t-245 49.5q-171 0 -315 -83.5t-227.5 -228t-83.5 -315.5q0 -129 49.5 -245t133 -200t200 -133.5t244.5 -49.5zM737 362q-38 0 -59 23.5t-21 64.5v559q0 38 20.5 60.5t56.5 22.5q26 0 44.5 -10.5t39.5 -39.5l284 -391h6v354q0 41 21.5 64
t59.5 23t59.5 -23t21.5 -64v-562q0 -38 -20.5 -59.5t-56.5 -21.5q-26 0 -43.5 10.5t-37.5 37.5l-288 391h-5v-351q0 -42 -22 -65t-60 -23z" />
    <glyph glyph-name="uni100020.small" unicode="O&#x20dd;" 
d="M964 -102q-166 0 -318.5 65.5t-263 176.5t-176.5 263.5t-66 318.5t65.5 318.5t176 263t263 176.5t318.5 66t319 -66t263.5 -176.5t176.5 -263t66 -318.5t-66 -318.5t-176.5 -263.5t-263 -176.5t-318.5 -65.5zM964 94q171 0 315.5 83.5t228.5 228t84 316.5
q0 128 -50 244.5t-134 200t-200 133t-245 49.5q-171 0 -315 -83.5t-227.5 -228t-83.5 -315.5q0 -129 49.5 -245t133 -200t200 -133.5t244.5 -49.5zM964 355q-153 0 -250.5 102.5t-97.5 269.5t97.5 269.5t250.5 102.5t250 -102.5t97 -269.5t-97 -269.5t-250 -102.5zM964 499
q75 0 120.5 61t45.5 167t-45.5 167t-120.5 61q-76 0 -121.5 -61t-45.5 -167t45.5 -167t121.5 -61z" />
    <glyph glyph-name="uni100022.small" unicode="P&#x20dd;" 
d="M964 -102q-166 0 -318.5 65.5t-263 176.5t-176.5 263.5t-66 318.5t65.5 318.5t176 263t263 176.5t318.5 66t319 -66t263.5 -176.5t176.5 -263t66 -318.5t-66 -318.5t-176.5 -263.5t-263 -176.5t-318.5 -65.5zM964 94q171 0 315.5 83.5t228.5 228t84 316.5
q0 128 -50 244.5t-134 200t-200 133t-245 49.5q-171 0 -315 -83.5t-227.5 -228t-83.5 -315.5q0 -129 49.5 -245t133 -200t200 -133.5t244.5 -49.5zM793 362q-44 0 -67.5 27t-23.5 75v513q0 49 25 76.5t72 27.5h211q121 0 194 -69.5t73 -184.5t-73.5 -184.5t-195.5 -69.5
h-123v-109q0 -48 -24 -75t-68 -27zM885 707h97q58 0 89.5 31t31.5 89t-31.5 89t-89.5 31h-97v-240z" />
    <glyph glyph-name="uni100024.small" unicode="Q&#x20dd;" 
d="M964 -102q-166 0 -318.5 65.5t-263 176.5t-176.5 263.5t-66 318.5t65.5 318.5t176 263t263 176.5t318.5 66t319 -66t263.5 -176.5t176.5 -263t66 -318.5t-66 -318.5t-176.5 -263.5t-263 -176.5t-318.5 -65.5zM964 94q171 0 315.5 83.5t228.5 228t84 316.5
q0 128 -50 244.5t-134 200t-200 133t-245 49.5q-171 0 -315 -83.5t-227.5 -228t-83.5 -315.5q0 -129 49.5 -245t133 -200t200 -133.5t244.5 -49.5zM964 355q-153 0 -250.5 102.5t-97.5 269.5t97 269.5t251 102.5q153 0 250 -102.5t97 -269.5q0 -187 -118 -289l29 -40
q23 -31 23 -55q0 -29 -19 -47t-49 -18q-41 0 -69 42l-37 52q-51 -17 -107 -17zM964 499q19 0 39 5l-21 29q-14 20 -14 40q0 22 15.5 36.5t38.5 14.5q24 0 38 -18l27 -35q43 58 43 156q0 106 -45.5 167t-120.5 61q-76 0 -121.5 -61t-45.5 -167t45.5 -167t121.5 -61z" />
    <glyph glyph-name="uni100026.small" unicode="R&#x20dd;" 
d="M964 -102q-166 0 -318.5 65.5t-263 176.5t-176.5 263.5t-66 318.5t65.5 318.5t176 263t263 176.5t318.5 66t319 -66t263.5 -176.5t176.5 -263t66 -318.5t-66 -318.5t-176.5 -263.5t-263 -176.5t-318.5 -65.5zM964 94q171 0 315.5 83.5t228.5 228t84 316.5
q0 128 -50 244.5t-134 200t-200 133t-245 49.5q-171 0 -315 -83.5t-227.5 -228t-83.5 -315.5q0 -129 49.5 -245t133 -200t200 -133.5t244.5 -49.5zM759 362q-41 0 -63.5 25.5t-22.5 70.5v519q0 49 25 76.5t72 27.5h216q130 0 204 -62.5t74 -172.5q0 -71 -39.5 -127
t-105.5 -79l99 -146q19 -28 19 -58q0 -32 -22.5 -53t-57.5 -21q-29 0 -48 13t-40 47l-116 188h-107v-152q0 -45 -22.5 -70.5t-64.5 -25.5zM846 736h115q58 0 91 27.5t33 78.5q0 52 -33 81t-88 29h-118v-216z" />
    <glyph glyph-name="uni100028.small" unicode="S&#x20dd;" 
d="M964 -102q-166 0 -318.5 65.5t-263 176.5t-176.5 263.5t-66 318.5t65.5 318.5t176 263t263 176.5t318.5 66t319 -66t263.5 -176.5t176.5 -263t66 -318.5t-66 -318.5t-176.5 -263.5t-263 -176.5t-318.5 -65.5zM964 94q171 0 315.5 83.5t228.5 228t84 316.5
q0 128 -50 244.5t-134 200t-200 133t-245 49.5q-171 0 -315 -83.5t-227.5 -228t-83.5 -315.5q0 -129 49.5 -245t133 -200t200 -133.5t244.5 -49.5zM952 355q-101 0 -172.5 36.5t-97.5 91.5q-12 24 -12 47q0 32 20.5 52t54.5 20q41 0 74 -40q51 -70 144 -70q54 0 86.5 20.5
t32.5 58.5q0 32 -23.5 48t-89.5 32l-98 25q-200 45 -200 197q0 100 80.5 162.5t209.5 62.5q94 0 164.5 -36t97.5 -94q12 -26 12 -48q0 -31 -20 -48.5t-52 -17.5q-45 0 -77 41q-24 37 -54 53.5t-75 16.5q-49 0 -76.5 -20.5t-27.5 -57.5q0 -29 23 -46.5t76 -28.5l96 -22
q214 -48 214 -203q0 -106 -84.5 -169t-225.5 -63z" />
    <glyph glyph-name="uni10002A.small" unicode="T&#x20dd;" 
d="M964 -102q-166 0 -318.5 65.5t-263 176.5t-176.5 263.5t-66 318.5t65.5 318.5t176 263t263 176.5t318.5 66t319 -66t263.5 -176.5t176.5 -263t66 -318.5t-66 -318.5t-176.5 -263.5t-263 -176.5t-318.5 -65.5zM964 94q171 0 315.5 83.5t228.5 228t84 316.5
q0 128 -50 244.5t-134 200t-200 133t-245 49.5q-171 0 -315 -83.5t-227.5 -228t-83.5 -315.5q0 -129 49.5 -245t133 -200t200 -133.5t244.5 -49.5zM962 359q-45 0 -70 29t-25 78v469h-150q-36 0 -57 20t-21 54t21 54t57 20h492q36 0 57 -20t21 -54t-21 -54t-57 -20h-150
v-469q0 -50 -25.5 -78.5t-71.5 -28.5z" />
    <glyph glyph-name="uni10002C.small" unicode="U&#x20dd;" 
d="M964 -102q-166 0 -318.5 65.5t-263 176.5t-176.5 263.5t-66 318.5t65.5 318.5t176 263t263 176.5t318.5 66t319 -66t263.5 -176.5t176.5 -263t66 -318.5t-66 -318.5t-176.5 -263.5t-263 -176.5t-318.5 -65.5zM964 94q171 0 315.5 83.5t228.5 228t84 316.5
q0 128 -50 244.5t-134 200t-200 133t-245 49.5q-171 0 -315 -83.5t-227.5 -228t-83.5 -315.5q0 -129 49.5 -245t133 -200t200 -133.5t244.5 -49.5zM963 355q-143 0 -230.5 74t-87.5 195v368q0 48 23 74t66 26q44 0 67.5 -26t23.5 -74v-350q0 -64 37.5 -102t100.5 -38
q64 0 101.5 38t37.5 102v350q0 48 23.5 74t65.5 26q44 0 67.5 -26t23.5 -74v-368q0 -121 -88 -195t-231 -74z" />
    <glyph glyph-name="uni10002E.small" unicode="V&#x20dd;" 
d="M964 -102q-166 0 -318.5 65.5t-263 176.5t-176.5 263.5t-66 318.5t65.5 318.5t176 263t263 176.5t318.5 66t319 -66t263.5 -176.5t176.5 -263t66 -318.5t-66 -318.5t-176.5 -263.5t-263 -176.5t-318.5 -65.5zM964 94q171 0 315.5 83.5t228.5 228t84 316.5
q0 128 -50 244.5t-134 200t-200 133t-245 49.5q-171 0 -315 -83.5t-227.5 -228t-83.5 -315.5q0 -129 49.5 -245t133 -200t200 -133.5t244.5 -49.5zM963 355q-56 0 -88.5 25t-52.5 83l-181 494q-8 25 -8 47q0 39 26 63.5t67 24.5q38 0 60 -19t34 -63l140 -463h6l140 463
q12 44 33.5 63t60.5 19q41 0 67.5 -24t26.5 -63q0 -24 -9 -48l-179 -491q-21 -58 -54.5 -84.5t-88.5 -26.5z" />
    <glyph glyph-name="uni100030.small" unicode="W&#x20dd;" 
d="M964 -102q-166 0 -318.5 65.5t-263 176.5t-176.5 263.5t-66 318.5t65.5 318.5t176 263t263 176.5t318.5 66t319 -66t263.5 -176.5t176.5 -263t66 -318.5t-66 -318.5t-176.5 -263.5t-263 -176.5t-318.5 -65.5zM964 94q171 0 315.5 83.5t228.5 228t84 316.5
q0 128 -50 244.5t-134 200t-200 133t-245 49.5q-171 0 -315 -83.5t-227.5 -228t-83.5 -315.5q0 -129 49.5 -245t133 -200t200 -133.5t244.5 -49.5zM761 355q-83 0 -101 84l-132 548q-3 15 -3 27q0 34 21.5 56t56.5 22q69 0 83 -82l85 -428h7l102 438q13 67 83 67
q69 0 84 -67l102 -438h6l86 428q14 82 83 82q35 0 56.5 -22t21.5 -56q0 -12 -3 -27l-132 -548q-20 -84 -102 -84q-84 0 -102 85l-97 400h-6l-97 -400q-18 -85 -102 -85z" />
    <glyph glyph-name="uni100032.small" unicode="X&#x20dd;" 
d="M964 -102q-166 0 -318.5 65.5t-263 176.5t-176.5 263.5t-66 318.5t65.5 318.5t176 263t263 176.5t318.5 66t319 -66t263.5 -176.5t176.5 -263t66 -318.5t-66 -318.5t-176.5 -263.5t-263 -176.5t-318.5 -65.5zM964 94q171 0 315.5 83.5t228.5 228t84 316.5
q0 128 -50 244.5t-134 200t-200 133t-245 49.5q-171 0 -315 -83.5t-227.5 -228t-83.5 -315.5q0 -129 49.5 -245t133 -200t200 -133.5t244.5 -49.5zM738 362q-35 0 -58 21.5t-23 55.5q0 30 23 60l172 231l-163 218q-25 33 -25 65q0 34 24 56.5t60 22.5q28 0 46.5 -11
t37.5 -41l136 -199h5l130 198q19 30 37 41.5t46 11.5q35 0 58.5 -21.5t23.5 -55.5q0 -31 -23 -61l-171 -227l170 -225q23 -30 23 -61q0 -35 -23.5 -57t-61.5 -22q-27 0 -45 12t-38 43l-135 196h-5l-136 -196q-22 -32 -39.5 -43.5t-45.5 -11.5z" />
    <glyph glyph-name="uni100034.small" unicode="Y&#x20dd;" 
d="M964 -102q-166 0 -318.5 65.5t-263 176.5t-176.5 263.5t-66 318.5t65.5 318.5t176 263t263 176.5t318.5 66t319 -66t263.5 -176.5t176.5 -263t66 -318.5t-66 -318.5t-176.5 -263.5t-263 -176.5t-318.5 -65.5zM964 94q171 0 315.5 83.5t228.5 228t84 316.5
q0 128 -50 244.5t-134 200t-200 133t-245 49.5q-171 0 -315 -83.5t-227.5 -228t-83.5 -315.5q0 -129 49.5 -245t133 -200t200 -133.5t244.5 -49.5zM964 362q-45 0 -69.5 28.5t-24.5 77.5v140l-201 352q-15 27 -15 52q0 34 24.5 57t61.5 23q33 0 52 -13.5t35 -49.5l135 -254
h5l135 254q16 35 35 49t50 14q38 0 62 -23t24 -59q0 -24 -14 -50l-200 -351v-141q0 -50 -25 -78t-70 -28z" />
    <glyph glyph-name="uni100036.small" unicode="Z&#x20dd;" 
d="M964 -102q-166 0 -318.5 65.5t-263 176.5t-176.5 263.5t-66 318.5t65.5 318.5t176 263t263 176.5t318.5 66t319 -66t263.5 -176.5t176.5 -263t66 -318.5t-66 -318.5t-176.5 -263.5t-263 -176.5t-318.5 -65.5zM964 94q171 0 315.5 83.5t228.5 228t84 316.5
q0 128 -50 244.5t-134 200t-200 133t-245 49.5q-171 0 -315 -83.5t-227.5 -228t-83.5 -315.5q0 -129 49.5 -245t133 -200t200 -133.5t244.5 -49.5zM754 373q-35 0 -57.5 21.5t-22.5 54.5q0 35 33 78l302 401v7h-264q-36 0 -57.5 20t-21.5 53q0 34 21.5 53.5t57.5 19.5h411
q36 0 58.5 -21.5t22.5 -56.5q0 -23 -6 -38t-25 -37l-302 -402v-8h279q36 0 57.5 -19t21.5 -53q0 -33 -21.5 -53t-57.5 -20h-429z" />
    <glyph glyph-name="uni100038.small" unicode="&#x30;&#x20dd;" 
d="M964 -102q-166 0 -318.5 65.5t-263 176.5t-176.5 263.5t-66 318.5t65.5 318.5t176 263t263 176.5t318.5 66t319 -66t263.5 -176.5t176.5 -263t66 -318.5t-66 -318.5t-176.5 -263.5t-263 -176.5t-318.5 -65.5zM964 94q171 0 315.5 83.5t228.5 228t84 316.5
q0 128 -50 244.5t-134 200t-200 133t-245 49.5q-171 0 -315 -83.5t-227.5 -228t-83.5 -315.5q0 -129 49.5 -245t133 -200t200 -133.5t244.5 -49.5zM962 351q-133 0 -213 101t-80 270q0 168 80 269t213 101q134 0 215 -101t81 -269t-81 -269.5t-215 -101.5zM963 492
q55 0 88 61t33 169t-33 168.5t-88 60.5q-54 0 -87 -60.5t-33 -168.5t33 -169t87 -61z" />
    <glyph glyph-name="uni100039.small" unicode="&#x30;&#x20dd;&#x25cf;" 
d="M964 -102q-166 0 -318.5 65.5t-263 176.5t-176.5 263.5t-66 318.5t65.5 318.5t176 263t263 176.5t318.5 66t319 -66t263.5 -176.5t176.5 -263t66 -318.5t-66 -318.5t-176.5 -263.5t-263 -176.5t-318.5 -65.5zM962 342q137 0 220 104t83 276t-83 276t-220 104
q-136 0 -218 -103.5t-82 -276.5t82 -276.5t218 -103.5zM963 486q-56 0 -90 62.5t-34 173.5t34 173.5t90 62.5q57 0 91 -62.5t34 -173.5t-34 -173.5t-91 -62.5z" />
    <glyph glyph-name="uni1000F2.small" unicode="&#x2713;&#x20de;" horiz-adv-x="1891" 
d="M473 -24q-134 0 -203.5 68.5t-69.5 201.5v950q0 133 69.5 201.5t203.5 68.5h944q134 0 204 -68.5t70 -201.5v-950q0 -133 -70 -201.5t-204 -68.5h-944zM489 166h912q99 0 99 100v910q0 100 -99 100h-912q-98 0 -98 -100v-910q0 -100 98 -100zM862 349q-48 0 -84 45
l-173 211q-23 29 -23 61q0 34 23.5 57.5t57.5 23.5q41 0 69 -36l127 -164l290 465q29 47 72 47q34 0 59 -21.5t25 -55.5q0 -25 -22 -60l-341 -527q-30 -46 -80 -46z" />
    <glyph glyph-name="uni1000F0.small" unicode="&#x2717;&#x20de;" horiz-adv-x="1891" 
d="M473 -24q-134 0 -203.5 68.5t-69.5 201.5v950q0 133 69.5 201.5t203.5 68.5h944q134 0 204 -68.5t70 -201.5v-950q0 -133 -70 -201.5t-204 -68.5h-944zM489 166h912q99 0 99 100v910q0 100 -99 100h-912q-98 0 -98 -100v-910q0 -100 98 -100zM699 391q-35 0 -59 25
t-24 60q0 34 25 57l187 188l-187 187q-25 25 -25 58q0 35 24 59t59 24t59 -24l187 -187l189 187q25 25 59 25q35 0 59 -24.5t24 -59.5q0 -32 -25 -57l-187 -188l187 -187q25 -25 25 -58q0 -35 -24.5 -60t-58.5 -25t-61 25l-187 186l-186 -186q-23 -25 -60 -25z" />
    <glyph glyph-name="uni10003B.small" unicode="&#x31;&#x20dd;&#x25cf;" 
d="M964 -102q-166 0 -318.5 65.5t-263 176.5t-176.5 263.5t-66 318.5t65.5 318.5t176 263t263 176.5t318.5 66t319 -66t263.5 -176.5t176.5 -263t66 -318.5t-66 -318.5t-176.5 -263.5t-263 -176.5t-318.5 -65.5zM1014 347q46 0 72 26.5t26 77.5v542q0 48 -29.5 76.5
t-78.5 28.5q-59 0 -122 -43l-133 -90q-40 -27 -40 -68q0 -28 19 -48t46 -20q26 0 54 20l83 54h6v-452q0 -51 26 -77.5t71 -26.5z" />
    <glyph glyph-name="uni10003D.small" unicode="&#x32;&#x20dd;&#x25cf;" 
d="M964 -102q-166 0 -318.5 65.5t-263 176.5t-176.5 263.5t-66 318.5t65.5 318.5t176 263t263 176.5t318.5 66t319 -66t263.5 -176.5t176.5 -263t66 -318.5t-66 -318.5t-176.5 -263.5t-263 -176.5t-318.5 -65.5zM777 353h414q38 0 60.5 21t22.5 57t-22 56t-61 20h-230v6
l147 150q67 64 99.5 116.5t32.5 114.5q0 98 -75.5 157.5t-199.5 59.5q-94 0 -168 -45.5t-97 -115.5q-8 -19 -8 -41q0 -34 22 -53.5t59 -19.5q27 0 44 12.5t34 35.5q15 23 27 37t35 27t51 13q43 0 69.5 -22.5t26.5 -60.5q0 -33 -23 -64t-70 -76l-235 -234q-37 -33 -37 -76
q0 -34 22.5 -54.5t59.5 -20.5z" />
    <glyph glyph-name="uni10003F.small" unicode="&#x33;&#x20dd;&#x25cf;" 
d="M964 -102q-166 0 -318.5 65.5t-263 176.5t-176.5 263.5t-66 318.5t65.5 318.5t176 263t263 176.5t318.5 66t319 -66t263.5 -176.5t176.5 -263t66 -318.5t-66 -318.5t-176.5 -263.5t-263 -176.5t-318.5 -65.5zM961 333q142 0 224 61.5t82 163.5q0 71 -47 121.5t-119 57.5
v8q60 8 101.5 56t41.5 109q0 89 -76.5 145t-200.5 56q-108 0 -181.5 -40.5t-93.5 -111.5q-6 -21 -6 -40q0 -34 22.5 -54.5t59.5 -20.5q51 0 76 48q33 76 121 76q47 0 73.5 -20.5t26.5 -57.5q0 -39 -29 -63.5t-75 -24.5h-34q-35 0 -56 -19.5t-21 -52.5q0 -32 21.5 -51.5
t55.5 -19.5h36q55 0 88 -25t33 -67q0 -40 -33 -64t-86 -24q-94 0 -132 76q-25 48 -76 48q-37 0 -60 -21t-23 -55q0 -18 6 -39q20 -69 98 -112t183 -43z" />
    <glyph glyph-name="uni100041.small" unicode="&#x34;&#x20dd;&#x25cf;" 
d="M964 -102q-166 0 -318.5 65.5t-263 176.5t-176.5 263.5t-66 318.5t65.5 318.5t176 263t263 176.5t318.5 66t319 -66t263.5 -176.5t176.5 -263t66 -318.5t-66 -318.5t-176.5 -263.5t-263 -176.5t-318.5 -65.5zM1073 346q40 0 62 23.5t22 67.5v46h39q36 0 57.5 20t21.5 54
q0 35 -21 55t-58 20h-39v358q0 53 -39 87t-100 34q-62 0 -101.5 -23t-73.5 -78q-149 -232 -201 -322q-27 -49 -27 -98t31.5 -78t83.5 -29h260v-46q0 -44 22 -67.5t61 -23.5zM990 632h-207v5q63 115 201 335h6v-340z" />
    <glyph glyph-name="uni100043.small" unicode="&#x35;&#x20dd;&#x25cf;" 
d="M964 -102q-166 0 -318.5 65.5t-263 176.5t-176.5 263.5t-66 318.5t65.5 318.5t176 263t263 176.5t318.5 66t319 -66t263.5 -176.5t176.5 -263t66 -318.5t-66 -318.5t-176.5 -263.5t-263 -176.5t-318.5 -65.5zM959 333q137 0 219.5 73.5t82.5 196.5q0 109 -70 176.5
t-183 67.5q-52 0 -97.5 -19t-64.5 -50h-9l15 173h303q33 0 53.5 19.5t20.5 50.5q0 32 -20 51t-54 19h-339q-49 0 -79.5 -27.5t-33.5 -72.5l-18 -234q-3 -49 23.5 -76.5t76.5 -27.5q47 0 94 31t88 31q49 0 79.5 -32t30.5 -84t-35 -86.5t-88 -34.5q-79 0 -123 64
q-29 38 -77 38q-37 0 -58.5 -19.5t-21.5 -52.5q0 -22 10 -47q26 -60 98 -94t177 -34z" />
    <glyph glyph-name="uni100045.small" unicode="&#x36;&#x20dd;&#x25cf;" 
d="M964 -102q-166 0 -318.5 65.5t-263 176.5t-176.5 263.5t-66 318.5t65.5 318.5t176 263t263 176.5t318.5 66t319 -66t263.5 -176.5t176.5 -263t66 -318.5t-66 -318.5t-176.5 -263.5t-263 -176.5t-318.5 -65.5zM971 333q135 0 217.5 72t82.5 197q0 109 -69.5 172t-172.5 63
q-68 0 -116.5 -28.5t-69.5 -71.5h-8q0 4 -0.5 10t-0.5 9q0 95 42.5 153.5t111.5 58.5q21 0 39.5 -6.5t28 -12.5t24.5 -19q17 -14 26.5 -21t25 -12.5t32.5 -5.5q31 0 51 18.5t20 47.5q0 25 -14 50q-24 46 -87.5 75t-141.5 29q-160 0 -249.5 -101t-89.5 -296q0 -159 59 -252
q81 -129 259 -129zM962 472q-53 0 -87 35t-34 90q0 52 34 85.5t87 33.5q54 0 88 -33.5t34 -86.5q0 -56 -33.5 -90t-88.5 -34z" />
    <glyph glyph-name="uni100047.small" unicode="&#x37;&#x20dd;&#x25cf;" 
d="M964 -102q-166 0 -318.5 65.5t-263 176.5t-176.5 263.5t-66 318.5t65.5 318.5t176 263t263 176.5t318.5 66t319 -66t263.5 -176.5t176.5 -263t66 -318.5t-66 -318.5t-176.5 -263.5t-263 -176.5t-318.5 -65.5zM868 333q31 0 52 14.5t41 49.5l277 492q29 51 29 94
q0 48 -33 78t-89 30h-390q-35 0 -56.5 -20.5t-21.5 -54.5t21.5 -54t56.5 -20h305v-7l-269 -460q-16 -28 -16 -58q0 -38 26 -61t67 -23z" />
    <glyph glyph-name="uni100049.small" unicode="&#x38;&#x20dd;&#x25cf;" 
d="M964 -102q-166 0 -318.5 65.5t-263 176.5t-176.5 263.5t-66 318.5t65.5 318.5t176 263t263 176.5t318.5 66t319 -66t263.5 -176.5t176.5 -263t66 -318.5t-66 -318.5t-176.5 -263.5t-263 -176.5t-318.5 -65.5zM962 333q146 0 233 60.5t87 162.5q0 70 -46 120t-123 63v8
q66 18 101.5 60.5t35.5 102.5q0 91 -78.5 146t-208.5 55q-129 0 -207.5 -55t-78.5 -146q0 -60 35.5 -102t101.5 -61v-8q-77 -13 -123 -63t-46 -120q0 -102 86 -162.5t231 -60.5zM963 796q-45 0 -75 27t-30 68q0 40 30 66.5t75 26.5q46 0 76 -26.5t30 -66.5q0 -41 -30 -68
t-76 -27zM964 460q-55 0 -91 31t-36 78t36 78.5t91 31.5q56 0 91.5 -31t35.5 -79q0 -47 -36 -78t-91 -31z" />
    <glyph glyph-name="uni10004B.small" unicode="&#x39;&#x20dd;&#x25cf;" 
d="M964 -102q-166 0 -318.5 65.5t-263 176.5t-176.5 263.5t-66 318.5t65.5 318.5t176 263t263 176.5t318.5 66t319 -66t263.5 -176.5t176.5 -263t66 -318.5t-66 -318.5t-176.5 -263.5t-263 -176.5t-318.5 -65.5zM949 333q157 0 241.5 104.5t84.5 299.5q0 179 -82.5 276.5
t-232.5 97.5q-135 0 -217.5 -73t-82.5 -194q0 -110 70.5 -173.5t174.5 -63.5q69 0 115.5 28.5t66.5 73.5h8q4 -105 -37 -168.5t-110 -63.5q-60 0 -105 50q-32 32 -74 32q-32 0 -53.5 -20.5t-21.5 -51.5q0 -21 8 -37q21 -49 83.5 -83t163.5 -34zM968 729q-54 0 -88.5 33.5
t-34.5 86.5q0 56 33.5 90t89.5 34q53 0 87 -35t34 -89q0 -52 -34 -86t-87 -34z" />
    <glyph glyph-name="dblemdash" unicode="&#x2014;&#x2014;" horiz-adv-x="3482" 
d="M51 475v222h3381v-222h-3381z" />
    <glyph glyph-name="trplemdash" unicode="&#x2014;&#x2014;&#x2014;" horiz-adv-x="5223" 
d="M51 475v222h5122v-222h-5122z" />
    <glyph glyph-name="uni10009D.small" unicode="E&#x20de;&#x25a0;" horiz-adv-x="1891" 
d="M473 -24q-134 0 -203.5 68.5t-69.5 201.5v950q0 133 69.5 201.5t203.5 68.5h944q134 0 204 -68.5t70 -201.5v-950q0 -133 -70 -201.5t-204 -68.5h-944zM771 356h360q37 0 58.5 20t21.5 54q0 36 -21.5 55.5t-58.5 19.5h-275v160h261q33 0 53 17.5t20 48.5q0 32 -19.5 49.5
t-53.5 17.5h-261v152h275q37 0 58.5 20t21.5 55t-21.5 54.5t-58.5 19.5h-360q-50 0 -76 -29t-26 -81v-523q0 -53 26 -81.5t76 -28.5z" />
    <glyph glyph-name="uni100094.small" unicode="A&#x20de;" horiz-adv-x="1891" 
d="M473 -24q-134 0 -203.5 68.5t-69.5 201.5v950q0 133 69.5 201.5t203.5 68.5h944q134 0 204 -68.5t70 -201.5v-950q0 -133 -70 -201.5t-204 -68.5h-944zM489 166h912q99 0 99 100v910q0 100 -99 100h-912q-98 0 -98 -100v-910q0 -100 98 -100zM702 355q-39 0 -61.5 22
t-22.5 59q0 21 12 58l180 503q34 102 134 102q102 0 136 -102l180 -503q12 -38 12 -58q0 -37 -22.5 -59t-61.5 -22q-66 0 -86 76l-37 114h-239l-37 -114q-20 -76 -87 -76zM862 674h166l-78 257h-9z" />
    <glyph glyph-name="uni100096.small" unicode="B&#x20de;" horiz-adv-x="1891" 
d="M473 -24q-134 0 -203.5 68.5t-69.5 201.5v950q0 133 69.5 201.5t203.5 68.5h944q134 0 204 -68.5t70 -201.5v-950q0 -133 -70 -201.5t-204 -68.5h-944zM489 166h912q99 0 99 100v910q0 100 -99 100h-912q-98 0 -98 -100v-910q0 -100 98 -100zM768 374q-103 0 -103 103
v501q0 50 26.5 76.5t76.5 26.5h233q104 0 164.5 -47t60.5 -127q0 -59 -35.5 -100.5t-96.5 -54.5v-6q80 -10 124.5 -56t44.5 -119q0 -89 -71 -143t-187 -54h-237zM836 792h89q132 0 132 88q0 38 -28 60t-75 22h-118v-170zM836 497h99q150 0 150 92q0 46 -32.5 71t-91.5 25
h-125v-188z" />
    <glyph glyph-name="uni100098.small" unicode="C&#x20de;" horiz-adv-x="1891" 
d="M473 -24q-134 0 -203.5 68.5t-69.5 201.5v950q0 133 69.5 201.5t203.5 68.5h944q134 0 204 -68.5t70 -201.5v-950q0 -133 -70 -201.5t-204 -68.5h-944zM489 166h912q99 0 99 100v910q0 100 -99 100h-912q-98 0 -98 -100v-910q0 -100 98 -100zM943 356q-157 0 -250 100.5
t-93 270.5t93 271t250 101q105 0 184 -44.5t111 -121.5q9 -19 9 -46q0 -34 -21 -53.5t-58 -19.5q-48 0 -76 49q-44 89 -146 89q-75 0 -119.5 -61t-44.5 -164q0 -102 44.5 -163t119.5 -61q102 0 146 88q27 49 76 49q37 0 58 -19.5t21 -53.5q0 -27 -9 -46q-32 -77 -110.5 -121
t-184.5 -44z" />
    <glyph glyph-name="uni10009A.small" unicode="D&#x20de;" horiz-adv-x="1891" 
d="M473 -24q-134 0 -203.5 68.5t-69.5 201.5v950q0 133 69.5 201.5t203.5 68.5h944q134 0 204 -68.5t70 -201.5v-950q0 -133 -70 -201.5t-204 -68.5h-944zM489 166h912q99 0 99 100v910q0 100 -99 100h-912q-98 0 -98 -100v-910q0 -100 98 -100zM752 374q-96 0 -96 103v500
q0 49 24.5 76.5t71.5 27.5h196q167 0 256.5 -91t89.5 -262t-89.5 -262.5t-256.5 -91.5h-196zM831 510h90q189 0 189 217t-189 217h-90v-434z" />
    <glyph glyph-name="uni10009C.small" unicode="E&#x20de;" horiz-adv-x="1891" 
d="M473 -24q-134 0 -203.5 68.5t-69.5 201.5v950q0 133 69.5 201.5t203.5 68.5h944q134 0 204 -68.5t70 -201.5v-950q0 -133 -70 -201.5t-204 -68.5h-944zM489 166h912q99 0 99 100v910q0 100 -99 100h-912q-98 0 -98 -100v-910q0 -100 98 -100zM777 374q-47 0 -72 27
t-25 76v500q0 49 25 76.5t72 27.5h342q35 0 55.5 -18.5t20.5 -51.5t-20.5 -52t-55.5 -19h-262v-145h249q31 0 50 -17t19 -47t-19 -46.5t-50 -16.5h-249v-153h262q35 0 55.5 -19t20.5 -52t-20.5 -51.5t-55.5 -18.5h-342z" />
    <glyph glyph-name="uni10009E.small" unicode="F&#x20de;" horiz-adv-x="1891" 
d="M473 -24q-134 0 -203.5 68.5t-69.5 201.5v950q0 133 69.5 201.5t203.5 68.5h944q134 0 204 -68.5t70 -201.5v-950q0 -133 -70 -201.5t-204 -68.5h-944zM489 166h912q99 0 99 100v910q0 100 -99 100h-912q-98 0 -98 -100v-910q0 -100 98 -100zM781 362q-43 0 -66.5 27.5
t-23.5 74.5v513q0 50 24.5 77t71.5 27h349q34 0 54.5 -18.5t20.5 -51.5t-20.5 -52t-54.5 -19h-264v-157h243q32 0 50.5 -17t18.5 -48q0 -30 -18.5 -47t-50.5 -17h-242v-190q0 -48 -24 -75t-68 -27z" />
    <glyph glyph-name="uni1000A0.small" unicode="G&#x20de;" horiz-adv-x="1891" 
d="M473 -24q-134 0 -203.5 68.5t-69.5 201.5v950q0 133 69.5 201.5t203.5 68.5h944q134 0 204 -68.5t70 -201.5v-950q0 -133 -70 -201.5t-204 -68.5h-944zM489 166h912q99 0 99 100v910q0 100 -99 100h-912q-98 0 -98 -100v-910q0 -100 98 -100zM945 356
q-158 0 -251.5 100.5t-93.5 270.5t93 271t250 101q106 0 183.5 -42.5t108.5 -115.5q9 -21 9 -44q0 -32 -20.5 -50.5t-55.5 -18.5q-48 0 -76 44q-47 86 -144 86q-75 0 -120.5 -63.5t-45.5 -167.5q0 -105 46 -169t122 -64q68 0 105 31.5t37 83.5v38h-93q-29 0 -45.5 16.5
t-16.5 41.5q0 27 16.5 42.5t45.5 15.5h179q42 0 64.5 -22.5t22.5 -65.5v-42q0 -122 -86.5 -199.5t-233.5 -77.5z" />
    <glyph glyph-name="uni1000A2.small" unicode="H&#x20de;" horiz-adv-x="1891" 
d="M473 -24q-134 0 -203.5 68.5t-69.5 201.5v950q0 133 69.5 201.5t203.5 68.5h944q134 0 204 -68.5t70 -201.5v-950q0 -133 -70 -201.5t-204 -68.5h-944zM489 166h912q99 0 99 100v910q0 100 -99 100h-912q-98 0 -98 -100v-910q0 -100 98 -100zM710 362q-44 0 -68.5 27.5
t-24.5 76.5v523q0 49 24.5 76.5t68.5 27.5t69 -27.5t25 -76.5v-185h282v185q0 49 24.5 76.5t68.5 27.5t69 -27.5t25 -76.5v-523q0 -49 -25 -76.5t-69 -27.5t-68.5 27.5t-24.5 76.5v197h-282v-197q0 -49 -25 -76.5t-69 -27.5z" />
    <glyph glyph-name="uni1000A4.small" unicode="I&#x20de;" horiz-adv-x="1891" 
d="M473 -24q-134 0 -203.5 68.5t-69.5 201.5v950q0 133 69.5 201.5t203.5 68.5h944q134 0 204 -68.5t70 -201.5v-950q0 -133 -70 -201.5t-204 -68.5h-944zM489 166h912q99 0 99 100v910q0 100 -99 100h-912q-98 0 -98 -100v-910q0 -100 98 -100zM945 362q-46 0 -70.5 28.5
t-24.5 78.5v517q0 50 24.5 78.5t70.5 28.5q45 0 70.5 -28.5t25.5 -78.5v-517q0 -50 -25.5 -78.5t-70.5 -28.5z" />
    <glyph glyph-name="uni1000A6.small" unicode="J&#x20de;" horiz-adv-x="1891" 
d="M473 -24q-134 0 -203.5 68.5t-69.5 201.5v950q0 133 69.5 201.5t203.5 68.5h944q134 0 204 -68.5t70 -201.5v-950q0 -133 -70 -201.5t-204 -68.5h-944zM489 166h912q99 0 99 100v910q0 100 -99 100h-912q-98 0 -98 -100v-910q0 -100 98 -100zM909 356q-92 0 -159 39.5
t-89 106.5q-7 20 -7 44q0 38 23 61t61 23q62 0 85 -60q26 -58 88 -58q38 0 58.5 26t20.5 76v375q0 48 24 76t68 28q45 0 69.5 -28t24.5 -76v-379q0 -123 -69 -188.5t-198 -65.5z" />
    <glyph glyph-name="uni1000A8.small" unicode="&#x212a;&#x20de;" horiz-adv-x="1891" 
d="M473 -24q-134 0 -203.5 68.5t-69.5 201.5v950q0 133 69.5 201.5t203.5 68.5h944q134 0 204 -68.5t70 -201.5v-950q0 -133 -70 -201.5t-204 -68.5h-944zM489 166h912q99 0 99 100v910q0 100 -99 100h-912q-98 0 -98 -100v-910q0 -100 98 -100zM740 367q-42 0 -65 26.5
t-23 73.5v521q0 47 23 73.5t65 26.5q43 0 66.5 -26.5t23.5 -73.5v-211h6l250 272q33 39 72 39q34 0 58.5 -21.5t24.5 -52.5q0 -32 -27 -63l-174 -186l190 -252q23 -33 23 -64q0 -35 -24.5 -58.5t-61.5 -23.5q-44 0 -77 44l-181 245l-79 -87v-105q0 -46 -24 -71.5t-66 -25.5z
" />
    <glyph glyph-name="uni1000AA.small" unicode="L&#x20de;" horiz-adv-x="1891" 
d="M473 -24q-134 0 -203.5 68.5t-69.5 201.5v950q0 133 69.5 201.5t203.5 68.5h944q134 0 204 -68.5t70 -201.5v-950q0 -133 -70 -201.5t-204 -68.5h-944zM489 166h912q99 0 99 100v910q0 100 -99 100h-912q-98 0 -98 -100v-910q0 -100 98 -100zM808 374q-45 0 -70 28.5
t-25 78.5v505q0 49 25 78t70 29q46 0 71 -28.5t25 -78.5v-461h241q36 0 57.5 -20t21.5 -56q0 -35 -21.5 -55t-57.5 -20h-337z" />
    <glyph glyph-name="uni1000AC.small" unicode="M&#x20de;" horiz-adv-x="1891" 
d="M473 -24q-134 0 -203.5 68.5t-69.5 201.5v950q0 133 69.5 201.5t203.5 68.5h944q134 0 204 -68.5t70 -201.5v-950q0 -133 -70 -201.5t-204 -68.5h-944zM489 166h912q99 0 99 100v910q0 100 -99 100h-912q-98 0 -98 -100v-910q0 -100 98 -100zM652 358q-34 0 -53.5 22
t-19.5 60v556q0 43 27.5 70t71.5 27q77 0 103 -75l163 -428h4l161 428q25 75 104 75q44 0 71.5 -27t27.5 -70v-556q0 -39 -20 -60.5t-55 -21.5q-34 0 -53 22t-19 60v377h-8l-142 -369q-19 -52 -71 -52t-71 52l-140 369h-7v-377q0 -39 -19.5 -60.5t-54.5 -21.5z" />
    <glyph glyph-name="uni1000AE.small" unicode="N&#x20de;" horiz-adv-x="1891" 
d="M473 -24q-134 0 -203.5 68.5t-69.5 201.5v950q0 133 69.5 201.5t203.5 68.5h944q134 0 204 -68.5t70 -201.5v-950q0 -133 -70 -201.5t-204 -68.5h-944zM489 166h912q99 0 99 100v910q0 100 -99 100h-912q-98 0 -98 -100v-910q0 -100 98 -100zM719 362q-38 0 -59.5 23.5
t-21.5 64.5v559q0 38 21 61t57 23q26 0 44 -11t40 -40l284 -391h6v354q0 41 21.5 64.5t58.5 23.5q39 0 60.5 -23.5t21.5 -64.5v-562q0 -38 -20.5 -59.5t-56.5 -21.5q-25 0 -43 10.5t-39 38.5l-287 391h-6v-352q0 -41 -21.5 -64.5t-59.5 -23.5z" />
    <glyph glyph-name="uni1000B0.small" unicode="O&#x20de;" horiz-adv-x="1891" 
d="M473 -24q-134 0 -203.5 68.5t-69.5 201.5v950q0 133 69.5 201.5t203.5 68.5h944q134 0 204 -68.5t70 -201.5v-950q0 -133 -70 -201.5t-204 -68.5h-944zM489 166h912q99 0 99 100v910q0 100 -99 100h-912q-98 0 -98 -100v-910q0 -100 98 -100zM945 356q-153 0 -250 102
t-97 269t97 269.5t250 102.5q154 0 251 -102.5t97 -269.5t-97 -269t-251 -102zM945 499q76 0 121.5 61t45.5 167t-45.5 167t-121.5 61q-75 0 -120.5 -61t-45.5 -167q0 -105 45.5 -166.5t120.5 -61.5z" />
    <glyph glyph-name="uni1000B2.small" unicode="P&#x20de;" horiz-adv-x="1891" 
d="M473 -24q-134 0 -203.5 68.5t-69.5 201.5v950q0 133 69.5 201.5t203.5 68.5h944q134 0 204 -68.5t70 -201.5v-950q0 -133 -70 -201.5t-204 -68.5h-944zM489 166h912q99 0 99 100v910q0 100 -99 100h-912q-98 0 -98 -100v-910q0 -100 98 -100zM775 362q-44 0 -67.5 27.5
t-23.5 74.5v513q0 49 24.5 76.5t71.5 27.5h212q121 0 194 -69.5t73 -184.5t-73.5 -184t-195.5 -69h-123v-110q0 -48 -24 -75t-68 -27zM867 707h97q58 0 89.5 31.5t31.5 88.5q0 58 -31.5 89.5t-89.5 31.5h-97v-241z" />
    <glyph glyph-name="uni1000B4.small" unicode="Q&#x20de;" horiz-adv-x="1891" 
d="M473 -24q-134 0 -203.5 68.5t-69.5 201.5v950q0 133 69.5 201.5t203.5 68.5h944q134 0 204 -68.5t70 -201.5v-950q0 -133 -70 -201.5t-204 -68.5h-944zM489 166h912q99 0 99 100v910q0 100 -99 100h-912q-98 0 -98 -100v-910q0 -100 98 -100zM945 356q-153 0 -250 102
t-97 269t97 269.5t250 102.5q154 0 251 -102.5t97 -269.5q0 -184 -119 -289l30 -39q23 -32 23 -56q0 -28 -19.5 -46t-48.5 -18q-42 0 -69 41l-37 52q-48 -16 -108 -16zM945 499q20 0 40 5l-22 30q-14 20 -14 39q0 22 16 37t38 15q24 0 39 -19l27 -34q43 59 43 155
q0 106 -45.5 167t-121.5 61q-75 0 -120.5 -61t-45.5 -167q0 -105 45.5 -166.5t120.5 -61.5z" />
    <glyph glyph-name="uni1000B6.small" unicode="R&#x20de;" horiz-adv-x="1891" 
d="M473 -24q-134 0 -203.5 68.5t-69.5 201.5v950q0 133 69.5 201.5t203.5 68.5h944q134 0 204 -68.5t70 -201.5v-950q0 -133 -70 -201.5t-204 -68.5h-944zM489 166h912q99 0 99 100v910q0 100 -99 100h-912q-98 0 -98 -100v-910q0 -100 98 -100zM741 362q-41 0 -63.5 25.5
t-22.5 70.5v519q0 49 24.5 76.5t71.5 27.5h217q131 0 204 -62t73 -172q0 -72 -39 -127.5t-105 -78.5l99 -146q19 -28 19 -58q0 -33 -22.5 -54t-57.5 -21q-28 0 -47.5 13.5t-40.5 46.5l-117 189h-106v-153q0 -45 -23 -70.5t-64 -25.5zM828 736h115q58 0 91 28t33 79
q0 52 -32.5 80.5t-88.5 28.5h-118v-216z" />
    <glyph glyph-name="uni1000B8.small" unicode="S&#x20de;" horiz-adv-x="1891" 
d="M473 -24q-134 0 -203.5 68.5t-69.5 201.5v950q0 133 69.5 201.5t203.5 68.5h944q134 0 204 -68.5t70 -201.5v-950q0 -133 -70 -201.5t-204 -68.5h-944zM489 166h912q99 0 99 100v910q0 100 -99 100h-912q-98 0 -98 -100v-910q0 -100 98 -100zM934 356q-101 0 -172.5 37
t-97.5 91q-12 22 -12 47q0 32 20.5 51.5t54.5 19.5q42 0 74 -39q50 -70 144 -70q54 0 86.5 20t32.5 58q0 32 -24 48.5t-89 31.5l-99 25q-199 47 -199 198q0 100 80.5 162.5t209.5 62.5q94 0 164.5 -36.5t97.5 -94.5q12 -26 12 -47q0 -32 -20 -49.5t-52 -17.5q-44 0 -78 41
q-43 70 -128 70q-50 0 -77 -20t-27 -57q0 -29 22.5 -46.5t76.5 -29.5l96 -22q213 -47 213 -203q0 -106 -84 -168.5t-225 -62.5z" />
    <glyph glyph-name="uni1000BA.small" unicode="T&#x20de;" horiz-adv-x="1891" 
d="M473 -24q-134 0 -203.5 68.5t-69.5 201.5v950q0 133 69.5 201.5t203.5 68.5h944q134 0 204 -68.5t70 -201.5v-950q0 -133 -70 -201.5t-204 -68.5h-944zM489 166h912q99 0 99 100v910q0 100 -99 100h-912q-98 0 -98 -100v-910q0 -100 98 -100zM944 360q-45 0 -70 28.5
t-25 78.5v468h-150q-36 0 -57 20t-21 54q0 35 21 54.5t57 19.5h492q36 0 57 -19.5t21 -54.5q0 -34 -21 -54t-57 -20h-151v-468q0 -51 -25 -79t-71 -28z" />
    <glyph glyph-name="uni1000BC.small" unicode="U&#x20de;" horiz-adv-x="1891" 
d="M473 -24q-134 0 -203.5 68.5t-69.5 201.5v950q0 133 69.5 201.5t203.5 68.5h944q134 0 204 -68.5t70 -201.5v-950q0 -133 -70 -201.5t-204 -68.5h-944zM489 166h912q99 0 99 100v910q0 100 -99 100h-912q-98 0 -98 -100v-910q0 -100 98 -100zM945 356q-143 0 -231 74
t-88 195v368q0 47 23.5 73.5t66.5 26.5t67 -26.5t24 -73.5v-351q0 -63 37.5 -101t100.5 -38q64 0 101.5 38t37.5 101v351q0 47 23.5 73.5t65.5 26.5q43 0 67 -26.5t24 -73.5v-368q0 -121 -88 -195t-231 -74z" />
    <glyph glyph-name="uni1000BE.small" unicode="V&#x20de;" horiz-adv-x="1891" 
d="M473 -24q-134 0 -203.5 68.5t-69.5 201.5v950q0 133 69.5 201.5t203.5 68.5h944q134 0 204 -68.5t70 -201.5v-950q0 -133 -70 -201.5t-204 -68.5h-944zM489 166h912q99 0 99 100v910q0 100 -99 100h-912q-98 0 -98 -100v-910q0 -100 98 -100zM945 356q-57 0 -89 25
t-52 82l-181 495q-8 24 -8 47q0 39 26 63t67 24q38 0 60 -19t34 -62l140 -463h6l140 463q11 43 33 62t61 19q41 0 67.5 -24t26.5 -62q0 -20 -9 -48l-180 -492q-20 -57 -53.5 -83.5t-88.5 -26.5z" />
    <glyph glyph-name="uni1000C0.small" unicode="W&#x20de;" horiz-adv-x="1891" 
d="M473 -24q-134 0 -203.5 68.5t-69.5 201.5v950q0 133 69.5 201.5t203.5 68.5h944q134 0 204 -68.5t70 -201.5v-950q0 -133 -70 -201.5t-204 -68.5h-944zM489 166h912q99 0 99 100v910q0 100 -99 100h-912q-98 0 -98 -100v-910q0 -100 98 -100zM743 356q-83 0 -102 84
l-131 548q-3 9 -3 26q0 34 21.5 56t56.5 22q69 0 83 -81l85 -428h6l102 438q15 66 84 66t84 -67l101 -437h7l86 428q14 81 82 81q36 0 57.5 -22t21.5 -56q0 -12 -3 -26l-132 -548q-19 -84 -102 -84q-84 0 -102 84l-97 400h-6l-97 -400q-18 -84 -102 -84z" />
    <glyph glyph-name="uni1000C2.small" unicode="X&#x20de;" horiz-adv-x="1891" 
d="M473 -24q-134 0 -203.5 68.5t-69.5 201.5v950q0 133 69.5 201.5t203.5 68.5h944q134 0 204 -68.5t70 -201.5v-950q0 -133 -70 -201.5t-204 -68.5h-944zM489 166h912q99 0 99 100v910q0 100 -99 100h-912q-98 0 -98 -100v-910q0 -100 98 -100zM720 362q-35 0 -58 22
t-23 55q0 31 22 61l172 231l-162 218q-25 32 -25 64q0 34 24 57t60 23q28 0 46.5 -11.5t37.5 -41.5l135 -198h6l130 197q19 30 37 42t45 12q36 0 59.5 -22t23.5 -56q0 -30 -24 -61l-171 -227l171 -225q23 -30 23 -61q0 -35 -24 -57t-61 -22q-27 0 -45 12t-38 43l-135 197h-5
l-137 -197q-21 -32 -38.5 -43.5t-45.5 -11.5z" />
    <glyph glyph-name="uni1000C4.small" unicode="Y&#x20de;" horiz-adv-x="1891" 
d="M473 -24q-134 0 -203.5 68.5t-69.5 201.5v950q0 133 69.5 201.5t203.5 68.5h944q134 0 204 -68.5t70 -201.5v-950q0 -133 -70 -201.5t-204 -68.5h-944zM489 166h912q99 0 99 100v910q0 100 -99 100h-912q-98 0 -98 -100v-910q0 -100 98 -100zM945 362q-44 0 -68.5 28.5
t-24.5 77.5v140l-202 352q-14 28 -14 52q0 34 24.5 57.5t61.5 23.5q32 0 51 -14t36 -50l134 -254h6l135 254q16 36 35 50t50 14q37 0 61.5 -23.5t24.5 -58.5q0 -25 -15 -51l-200 -350v-142q0 -50 -25 -78t-70 -28z" />
    <glyph glyph-name="uni1000C6.small" unicode="Z&#x20de;" horiz-adv-x="1891" 
d="M473 -24q-134 0 -203.5 68.5t-69.5 201.5v950q0 133 69.5 201.5t203.5 68.5h944q134 0 204 -68.5t70 -201.5v-950q0 -133 -70 -201.5t-204 -68.5h-944zM489 166h912q99 0 99 100v910q0 100 -99 100h-912q-98 0 -98 -100v-910q0 -100 98 -100zM736 374q-35 0 -57.5 21
t-22.5 55q0 37 33 77l301 402v7h-264q-35 0 -57 19.5t-22 53.5q0 33 21.5 52.5t57.5 19.5h412q35 0 58 -22t23 -56q0 -38 -31 -75l-302 -402v-7h279q36 0 57.5 -19t21.5 -53q0 -33 -21.5 -53t-57.5 -20h-429z" />
    <glyph glyph-name="uni100005.small" unicode="A&#x20dd;&#x25cf;" 
d="M964 -102q-166 0 -318.5 65.5t-263 176.5t-176.5 263.5t-66 318.5t65.5 318.5t176 263t263 176.5t318.5 66t319 -66t263.5 -176.5t176.5 -263t66 -318.5t-66 -318.5t-176.5 -263.5t-263 -176.5t-318.5 -65.5zM712 342q68 0 89 78l39 118h247l38 -118q21 -78 90 -78
q41 0 64.5 22.5t23.5 60.5q0 25 -12 61l-187 521q-37 106 -142 106q-104 0 -139 -106l-187 -521q-12 -36 -12 -61q0 -38 23.5 -60.5t64.5 -22.5zM876 670l83 271h9l83 -271h-175z" />
    <glyph glyph-name="uni100007.small" unicode="B&#x20dd;&#x25cf;" 
d="M964 -102q-166 0 -318.5 65.5t-263 176.5t-176.5 263.5t-66 318.5t65.5 318.5t176 263t263 176.5t318.5 66t319 -66t263.5 -176.5t176.5 -263t66 -318.5t-66 -318.5t-176.5 -263.5t-263 -176.5t-318.5 -65.5zM777 356h249q122 0 197 56.5t75 150.5q0 76 -47 124.5
t-131 59.5v7q64 13 101.5 56.5t37.5 105.5q0 85 -63.5 134t-172.5 49h-246q-53 0 -81 -28t-28 -81v-525q0 -53 28 -81t81 -28zM849 796v178h123q50 0 78.5 -23.5t28.5 -63.5q0 -91 -136 -91h-94zM849 486v196h131q61 0 95 -26t34 -74q0 -96 -157 -96h-103z" />
    <glyph glyph-name="uni100009.small" unicode="C&#x20dd;&#x25cf;" 
d="M964 -102q-166 0 -318.5 65.5t-263 176.5t-176.5 263.5t-66 318.5t65.5 318.5t176 263t263 176.5t318.5 66t319 -66t263.5 -176.5t176.5 -263t66 -318.5t-66 -318.5t-176.5 -263.5t-263 -176.5t-318.5 -65.5zM962 337q111 0 193.5 46t116.5 127q10 23 10 49
q0 36 -22.5 56.5t-62.5 20.5q-51 0 -80 -52q-47 -91 -152 -91q-79 0 -125.5 63.5t-46.5 170.5t46.5 171t125.5 64q105 0 153 -92q16 -28 34 -40t45 -12q40 0 62.5 20.5t22.5 56.5q0 25 -10 49q-34 81 -117 127.5t-193 46.5q-166 0 -264 -106t-98 -285t98 -284.5t264 -105.5z
" />
    <glyph glyph-name="uni10000B.small" unicode="D&#x20dd;&#x25cf;" 
d="M964 -102q-166 0 -318.5 65.5t-263 176.5t-176.5 263.5t-66 318.5t65.5 318.5t176 263t263 176.5t318.5 66t319 -66t263.5 -176.5t176.5 -263t66 -318.5t-66 -318.5t-176.5 -263.5t-263 -176.5t-318.5 -65.5zM761 356h205q176 0 270 96t94 276t-93.5 275.5t-270.5 95.5
h-205q-50 0 -76 -29t-26 -81v-523q0 -110 102 -110zM844 500v455h95q197 0 197 -228q0 -227 -197 -227h-95z" />
    <glyph glyph-name="uni10000D.small" unicode="E&#x20dd;&#x25cf;" 
d="M964 -102q-166 0 -318.5 65.5t-263 176.5t-176.5 263.5t-66 318.5t65.5 318.5t176 263t263 176.5t318.5 66t319 -66t263.5 -176.5t176.5 -263t66 -318.5t-66 -318.5t-176.5 -263.5t-263 -176.5t-318.5 -65.5zM786 356h360q37 0 58.5 20t21.5 54q0 36 -21.5 55.5
t-58.5 19.5h-275v160h261q33 0 53 17.5t20 48.5q0 32 -19.5 49.5t-53.5 17.5h-261v152h275q37 0 58.5 20t21.5 55t-21.5 54.5t-58.5 19.5h-360q-50 0 -76 -29t-26 -81v-523q0 -53 26 -81.5t76 -28.5z" />
    <glyph glyph-name="uni10000F.small" unicode="F&#x20dd;&#x25cf;" 
d="M964 -103q-166 0 -318.5 65.5t-263 176.5t-176.5 263.5t-66 318.5t65.5 318.5t176 263t263 176.5t318.5 66t319 -66t263.5 -176.5t176.5 -263t66 -318.5t-66 -318.5t-176.5 -263.5t-263 -176.5t-318.5 -65.5zM791 342q46 0 71.5 29t25.5 80v197h255q33 0 52.5 18t19.5 50
q0 33 -19.5 51t-52.5 18h-256v164h276q37 0 58.5 20t21.5 54q0 36 -21.5 55.5t-58.5 19.5h-366q-50 0 -76 -29t-26 -81v-537q0 -51 25 -80t71 -29z" />
    <glyph glyph-name="uni100011.small" unicode="G&#x20dd;&#x25cf;" 
d="M964 -102q-166 0 -318.5 65.5t-263 176.5t-176.5 263.5t-66 318.5t65.5 318.5t176 263t263 176.5t318.5 66t319 -66t263.5 -176.5t176.5 -263t66 -318.5t-66 -318.5t-176.5 -263.5t-263 -176.5t-318.5 -65.5zM964 336q155 0 245.5 81.5t90.5 210.5v44q0 45 -23.5 69
t-67.5 24h-188q-31 0 -48.5 -16.5t-17.5 -44.5q0 -27 17.5 -44.5t48.5 -17.5h96v-39q0 -55 -38.5 -88t-109.5 -33q-80 0 -128 67t-48 178q0 109 47.5 175.5t126.5 66.5q102 0 150 -90q30 -47 81 -47q37 0 58.5 20t21.5 54q0 24 -10 47q-32 77 -113.5 121.5t-192.5 44.5
q-166 0 -264 -106.5t-98 -285.5t98.5 -285t265.5 -106z" />
    <glyph glyph-name="uni100013.small" unicode="H&#x20dd;&#x25cf;" 
d="M964 -102q-166 0 -318.5 65.5t-263 176.5t-176.5 263.5t-66 318.5t65.5 318.5t176 263t263 176.5t318.5 66t319 -66t263.5 -176.5t176.5 -263t66 -318.5t-66 -318.5t-176.5 -263.5t-263 -176.5t-318.5 -65.5zM716 343q47 0 73.5 29.5t26.5 81.5v205h294v-205
q0 -52 26 -81.5t73 -29.5t73 29t26 82v547q0 53 -26 82t-73 29t-73 -29.5t-26 -81.5v-192h-294v192q0 52 -26.5 81.5t-73.5 29.5q-46 0 -72 -29t-26 -82v-547q0 -53 26 -82t72 -29z" />
    <glyph glyph-name="uni100015.small" unicode="I&#x20dd;&#x25cf;" 
d="M964 -102q-166 0 -318.5 65.5t-263 176.5t-176.5 263.5t-66 318.5t65.5 318.5t176 263t263 176.5t318.5 66t319 -66t263.5 -176.5t176.5 -263t66 -318.5t-66 -318.5t-176.5 -263.5t-263 -176.5t-318.5 -65.5zM963 343q48 0 75 30t27 84v541q0 54 -27 84t-75 30
t-74.5 -30.5t-26.5 -83.5v-541q0 -53 26.5 -83.5t74.5 -30.5z" />
    <glyph glyph-name="uni100017.small" unicode="J&#x20dd;&#x25cf;" 
d="M964 -102q-166 0 -318.5 65.5t-263 176.5t-176.5 263.5t-66 318.5t65.5 318.5t176 263t263 176.5t318.5 66t319 -66t263.5 -176.5t176.5 -263t66 -318.5t-66 -318.5t-176.5 -263.5t-263 -176.5t-318.5 -65.5zM927 346q132 0 202.5 67t70.5 193v390q0 50 -25 78t-71 28
q-45 0 -69.5 -28.5t-24.5 -77.5v-385q0 -51 -21.5 -78.5t-60.5 -27.5q-64 0 -90 61q-24 61 -87 61q-38 0 -62 -24t-24 -62q0 -22 8 -46q23 -68 91.5 -108.5t162.5 -40.5z" />
    <glyph glyph-name="uni100019.small" unicode="&#x212a;&#x20dd;&#x25cf;" 
d="M964 -102q-166 0 -318.5 65.5t-263 176.5t-176.5 263.5t-66 318.5t65.5 318.5t176 263t263 176.5t318.5 66t319 -66t263.5 -176.5t176.5 -263t66 -318.5t-66 -318.5t-176.5 -263.5t-263 -176.5t-318.5 -65.5zM748 348q44 0 69.5 27t25.5 76v109l83 91l189 -256
q33 -46 81 -46q40 0 65.5 24t25.5 62q0 32 -24 68l-198 264l181 195q28 31 28 66q0 33 -25 55.5t-62 22.5q-41 0 -77 -41l-261 -285h-6v220q0 51 -25 78.5t-70 27.5q-44 0 -69 -27.5t-25 -78.5v-546q0 -50 25 -78t69 -28z" />
    <glyph glyph-name="uni10001B.small" unicode="L&#x20dd;&#x25cf;" 
d="M964 -102q-166 0 -318.5 65.5t-263 176.5t-176.5 263.5t-66 318.5t65.5 318.5t176 263t263 176.5t318.5 66t319 -66t263.5 -176.5t176.5 -263t66 -318.5t-66 -318.5t-176.5 -263.5t-263 -176.5t-318.5 -65.5zM819 356h353q39 0 62 21.5t23 58.5t-23 58.5t-62 21.5h-251
v482q0 54 -26.5 84t-75.5 30q-48 0 -74.5 -30.5t-26.5 -83.5v-529q0 -52 26.5 -82.5t74.5 -30.5z" />
    <glyph glyph-name="uni10001D.small" unicode="M&#x20dd;&#x25cf;" 
d="M964 -102q-166 0 -318.5 65.5t-263 176.5t-176.5 263.5t-66 318.5t65.5 318.5t176 263t263 176.5t318.5 66t319 -66t263.5 -176.5t176.5 -263t66 -318.5t-66 -318.5t-176.5 -263.5t-263 -176.5t-318.5 -65.5zM655 340q37 0 57.5 22.5t20.5 63.5v395h8l146 -387
q21 -54 75 -54t76 54l147 387h9v-395q0 -41 20 -63.5t56 -22.5q38 0 58.5 22.5t20.5 63.5v584q0 46 -29 74t-76 28q-82 0 -109 -79l-169 -448h-4l-170 448q-27 79 -110 79q-47 0 -75.5 -28t-28.5 -74v-584q0 -40 20.5 -63t56.5 -23z" />
    <glyph glyph-name="uni10001F.small" unicode="N&#x20dd;&#x25cf;" 
d="M964 -102q-166 0 -318.5 65.5t-263 176.5t-176.5 263.5t-66 318.5t65.5 318.5t176 263t263 176.5t318.5 66t319 -66t263.5 -176.5t176.5 -263t66 -318.5t-66 -318.5t-176.5 -263.5t-263 -176.5t-318.5 -65.5zM726 343q40 0 62.5 24.5t22.5 68.5v368h7l301 -409
q21 -29 40 -40.5t46 -11.5q38 0 59.5 22.5t21.5 63.5v590q0 44 -23 68.5t-63 24.5t-62.5 -25t-22.5 -68v-370h-7l-297 409q-23 31 -42 42.5t-47 11.5q-37 0 -59 -24t-22 -65v-587q0 -43 22.5 -68t62.5 -25z" />
    <glyph glyph-name="uni100021.small" unicode="O&#x20dd;&#x25cf;" 
d="M964 -102q-166 0 -318.5 65.5t-263 176.5t-176.5 263.5t-66 318.5t65.5 318.5t176 263t263 176.5t318.5 66t319 -66t263.5 -176.5t176.5 -263t66 -318.5t-66 -318.5t-176.5 -263.5t-263 -176.5t-318.5 -65.5zM964 337q161 0 263 107.5t102 282.5q0 176 -102 283.5
t-263 107.5t-263.5 -107.5t-102.5 -283.5q0 -175 102.5 -282.5t263.5 -107.5zM964 489q-79 0 -126.5 63.5t-47.5 174.5t47.5 175t126.5 64q78 0 125.5 -64t47.5 -175q0 -110 -47.5 -174t-125.5 -64z" />
    <glyph glyph-name="uni100023.small" unicode="P&#x20dd;&#x25cf;" 
d="M964 -102q-166 0 -318.5 65.5t-263 176.5t-176.5 263.5t-66 318.5t65.5 318.5t176 263t263 176.5t318.5 66t319 -66t263.5 -176.5t176.5 -263t66 -318.5t-66 -318.5t-176.5 -263.5t-263 -176.5t-318.5 -65.5zM785 343q46 0 71.5 29t25.5 80v113h129q128 0 205 73t77 194
q0 122 -76.5 194.5t-204.5 72.5h-221q-50 0 -76 -28.5t-26 -81.5v-537q0 -51 25 -80t71 -29zM882 706v252h102q60 0 92.5 -32.5t32.5 -93.5q0 -60 -32.5 -93t-92.5 -33h-102z" />
    <glyph glyph-name="uni100025.small" unicode="Q&#x20dd;&#x25cf;" 
d="M964 -102q-166 0 -318.5 65.5t-263 176.5t-176.5 263.5t-66 318.5t65.5 318.5t176 263t263 176.5t318.5 66t319 -66t263.5 -176.5t176.5 -263t66 -318.5t-66 -318.5t-176.5 -263.5t-263 -176.5t-318.5 -65.5zM964 337q58 0 112 17l39 -54q30 -44 73 -44q31 0 51 19t20 49
q0 25 -23 59l-31 41q124 108 124 304q0 175 -102.5 283t-262.5 108q-161 0 -263.5 -107.5t-102.5 -283.5t102.5 -283.5t263.5 -107.5zM964 489q-79 0 -126.5 64t-47.5 175t47.5 174.5t126.5 63.5q78 0 125.5 -64t47.5 -174q0 -102 -44 -162l-28 35q-15 19 -41 19
q-23 0 -39.5 -15.5t-16.5 -37.5q0 -23 15 -42l22 -31q-22 -5 -41 -5z" />
    <glyph glyph-name="uni100027.small" unicode="R&#x20dd;&#x25cf;" 
d="M964 -102q-166 0 -318.5 65.5t-263 176.5t-176.5 263.5t-66 318.5t65.5 318.5t176 263t263 176.5t318.5 66t319 -66t263.5 -176.5t176.5 -263t66 -318.5t-66 -318.5t-176.5 -263.5t-263 -176.5t-318.5 -65.5zM748 343q43 0 67 27t24 75v160h112l123 -198q22 -36 42 -50
t50 -14q37 0 61 22t24 57q0 32 -20 61l-103 154q69 23 110 81.5t41 134.5q0 116 -77.5 181t-214.5 65h-228q-50 0 -75.5 -29t-25.5 -81v-544q0 -48 23 -75t67 -27zM839 737v226h125q58 0 92 -30.5t34 -84.5q0 -53 -34.5 -82t-94.5 -29h-122z" />
    <glyph glyph-name="uni100029.small" unicode="S&#x20dd;&#x25cf;" 
d="M964 -102q-166 0 -318.5 65.5t-263 176.5t-176.5 263.5t-66 318.5t65.5 318.5t176 263t263 176.5t318.5 66t319 -66t263.5 -176.5t176.5 -263t66 -318.5t-66 -318.5t-176.5 -263.5t-263 -176.5t-318.5 -65.5zM952 337q148 0 237 66t89 177q0 164 -225 214l-100 23
q-56 12 -80 30.5t-24 48.5q0 38 28.5 59.5t79.5 21.5q47 0 78 -17t57 -57q34 -43 81 -43q34 0 55 19t21 52q0 24 -13 50q-29 61 -102.5 99t-173.5 38q-135 0 -219.5 -66t-84.5 -171q0 -160 209 -208l104 -26q69 -17 93.5 -34t24.5 -50q0 -39 -34 -60t-90 -21q-51 0 -86.5 17
t-64.5 56q-35 41 -78 41q-36 0 -58 -21t-22 -55q0 -24 14 -50q27 -56 102.5 -94.5t181.5 -38.5z" />
    <glyph glyph-name="uni10002B.small" unicode="T&#x20dd;&#x25cf;" 
d="M964 -102q-166 0 -318.5 65.5t-263 176.5t-176.5 263.5t-66 318.5t65.5 318.5t176 263t263 176.5t318.5 66t319 -66t263.5 -176.5t176.5 -263t66 -318.5t-66 -318.5t-176.5 -263.5t-263 -176.5t-318.5 -65.5zM962 341q49 0 75.5 30t26.5 83v491h157q38 0 61 21t23 57
q0 37 -22.5 58t-61.5 21h-516q-38 0 -61 -21t-23 -58q0 -36 23 -57t61 -21h157v-491q0 -53 26 -83t74 -30z" />
    <glyph glyph-name="uni10002D.small" unicode="U&#x20dd;&#x25cf;" 
d="M964 -102q-166 0 -318.5 65.5t-263 176.5t-176.5 263.5t-66 318.5t65.5 318.5t176 263t263 176.5t318.5 66t319 -66t263.5 -176.5t176.5 -263t66 -318.5t-66 -318.5t-176.5 -263.5t-263 -176.5t-318.5 -65.5zM963 337q151 0 243.5 77.5t92.5 205.5v386q0 51 -25 78.5
t-71 27.5q-45 0 -70 -28t-25 -78v-367q0 -68 -39 -107.5t-106 -39.5q-66 0 -105 40t-39 107v367q0 50 -25 78t-71 28t-70.5 -28t-24.5 -78v-386q0 -128 92 -205.5t243 -77.5z" />
    <glyph glyph-name="uni10002F.small" unicode="V&#x20dd;&#x25cf;" 
d="M964 -102q-166 0 -318.5 65.5t-263 176.5t-176.5 263.5t-66 318.5t65.5 318.5t176 263t263 176.5t318.5 66t319 -66t263.5 -176.5t176.5 -263t66 -318.5t-66 -318.5t-176.5 -263.5t-263 -176.5t-318.5 -65.5zM963 337q59 0 94.5 28t56.5 89l188 515q9 26 9 50
q0 41 -27.5 66.5t-71.5 25.5q-41 0 -64 -20t-35 -67l-147 -485h-6l-147 485q-12 46 -35 66.5t-64 20.5q-44 0 -71.5 -25.5t-27.5 -67.5q0 -20 9 -49l189 -518q21 -61 55.5 -87.5t94.5 -26.5z" />
    <glyph glyph-name="uni100031.small" unicode="W&#x20dd;&#x25cf;" 
d="M964 -102q-166 0 -318.5 65.5t-263 176.5t-176.5 263.5t-66 318.5t65.5 318.5t176 263t263 176.5t318.5 66t319 -66t263.5 -176.5t176.5 -263t66 -318.5t-66 -318.5t-176.5 -263.5t-263 -176.5t-318.5 -65.5zM750 337q89 0 109 89l101 419h6l102 -419q18 -89 107 -89
q88 0 108 89l138 575q3 15 3 27q0 37 -22.5 60t-59.5 23q-38 0 -59 -21t-29 -65l-89 -449h-7l-107 460q-15 70 -88 70t-88 -70l-106 -460h-7l-89 449q-8 44 -29 65t-59 21q-37 0 -59.5 -23t-22.5 -60q0 -17 3 -27l137 -575q21 -89 107 -89z" />
    <glyph glyph-name="uni100033.small" unicode="X&#x20dd;&#x25cf;" 
d="M964 -102q-166 0 -318.5 65.5t-263 176.5t-176.5 263.5t-66 318.5t65.5 318.5t176 263t263 176.5t318.5 66t319 -66t263.5 -176.5t176.5 -263t66 -318.5t-66 -318.5t-176.5 -263.5t-263 -176.5t-318.5 -65.5zM728 343q28 0 46.5 12.5t41.5 46.5l143 205h5l141 -205
q22 -33 41 -46t47 -13q40 0 65 23.5t25 60.5q0 33 -25 65l-178 235l179 237q25 33 25 65q0 36 -25 59.5t-63 23.5q-28 0 -47 -12.5t-39 -44.5l-137 -207h-5l-142 207q-21 32 -40.5 44.5t-48.5 12.5q-38 0 -63.5 -24.5t-25.5 -60.5q0 -34 26 -68l171 -228l-180 -242
q-24 -32 -24 -64q0 -35 24.5 -58.5t62.5 -23.5z" />
    <glyph glyph-name="uni100035.small" unicode="Y&#x20dd;&#x25cf;" 
d="M964 -102q-166 0 -318.5 65.5t-263 176.5t-176.5 263.5t-66 318.5t65.5 318.5t176 263t263 176.5t318.5 66t319 -66t263.5 -176.5t176.5 -263t66 -318.5t-66 -318.5t-176.5 -263.5t-263 -176.5t-318.5 -65.5zM964 343q48 0 74 30t26 83v147l210 369q15 23 15 53
q0 38 -25 62.5t-65 24.5q-33 0 -53 -15t-38 -53l-141 -266h-5l-141 266q-18 38 -38 53t-54 15q-39 0 -65 -25t-26 -61q0 -29 15 -54l211 -370v-146q0 -52 26.5 -82.5t73.5 -30.5z" />
    <glyph glyph-name="uni100037.small" unicode="Z&#x20dd;&#x25cf;" 
d="M964 -102q-166 0 -318.5 65.5t-263 176.5t-176.5 263.5t-66 318.5t65.5 318.5t176 263t263 176.5t318.5 66t319 -66t263.5 -176.5t176.5 -263t66 -318.5t-66 -318.5t-176.5 -263.5t-263 -176.5t-318.5 -65.5zM744 356h450q38 0 61 20.5t23 56.5t-22.5 56t-61.5 20h-292v8
l317 420q20 24 26.5 40t6.5 40q0 36 -24.5 59t-62.5 23h-431q-38 0 -61 -20.5t-23 -56.5t23 -56t61 -20h276v-8l-317 -420q-34 -44 -34 -82q0 -35 24 -57.5t61 -22.5z" />
    <glyph glyph-name="uni100095.small" unicode="A&#x20de;&#x25a0;" horiz-adv-x="1891" 
d="M473 -24q-134 0 -203.5 68.5t-69.5 201.5v950q0 133 69.5 201.5t203.5 68.5h944q134 0 204 -68.5t70 -201.5v-950q0 -133 -70 -201.5t-204 -68.5h-944zM697 342q68 0 89 78l39 118h247l38 -118q21 -78 90 -78q41 0 64.5 22.5t23.5 60.5q0 25 -12 61l-187 521
q-37 106 -142 106q-104 0 -139 -106l-187 -521q-12 -36 -12 -61q0 -38 23.5 -60.5t64.5 -22.5zM861 670l83 271h9l83 -271h-175z" />
    <glyph glyph-name="uni100097.small" unicode="B&#x20de;&#x25a0;" horiz-adv-x="1891" 
d="M473 -24q-134 0 -203.5 68.5t-69.5 201.5v950q0 133 69.5 201.5t203.5 68.5h944q134 0 204 -68.5t70 -201.5v-950q0 -133 -70 -201.5t-204 -68.5h-944zM762 356h249q122 0 197 56.5t75 150.5q0 76 -47 124.5t-131 59.5v7q64 13 101.5 56.5t37.5 105.5q0 85 -63.5 134
t-172.5 49h-246q-53 0 -81 -28t-28 -81v-525q0 -53 28 -81t81 -28zM834 796v178h123q50 0 78.5 -23.5t28.5 -63.5q0 -91 -136 -91h-94zM834 486v196h131q61 0 95 -26t34 -74q0 -96 -157 -96h-103z" />
    <glyph glyph-name="uni100099.small" unicode="C&#x20de;&#x25a0;" horiz-adv-x="1891" 
d="M473 -24q-134 0 -203.5 68.5t-69.5 201.5v950q0 133 69.5 201.5t203.5 68.5h944q134 0 204 -68.5t70 -201.5v-950q0 -133 -70 -201.5t-204 -68.5h-944zM947 337q111 0 193.5 46t116.5 127q10 23 10 49q0 36 -22.5 56.5t-62.5 20.5q-51 0 -80 -52q-47 -91 -152 -91
q-79 0 -125.5 63.5t-46.5 170.5t46.5 171t125.5 64q105 0 153 -92q16 -28 34 -40t45 -12q40 0 62.5 20.5t22.5 56.5q0 25 -10 49q-34 81 -117 127.5t-193 46.5q-166 0 -264 -106t-98 -285t98 -284.5t264 -105.5z" />
    <glyph glyph-name="uni10009B.small" unicode="D&#x20de;&#x25a0;" horiz-adv-x="1891" 
d="M473 -24q-134 0 -203.5 68.5t-69.5 201.5v950q0 133 69.5 201.5t203.5 68.5h944q134 0 204 -68.5t70 -201.5v-950q0 -133 -70 -201.5t-204 -68.5h-944zM746 356h205q176 0 270 96t94 276t-93.5 275.5t-270.5 95.5h-205q-50 0 -76 -29t-26 -81v-523q0 -110 102 -110z
M829 500v455h95q197 0 197 -228q0 -227 -197 -227h-95z" />
    <glyph glyph-name="uni10009F.small" unicode="F&#x20de;&#x25a0;" horiz-adv-x="1891" 
d="M473 -24q-134 0 -203.5 68.5t-69.5 201.5v950q0 133 69.5 201.5t203.5 68.5h944q134 0 204 -68.5t70 -201.5v-950q0 -133 -70 -201.5t-204 -68.5h-944zM776 343q46 0 71.5 29t25.5 80v197h255q33 0 52.5 18t19.5 50q0 33 -19.5 51t-52.5 18h-256v164h276q37 0 58.5 20
t21.5 54q0 36 -21.5 55.5t-58.5 19.5h-366q-50 0 -76 -29t-26 -81v-537q0 -51 25 -80t71 -29z" />
    <glyph glyph-name="uni1000A1.small" unicode="G&#x20de;&#x25a0;" horiz-adv-x="1891" 
d="M473 -24q-134 0 -203.5 68.5t-69.5 201.5v950q0 133 69.5 201.5t203.5 68.5h944q134 0 204 -68.5t70 -201.5v-950q0 -133 -70 -201.5t-204 -68.5h-944zM949 336q155 0 245.5 81.5t90.5 210.5v44q0 45 -23.5 69t-67.5 24h-188q-31 0 -48.5 -16.5t-17.5 -44.5
q0 -27 17.5 -44.5t48.5 -17.5h96v-39q0 -55 -38.5 -88t-109.5 -33q-80 0 -128 67t-48 178q0 109 47.5 175.5t126.5 66.5q102 0 150 -90q30 -47 81 -47q37 0 58.5 20t21.5 54q0 24 -10 47q-32 77 -113.5 121.5t-192.5 44.5q-166 0 -264 -106.5t-98 -285.5t98.5 -285
t265.5 -106z" />
    <glyph glyph-name="uni1000A3.small" unicode="H&#x20de;&#x25a0;" horiz-adv-x="1891" 
d="M473 -24q-134 0 -203.5 68.5t-69.5 201.5v950q0 133 69.5 201.5t203.5 68.5h944q134 0 204 -68.5t70 -201.5v-950q0 -133 -70 -201.5t-204 -68.5h-944zM701 343q47 0 73.5 29.5t26.5 81.5v205h294v-205q0 -52 26 -81.5t73 -29.5t73 29t26 82v547q0 53 -26 82t-73 29
t-73 -29.5t-26 -81.5v-192h-294v192q0 52 -26.5 81.5t-73.5 29.5q-46 0 -72 -29t-26 -82v-547q0 -53 26 -82t72 -29z" />
    <glyph glyph-name="uni1000A5.small" unicode="I&#x20de;&#x25a0;" horiz-adv-x="1891" 
d="M473 -24q-134 0 -203.5 68.5t-69.5 201.5v950q0 133 69.5 201.5t203.5 68.5h944q134 0 204 -68.5t70 -201.5v-950q0 -133 -70 -201.5t-204 -68.5h-944zM948 343q48 0 75 30t27 84v541q0 54 -27 84t-75 30t-74.5 -30.5t-26.5 -83.5v-541q0 -53 26.5 -83.5t74.5 -30.5z" />
    <glyph glyph-name="uni1000A7.small" unicode="J&#x20de;&#x25a0;" horiz-adv-x="1891" 
d="M473 -24q-134 0 -203.5 68.5t-69.5 201.5v950q0 133 69.5 201.5t203.5 68.5h944q134 0 204 -68.5t70 -201.5v-950q0 -133 -70 -201.5t-204 -68.5h-944zM912 346q132 0 202.5 67t70.5 193v390q0 50 -25 78t-71 28q-45 0 -69.5 -28.5t-24.5 -77.5v-385q0 -51 -21.5 -78.5
t-60.5 -27.5q-64 0 -90 61q-24 61 -87 61q-38 0 -62 -24t-24 -62q0 -22 8 -46q23 -68 91.5 -108.5t162.5 -40.5z" />
    <glyph glyph-name="uni1000A9.small" unicode="&#x212a;&#x20de;&#x25a0;" horiz-adv-x="1891" 
d="M473 -24q-134 0 -203.5 68.5t-69.5 201.5v950q0 133 69.5 201.5t203.5 68.5h944q134 0 204 -68.5t70 -201.5v-950q0 -133 -70 -201.5t-204 -68.5h-944zM733 348q44 0 69.5 27t25.5 76v109l83 91l189 -256q33 -46 81 -46q40 0 65.5 24t25.5 62q0 32 -24 68l-198 264
l181 195q28 31 28 66q0 33 -25 55.5t-62 22.5q-41 0 -77 -41l-261 -285h-6v220q0 51 -25 78.5t-70 27.5q-44 0 -69 -27.5t-25 -78.5v-546q0 -50 25 -78t69 -28z" />
    <glyph glyph-name="uni1000AB.small" unicode="L&#x20de;&#x25a0;" horiz-adv-x="1891" 
d="M473 -24q-134 0 -203.5 68.5t-69.5 201.5v950q0 133 69.5 201.5t203.5 68.5h944q134 0 204 -68.5t70 -201.5v-950q0 -133 -70 -201.5t-204 -68.5h-944zM804 356h353q39 0 62 21.5t23 58.5t-23 58.5t-62 21.5h-251v482q0 54 -26.5 84t-75.5 30q-48 0 -74.5 -30.5
t-26.5 -83.5v-529q0 -52 26.5 -82.5t74.5 -30.5z" />
    <glyph glyph-name="uni1000AD.small" unicode="M&#x20de;&#x25a0;" horiz-adv-x="1891" 
d="M473 -24q-134 0 -203.5 68.5t-69.5 201.5v950q0 133 69.5 201.5t203.5 68.5h944q134 0 204 -68.5t70 -201.5v-950q0 -133 -70 -201.5t-204 -68.5h-944zM640 340q37 0 57.5 22.5t20.5 63.5v395h8l146 -387q21 -54 75 -54t76 54l147 387h9v-395q0 -41 20 -63.5t56 -22.5
q38 0 58.5 22.5t20.5 63.5v584q0 46 -29 74t-76 28q-82 0 -109 -79l-169 -448h-4l-170 448q-27 79 -110 79q-47 0 -75.5 -28t-28.5 -74v-584q0 -40 20.5 -63t56.5 -23z" />
    <glyph glyph-name="uni1000AF.small" unicode="N&#x20de;&#x25a0;" horiz-adv-x="1891" 
d="M473 -24q-134 0 -203.5 68.5t-69.5 201.5v950q0 133 69.5 201.5t203.5 68.5h944q134 0 204 -68.5t70 -201.5v-950q0 -133 -70 -201.5t-204 -68.5h-944zM711 343q40 0 62.5 24.5t22.5 68.5v368h7l301 -409q21 -29 40 -40.5t46 -11.5q38 0 59.5 22.5t21.5 63.5v590
q0 44 -23 68.5t-63 24.5t-62.5 -25t-22.5 -68v-370h-7l-297 409q-23 31 -42 42.5t-47 11.5q-37 0 -59 -24t-22 -65v-587q0 -43 22.5 -68t62.5 -25z" />
    <glyph glyph-name="uni1000B1.small" unicode="O&#x20de;&#x25a0;" horiz-adv-x="1891" 
d="M473 -24q-134 0 -203.5 68.5t-69.5 201.5v950q0 133 69.5 201.5t203.5 68.5h944q134 0 204 -68.5t70 -201.5v-950q0 -133 -70 -201.5t-204 -68.5h-944zM949 337q161 0 263 107.5t102 282.5q0 176 -102 283.5t-263 107.5t-263.5 -107.5t-102.5 -283.5q0 -175 102.5 -282.5
t263.5 -107.5zM949 489q-79 0 -126.5 63.5t-47.5 174.5t47.5 175t126.5 64q78 0 125.5 -64t47.5 -175q0 -110 -47.5 -174t-125.5 -64z" />
    <glyph glyph-name="uni1000B3.small" unicode="P&#x20de;&#x25a0;" horiz-adv-x="1891" 
d="M473 -24q-134 0 -203.5 68.5t-69.5 201.5v950q0 133 69.5 201.5t203.5 68.5h944q134 0 204 -68.5t70 -201.5v-950q0 -133 -70 -201.5t-204 -68.5h-944zM770 343q46 0 71.5 29t25.5 80v113h129q128 0 205 73t77 194q0 122 -76.5 194.5t-204.5 72.5h-221q-50 0 -76 -28.5
t-26 -81.5v-537q0 -51 25 -80t71 -29zM867 706v252h102q60 0 92.5 -32.5t32.5 -93.5q0 -60 -32.5 -93t-92.5 -33h-102z" />
    <glyph glyph-name="uni1000B5.small" unicode="Q&#x20de;&#x25a0;" horiz-adv-x="1891" 
d="M473 -24q-134 0 -203.5 68.5t-69.5 201.5v950q0 133 69.5 201.5t203.5 68.5h944q134 0 204 -68.5t70 -201.5v-950q0 -133 -70 -201.5t-204 -68.5h-944zM949 337q58 0 112 17l39 -54q30 -44 73 -44q31 0 51 19t20 49q0 25 -23 59l-31 41q124 108 124 304q0 175 -102.5 283
t-262.5 108q-161 0 -263.5 -107.5t-102.5 -283.5t102.5 -283.5t263.5 -107.5zM949 489q-79 0 -126.5 64t-47.5 175t47.5 174.5t126.5 63.5q78 0 125.5 -64t47.5 -174q0 -102 -44 -162l-28 35q-15 19 -41 19q-23 0 -39.5 -15.5t-16.5 -37.5q0 -23 15 -42l22 -31
q-22 -5 -41 -5z" />
    <glyph glyph-name="uni1000B7.small" unicode="R&#x20de;&#x25a0;" horiz-adv-x="1891" 
d="M473 -24q-134 0 -203.5 68.5t-69.5 201.5v950q0 133 69.5 201.5t203.5 68.5h944q134 0 204 -68.5t70 -201.5v-950q0 -133 -70 -201.5t-204 -68.5h-944zM733 343q43 0 67 27t24 75v160h112l123 -198q22 -36 42 -50t50 -14q37 0 61 22t24 57q0 32 -20 61l-103 154
q69 23 110 81.5t41 134.5q0 116 -77.5 181t-214.5 65h-228q-50 0 -75.5 -29t-25.5 -81v-544q0 -48 23 -75t67 -27zM824 737v226h125q58 0 92 -30.5t34 -84.5q0 -53 -34.5 -82t-94.5 -29h-122z" />
    <glyph glyph-name="uni1000B9.small" unicode="S&#x20de;&#x25a0;" horiz-adv-x="1891" 
d="M473 -24q-134 0 -203.5 68.5t-69.5 201.5v950q0 133 69.5 201.5t203.5 68.5h944q134 0 204 -68.5t70 -201.5v-950q0 -133 -70 -201.5t-204 -68.5h-944zM937 337q148 0 237 66t89 177q0 164 -225 214l-100 23q-56 12 -80 30.5t-24 48.5q0 38 28.5 59.5t79.5 21.5
q47 0 78 -17t57 -57q34 -43 81 -43q34 0 55 19t21 52q0 24 -13 50q-29 61 -102.5 99t-173.5 38q-135 0 -219.5 -66t-84.5 -171q0 -160 209 -208l104 -26q69 -17 93.5 -34t24.5 -50q0 -39 -34 -60t-90 -21q-51 0 -86.5 17t-64.5 56q-35 41 -78 41q-36 0 -58 -21t-22 -55
q0 -24 14 -50q27 -56 102.5 -94.5t181.5 -38.5z" />
    <glyph glyph-name="uni1000BB.small" unicode="T&#x20de;&#x25a0;" horiz-adv-x="1891" 
d="M473 -24q-134 0 -203.5 68.5t-69.5 201.5v950q0 133 69.5 201.5t203.5 68.5h944q134 0 204 -68.5t70 -201.5v-950q0 -133 -70 -201.5t-204 -68.5h-944zM947 341q49 0 75.5 30t26.5 83v491h157q38 0 61 21t23 57q0 37 -22.5 58t-61.5 21h-516q-38 0 -61 -21t-23 -58
q0 -36 23 -57t61 -21h157v-491q0 -53 26 -83t74 -30z" />
    <glyph glyph-name="uni1000BD.small" unicode="U&#x20de;&#x25a0;" horiz-adv-x="1891" 
d="M473 -24q-134 0 -203.5 68.5t-69.5 201.5v950q0 133 69.5 201.5t203.5 68.5h944q134 0 204 -68.5t70 -201.5v-950q0 -133 -70 -201.5t-204 -68.5h-944zM948 337q151 0 243.5 77.5t92.5 205.5v386q0 51 -25 78.5t-71 27.5q-45 0 -70 -28t-25 -78v-367q0 -68 -39 -107.5
t-106 -39.5q-66 0 -105 40t-39 107v367q0 50 -25 78t-71 28t-70.5 -28t-24.5 -78v-386q0 -128 92 -205.5t243 -77.5z" />
    <glyph glyph-name="uni1000BF.small" unicode="V&#x20de;&#x25a0;" horiz-adv-x="1891" 
d="M473 -24q-134 0 -203.5 68.5t-69.5 201.5v950q0 133 69.5 201.5t203.5 68.5h944q134 0 204 -68.5t70 -201.5v-950q0 -133 -70 -201.5t-204 -68.5h-944zM948 337q59 0 94.5 28t56.5 89l188 515q9 26 9 50q0 41 -27.5 66.5t-71.5 25.5q-41 0 -64 -20t-35 -67l-147 -485h-6
l-147 485q-12 46 -35 66.5t-64 20.5q-44 0 -71.5 -25.5t-27.5 -67.5q0 -20 9 -49l189 -518q21 -61 55.5 -87.5t94.5 -26.5z" />
    <glyph glyph-name="uni1000C1.small" unicode="W&#x20de;&#x25a0;" horiz-adv-x="1891" 
d="M473 -24q-134 0 -203.5 68.5t-69.5 201.5v950q0 133 69.5 201.5t203.5 68.5h944q134 0 204 -68.5t70 -201.5v-950q0 -133 -70 -201.5t-204 -68.5h-944zM735 337q89 0 109 89l101 419h6l102 -419q18 -89 107 -89q88 0 108 89l138 575q3 15 3 27q0 37 -22.5 60t-59.5 23
q-38 0 -59 -21t-29 -65l-89 -449h-7l-107 460q-15 70 -88 70t-88 -70l-106 -460h-7l-89 449q-8 44 -29 65t-59 21q-37 0 -59.5 -23t-22.5 -60q0 -17 3 -27l137 -575q21 -89 107 -89z" />
    <glyph glyph-name="uni1000C3.small" unicode="X&#x20de;&#x25a0;" horiz-adv-x="1891" 
d="M473 -24q-134 0 -203.5 68.5t-69.5 201.5v950q0 133 69.5 201.5t203.5 68.5h944q134 0 204 -68.5t70 -201.5v-950q0 -133 -70 -201.5t-204 -68.5h-944zM713 343q28 0 46.5 12.5t41.5 46.5l143 205h5l141 -205q22 -33 41 -46t47 -13q40 0 65 23.5t25 60.5q0 33 -25 65
l-178 235l179 237q25 33 25 65q0 36 -25 59.5t-63 23.5q-28 0 -47 -12.5t-39 -44.5l-137 -207h-5l-142 207q-21 32 -40.5 44.5t-48.5 12.5q-38 0 -63.5 -24.5t-25.5 -60.5q0 -34 26 -68l171 -228l-180 -242q-24 -32 -24 -64q0 -35 24.5 -58.5t62.5 -23.5z" />
    <glyph glyph-name="uni1000C5.small" unicode="Y&#x20de;&#x25a0;" horiz-adv-x="1891" 
d="M473 -24q-134 0 -203.5 68.5t-69.5 201.5v950q0 133 69.5 201.5t203.5 68.5h944q134 0 204 -68.5t70 -201.5v-950q0 -133 -70 -201.5t-204 -68.5h-944zM949 343q48 0 74 30t26 83v147l210 369q15 23 15 53q0 38 -25 62.5t-65 24.5q-33 0 -53 -15t-38 -53l-141 -266h-5
l-141 266q-18 38 -38 53t-54 15q-39 0 -65 -25t-26 -61q0 -29 15 -54l211 -370v-146q0 -52 26.5 -82.5t73.5 -30.5z" />
    <glyph glyph-name="uni1000C7.small" unicode="Z&#x20de;&#x25a0;" horiz-adv-x="1891" 
d="M473 -24q-134 0 -203.5 68.5t-69.5 201.5v950q0 133 69.5 201.5t203.5 68.5h944q134 0 204 -68.5t70 -201.5v-950q0 -133 -70 -201.5t-204 -68.5h-944zM729 356h450q38 0 61 20.5t23 56.5t-22.5 56t-61.5 20h-292v8l317 420q20 24 26.5 40t6.5 40q0 36 -24.5 59t-62.5 23
h-431q-38 0 -61 -20.5t-23 -56.5t23 -56t61 -20h276v-8l-317 -420q-34 -44 -34 -82q0 -35 24 -57.5t61 -22.5z" />
    <glyph glyph-name="uni10005C.small" unicode="&#x3f;&#x20dd;" 
d="M964 -102q-166 0 -318.5 65.5t-263 176.5t-176.5 263.5t-66 318.5t65.5 318.5t176 263t263 176.5t318.5 66t319 -66t263.5 -176.5t176.5 -263t66 -318.5t-66 -318.5t-176.5 -263.5t-263 -176.5t-318.5 -65.5zM964 94q171 0 315.5 83.5t228.5 228t84 316.5
q0 128 -50 244.5t-134 200t-200 133t-245 49.5q-171 0 -315 -83.5t-227.5 -228t-83.5 -315.5q0 -129 49.5 -245t133 -200t200 -133.5t244.5 -49.5zM945 570q-91 0 -91 77v5q0 46 24.5 79t71.5 65q39 27 55 40t29 32t13 40q0 34 -23 54.5t-62 20.5q-48 0 -90 -46
q-4 -4 -14 -15.5t-15 -15.5t-14.5 -10.5t-20.5 -9t-26 -2.5q-35 0 -57 20t-22 52q0 22 9 45q22 57 91 94t168 37q114 0 192 -58t78 -156q0 -64 -31 -104.5t-97 -81.5q-38 -25 -57.5 -46t-22.5 -47q-1 -2 -1 -6q-3 -28 -26.5 -45.5t-60.5 -17.5zM944 320q-43 0 -73 26.5
t-30 67.5t30 67.5t73 26.5q44 0 73.5 -26.5t29.5 -67.5t-29.5 -67.5t-73.5 -26.5z" />
    <glyph glyph-name="uni10005D.small" unicode="&#x3f;&#x20dd;&#x25cf;" 
d="M964 -102q-166 0 -318.5 65.5t-263 176.5t-176.5 263.5t-66 318.5t65.5 318.5t176 263t263 176.5t318.5 66t319 -66t263.5 -176.5t176.5 -263t66 -318.5t-66 -318.5t-176.5 -263.5t-263 -176.5t-318.5 -65.5zM944 563q38 0 63 18.5t28 47.5q1 2 1 7q3 27 24 49t61 48
q69 44 101.5 86t32.5 110q0 103 -82 163.5t-202 60.5q-104 0 -177 -38.5t-96 -98.5q-10 -25 -10 -47q0 -33 24 -54.5t60 -21.5q16 0 27.5 2.5t22 9.5t15.5 11t16 16t15 16q42 48 94 48q40 0 64 -21.5t24 -56.5q0 -32 -22 -54.5t-80 -62.5q-50 -35 -75 -69t-25 -83v-4
q0 -82 96 -82zM943 300q46 0 77 27.5t31 71.5t-31 72t-77 28t-78 -28.5t-32 -71.5t32 -71t78 -28z" />
    <glyph glyph-name="uni1000EC.small" unicode="&#x3f;&#x20de;" horiz-adv-x="1891" 
d="M473 -24q-134 0 -203.5 68.5t-69.5 201.5v950q0 133 69.5 201.5t203.5 68.5h944q134 0 204 -68.5t70 -201.5v-950q0 -133 -70 -201.5t-204 -68.5h-944zM489 166h912q99 0 99 100v910q0 100 -99 100h-912q-98 0 -98 -100v-910q0 -100 98 -100zM927 570q-91 0 -91 78v4
q0 47 24.5 79.5t71.5 65.5q38 26 54.5 39t29.5 32t13 40q0 34 -23.5 54.5t-61.5 20.5q-48 0 -90 -45q-4 -4 -12 -13.5t-11.5 -13t-11.5 -10t-15 -9t-17.5 -5t-22.5 -2.5q-35 0 -57 20t-22 52q0 23 9 44q22 57 91 94t168 37q114 0 191.5 -57.5t77.5 -156.5q0 -64 -30.5 -104
t-96.5 -82q-38 -25 -57.5 -46t-22.5 -47q-1 -1 -1 -6q-3 -28 -26.5 -45.5t-60.5 -17.5zM926 320q-43 0 -73 27t-30 68t29.5 67.5t73.5 26.5q43 0 72.5 -26.5t29.5 -67.5t-29.5 -68t-72.5 -27z" />
    <glyph glyph-name="uni1000ED.small" unicode="&#x3f;&#x20de;&#x25a0;" horiz-adv-x="1891" 
d="M473 -24q-134 0 -203.5 68.5t-69.5 201.5v950q0 133 69.5 201.5t203.5 68.5h944q134 0 204 -68.5t70 -201.5v-950q0 -133 -70 -201.5t-204 -68.5h-944zM929 563q38 0 63 18.5t28 47.5q1 2 1 7q3 27 24 49t61 48q69 44 101.5 86t32.5 110q0 103 -81.5 163.5t-202.5 60.5
q-104 0 -177 -38.5t-96 -98.5q-10 -25 -10 -47q0 -33 24 -54.5t60 -21.5q16 0 27.5 2.5t22 9.5t15.5 11t16 16t15 16q42 48 94 48q40 0 64 -21.5t24 -56.5q0 -32 -22 -54.5t-80 -62.5q-50 -35 -75 -69t-25 -83v-4q0 -82 96 -82zM928 300q46 0 77 27.5t31 71.5t-31 72t-77 28
t-78 -28.5t-32 -71.5t32 -71t78 -28z" />
    <glyph glyph-name="uni10005E.small" unicode="&#x21;&#x20dd;" 
d="M964 -102q-166 0 -318.5 65.5t-263 176.5t-176.5 263.5t-66 318.5t65.5 318.5t176 263t263 176.5t318.5 66t319 -66t263.5 -176.5t176.5 -263t66 -318.5t-66 -318.5t-176.5 -263.5t-263 -176.5t-318.5 -65.5zM964 94q171 0 315.5 83.5t228.5 228t84 316.5
q0 128 -50 244.5t-134 200t-200 133t-245 49.5q-171 0 -315 -83.5t-227.5 -228t-83.5 -315.5q0 -129 49.5 -245t133 -200t200 -133.5t244.5 -49.5zM964 600q-80 0 -83 80l-12 349q-2 40 24.5 66t69.5 26q42 0 69 -26t26 -66l-14 -349q-2 -80 -80 -80zM964 332
q-43 0 -73 26.5t-30 67.5t29.5 67.5t73.5 26.5q43 0 72.5 -26.5t29.5 -67.5t-29.5 -67.5t-72.5 -26.5z" />
    <glyph glyph-name="uni10005F.small" unicode="&#x21;&#x20dd;&#x25cf;" 
d="M964 -102q-166 0 -318.5 65.5t-263 176.5t-176.5 263.5t-66 318.5t65.5 318.5t176 263t263 176.5t318.5 66t319 -66t263.5 -176.5t176.5 -263t66 -318.5t-66 -318.5t-176.5 -263.5t-263 -176.5t-318.5 -65.5zM964 595q82 0 85 84l14 365q1 42 -27.5 69.5t-72.5 27.5
q-45 0 -73 -27t-26 -70l12 -365q5 -84 88 -84zM964 312q46 0 77 28t31 72q0 43 -31 71t-77 28t-77.5 -28t-31.5 -71q0 -44 31.5 -72t77.5 -28z" />
    <glyph glyph-name="uni1000EE.small" unicode="&#x21;&#x20de;" horiz-adv-x="1891" 
d="M473 -24q-134 0 -203.5 68.5t-69.5 201.5v950q0 133 69.5 201.5t203.5 68.5h944q134 0 204 -68.5t70 -201.5v-950q0 -133 -70 -201.5t-204 -68.5h-944zM489 166h912q99 0 99 100v910q0 100 -99 100h-912q-98 0 -98 -100v-910q0 -100 98 -100zM946 601q-80 0 -83 79
l-12 350q-2 40 24.5 65.5t69.5 25.5q42 0 69 -26t25 -66l-13 -348q-3 -80 -80 -80zM946 332q-43 0 -73.5 26.5t-30.5 67.5t30 68t74 27q43 0 72.5 -27t29.5 -68t-29.5 -67.5t-72.5 -26.5z" />
    <glyph glyph-name="uni1000EF.small" unicode="&#x21;&#x20de;&#x25a0;" horiz-adv-x="1891" 
d="M473 -24q-134 0 -203.5 68.5t-69.5 201.5v950q0 133 69.5 201.5t203.5 68.5h944q134 0 204 -68.5t70 -201.5v-950q0 -133 -70 -201.5t-204 -68.5h-944zM949 595q82 0 85 84l14 365q1 42 -27.5 69.5t-72.5 27.5q-45 0 -73 -27t-26 -70l12 -365q5 -84 88 -84zM949 312
q46 0 77 28t31 72q0 43 -31 71t-77 28t-77.5 -28t-31.5 -71q0 -44 31.5 -72t77.5 -28z" />
    <glyph glyph-name="uni10004D.small" unicode="&#x2b;&#x20dd;&#x25cf;" 
d="M964 -102q-166 0 -318.5 65.5t-263 176.5t-176.5 263.5t-66 318.5t65.5 318.5t176 263t263 176.5t318.5 66t319 -66t263.5 -176.5t176.5 -263t66 -318.5t-66 -318.5t-176.5 -263.5t-263 -176.5t-318.5 -65.5zM580 721q0 -40 26 -65t66 -25h200v-202q0 -39 25.5 -64.5
t65.5 -25.5t66 25.5t26 64.5v202h201q39 0 65 25.5t26 64.5q0 40 -26 66t-65 26h-201v201q0 40 -26 65.5t-66 25.5t-65.5 -25.5t-25.5 -65.5v-201h-200q-40 0 -66 -25.5t-26 -66.5z" />
    <glyph glyph-name="uni1000DC.small" unicode="&#x2b;&#x20de;" horiz-adv-x="1891" 
d="M473 -24q-134 0 -203.5 68.5t-69.5 201.5v950q0 133 69.5 201.5t203.5 68.5h944q134 0 204 -68.5t70 -201.5v-950q0 -133 -70 -201.5t-204 -68.5h-944zM489 166h912q99 0 99 100v910q0 100 -99 100h-912q-98 0 -98 -100v-910q0 -100 98 -100zM667 636q-38 0 -62 24
t-24 61q0 38 24 62.5t62 24.5h192v192q0 38 24 62t62 24t62.5 -24t24.5 -62v-192h192q38 0 62 -24.5t24 -62.5q0 -37 -24 -61t-62 -24h-192v-192q0 -38 -24.5 -62t-62.5 -24t-62 24t-24 62v192h-192z" />
    <glyph glyph-name="uni1000DD.small" unicode="&#x2b;&#x20de;&#x25a0;" horiz-adv-x="1891" 
d="M473 -24q-134 0 -203.5 68.5t-69.5 201.5v950q0 133 69.5 201.5t203.5 68.5h944q134 0 204 -68.5t70 -201.5v-950q0 -133 -70 -201.5t-204 -68.5h-944zM565 721q0 -40 26 -65t66 -25h200v-202q0 -39 25.5 -64.5t65.5 -25.5t66 25.5t26 64.5v202h201q39 0 65 25.5t26 64.5
q0 40 -26 66t-65 26h-201v201q0 40 -26 65.5t-66 25.5t-65.5 -25.5t-25.5 -65.5v-201h-200q-41 0 -66.5 -25.5t-25.5 -66.5z" />
    <glyph glyph-name="uni10004F.small" unicode="&#x2212;&#x20dd;&#x25cf;" 
d="M964 -102q-166 0 -318.5 65.5t-263 176.5t-176.5 263.5t-66 318.5t65.5 318.5t176 263t263 176.5t318.5 66t319 -66t263.5 -176.5t176.5 -263t66 -318.5t-66 -318.5t-176.5 -263.5t-263 -176.5t-318.5 -65.5zM670 629h587q43 0 70 24.5t27 66.5t-26.5 67t-70.5 25h-587
q-44 0 -70.5 -25t-26.5 -67t27 -66.5t70 -24.5z" />
    <glyph glyph-name="uni1000DE.small" unicode="&#x2212;&#x20de;" horiz-adv-x="1891" 
d="M473 -24q-134 0 -203.5 68.5t-69.5 201.5v950q0 133 69.5 201.5t203.5 68.5h944q134 0 204 -68.5t70 -201.5v-950q0 -133 -70 -201.5t-204 -68.5h-944zM489 166h912q99 0 99 100v910q0 100 -99 100h-912q-98 0 -98 -100v-910q0 -100 98 -100zM666 634q-41 0 -67 23.5
t-26 62.5t25.5 63t67.5 24h559q42 0 67 -23.5t25 -63.5q0 -39 -25.5 -62.5t-66.5 -23.5h-559z" />
    <glyph glyph-name="uni1000DF.small" unicode="&#x2212;&#x20de;&#x25a0;" horiz-adv-x="1891" 
d="M473 -24q-134 0 -203.5 68.5t-69.5 201.5v950q0 133 69.5 201.5t203.5 68.5h944q134 0 204 -68.5t70 -201.5v-950q0 -133 -70 -201.5t-204 -68.5h-944zM655 629h587q43 0 70 24.5t27 66.5t-26.5 67t-70.5 25h-587q-44 0 -70.5 -25t-26.5 -67t27 -66.5t70 -24.5z" />
    <glyph glyph-name="uni100051.small" unicode="&#xd7;&#x20dd;&#x25cf;" 
d="M964 -102q-166 0 -318.5 65.5t-263 176.5t-176.5 263.5t-66 318.5t65.5 318.5t176 263t263 176.5t318.5 66t319 -66t263.5 -176.5t176.5 -263t66 -318.5t-66 -318.5t-176.5 -263.5t-263 -176.5t-318.5 -65.5zM705 375q37 0 64 25l194 196l196 -196q27 -25 64 -25t62.5 26
t25.5 63q0 33 -26 61l-196 196l196 197q26 25 26 61q0 37 -25 62.5t-62 25.5t-63 -26l-198 -196l-196 195q-24 25 -62 25q-37 0 -62.5 -25t-25.5 -62q0 -35 26 -61l196 -196l-196 -197q-26 -26 -26 -60q0 -37 25.5 -63t62.5 -26z" />
    <glyph glyph-name="uni1000E0.small" unicode="&#xd7;&#x20de;" horiz-adv-x="1891" 
d="M473 -24q-134 0 -203.5 68.5t-69.5 201.5v950q0 133 69.5 201.5t203.5 68.5h944q134 0 204 -68.5t70 -201.5v-950q0 -133 -70 -201.5t-204 -68.5h-944zM489 166h912q99 0 99 100v910q0 100 -99 100h-912q-98 0 -98 -100v-910q0 -100 98 -100zM699 391q-35 0 -59 25
t-24 60q0 34 25 57l187 188l-187 187q-25 25 -25 58q0 35 24 59t59 24t59 -24l187 -187l189 187q25 25 59 25q35 0 59 -24.5t24 -59.5q0 -32 -25 -57l-187 -188l187 -187q25 -25 25 -58q0 -35 -24.5 -60t-58.5 -25t-61 25l-187 186l-186 -186q-23 -25 -60 -25z" />
    <glyph glyph-name="uni1000E1.small" unicode="&#xd7;&#x20de;&#x25a0;" horiz-adv-x="1891" 
d="M473 -24q-134 0 -203.5 68.5t-69.5 201.5v950q0 133 69.5 201.5t203.5 68.5h944q134 0 204 -68.5t70 -201.5v-950q0 -133 -70 -201.5t-204 -68.5h-944zM690 375q37 0 64 25l194 196l196 -196q27 -25 64 -25t62.5 26t25.5 63q0 33 -26 61l-196 196l196 197q26 25 26 61
q0 37 -25 62.5t-62 25.5t-63 -26l-198 -196l-196 195q-24 25 -62 25q-37 0 -62.5 -25t-25.5 -62q0 -35 26 -61l196 -196l-196 -197q-26 -26 -26 -60q0 -37 25.5 -63t62.5 -26z" />
    <glyph glyph-name="uni100052.small" unicode="&#xf7;&#x20dd;" 
d="M964 -102q-166 0 -318.5 65.5t-263 176.5t-176.5 263.5t-66 318.5t65.5 318.5t176 263t263 176.5t318.5 66t319 -66t263.5 -176.5t176.5 -263t66 -318.5t-66 -318.5t-176.5 -263.5t-263 -176.5t-318.5 -65.5zM964 94q171 0 315.5 83.5t228.5 228t84 316.5
q0 128 -50 244.5t-134 200t-200 133t-245 49.5q-171 0 -315 -83.5t-227.5 -228t-83.5 -315.5q0 -129 49.5 -245t133 -200t200 -133.5t244.5 -49.5zM962 892q-47 0 -79 29t-32 71q0 46 32 76.5t79 30.5q50 0 82 -30t32 -77q0 -42 -32.5 -71t-81.5 -29zM676 639q-39 0 -63 22
t-24 59t24 59.5t63 22.5h575q39 0 63 -22.5t24 -59.5t-24 -59t-63 -22h-575zM962 343q-47 0 -79 29t-32 72q0 46 31.5 75.5t79.5 29.5q50 0 82 -29.5t32 -75.5q0 -43 -32.5 -72t-81.5 -29z" />
    <glyph glyph-name="uni100053.small" unicode="&#xf7;&#x20dd;&#x25cf;" 
d="M964 -102q-166 0 -318.5 65.5t-263 176.5t-176.5 263.5t-66 318.5t65.5 318.5t176 263t263 176.5t318.5 66t319 -66t263.5 -176.5t176.5 -263t66 -318.5t-66 -318.5t-176.5 -263.5t-263 -176.5t-318.5 -65.5zM962 901q52 0 86 30t34 75q0 50 -33.5 81.5t-86.5 31.5
q-50 0 -83.5 -32t-33.5 -81q0 -44 34 -74.5t83 -30.5zM662 635h604q41 0 66 23t25 62q0 40 -25 63t-66 23h-604q-42 0 -67 -23t-25 -63q0 -39 25 -62t67 -23zM962 324q52 0 86 30.5t34 75.5q0 50 -33.5 81t-86.5 31q-50 0 -83.5 -31.5t-33.5 -80.5q0 -45 33.5 -75.5
t83.5 -30.5z" />
    <glyph glyph-name="uni1000E2.small" unicode="&#xf7;&#x20de;" horiz-adv-x="1891" 
d="M473 -24q-134 0 -203.5 68.5t-69.5 201.5v950q0 133 69.5 201.5t203.5 68.5h944q134 0 204 -68.5t70 -201.5v-950q0 -133 -70 -201.5t-204 -68.5h-944zM489 166h912q99 0 99 100v910q0 100 -99 100h-912q-98 0 -98 -100v-910q0 -100 98 -100zM944 893q-47 0 -79.5 28.5
t-32.5 71.5q0 46 32 76t80 30q50 0 82 -29.5t32 -76.5q0 -43 -32.5 -71.5t-81.5 -28.5zM658 639q-39 0 -63 22t-24 59q0 38 24 60t63 22h575q39 0 62.5 -22t23.5 -60q0 -37 -23.5 -59t-62.5 -22h-575zM944 344q-47 0 -79.5 29t-32.5 71q0 46 32 76t80 30q50 0 82 -29.5
t32 -76.5q0 -42 -32.5 -71t-81.5 -29z" />
    <glyph glyph-name="uni1000E3.small" unicode="&#xf7;&#x20de;&#x25a0;" horiz-adv-x="1891" 
d="M473 -24q-134 0 -203.5 68.5t-69.5 201.5v950q0 133 69.5 201.5t203.5 68.5h944q134 0 204 -68.5t70 -201.5v-950q0 -133 -70 -201.5t-204 -68.5h-944zM947 901q52 0 86 30t34 75q0 50 -33.5 81.5t-86.5 31.5q-50 0 -83.5 -32t-33.5 -81q0 -44 34 -74.5t83 -30.5z
M647 635h604q41 0 66 23t25 62q0 40 -25 63t-66 23h-604q-42 0 -67 -23t-25 -63q0 -39 25 -62t67 -23zM947 324q52 0 86 30.5t34 75.5q0 50 -33.5 81t-86.5 31q-50 0 -83.5 -31.5t-33.5 -80.5q0 -45 33.5 -75.5t83.5 -30.5z" />
    <glyph glyph-name="uni100055.small" unicode="&#x3d;&#x20dd;&#x25cf;" 
d="M964 -102q-166 0 -318.5 65.5t-263 176.5t-176.5 263.5t-66 318.5t65.5 318.5t176 263t263 176.5t318.5 66t319 -66t263.5 -176.5t176.5 -263t66 -318.5t-66 -318.5t-176.5 -263.5t-263 -176.5t-318.5 -65.5zM683 792h560q44 0 70 21.5t26 60.5q0 40 -25.5 62.5
t-70.5 22.5h-560q-45 0 -71 -22t-26 -63q0 -39 26.5 -60.5t70.5 -21.5zM683 483h560q44 0 70 21.5t26 61.5t-25.5 62t-70.5 22h-560q-45 0 -71 -22t-26 -62t26.5 -61.5t70.5 -21.5z" />
    <glyph glyph-name="uni1000E4.small" unicode="&#x3d;&#x20de;" horiz-adv-x="1891" 
d="M473 -24q-134 0 -203.5 68.5t-69.5 201.5v950q0 133 69.5 201.5t203.5 68.5h944q134 0 204 -68.5t70 -201.5v-950q0 -133 -70 -201.5t-204 -68.5h-944zM489 166h912q99 0 99 100v910q0 100 -99 100h-912q-98 0 -98 -100v-910q0 -100 98 -100zM677 788q-41 0 -65.5 20.5
t-24.5 58.5t24 58.5t66 20.5h535q43 0 67 -20.5t24 -58.5t-25 -58.5t-66 -20.5h-535zM677 495q-41 0 -65.5 20.5t-24.5 57.5q0 38 24 59t66 21h535q43 0 67 -20.5t24 -59.5q0 -37 -25 -57.5t-66 -20.5h-535z" />
    <glyph glyph-name="uni1000E5.small" unicode="&#x3d;&#x20de;&#x25a0;" horiz-adv-x="1891" 
d="M473 -24q-134 0 -203.5 68.5t-69.5 201.5v950q0 133 69.5 201.5t203.5 68.5h944q134 0 204 -68.5t70 -201.5v-950q0 -133 -70 -201.5t-204 -68.5h-944zM668 792h560q44 0 70 21.5t26 60.5q0 40 -25.5 62.5t-70.5 22.5h-560q-45 0 -71 -22t-26 -63q0 -39 26.5 -60.5
t70.5 -21.5zM668 483h560q44 0 70 21.5t26 61.5t-25.5 62t-70.5 22h-560q-45 0 -71 -22t-26 -62t26.5 -61.5t70.5 -21.5z" />
    <glyph glyph-name="uni100058.small" unicode="&#x3c;&#x20dd;" 
d="M964 -102q-166 0 -318.5 65.5t-263 176.5t-176.5 263.5t-66 318.5t65.5 318.5t176 263t263 176.5t318.5 66t319 -66t263.5 -176.5t176.5 -263t66 -318.5t-66 -318.5t-176.5 -263.5t-263 -176.5t-318.5 -65.5zM964 94q171 0 315.5 83.5t228.5 228t84 316.5
q0 128 -50 244.5t-134 200t-200 133t-245 49.5q-171 0 -315 -83.5t-227.5 -228t-83.5 -315.5q0 -129 49.5 -245t133 -200t200 -133.5t244.5 -49.5zM1164 393q-27 0 -51 12l-457 229q-61 31 -61 86q0 57 61 88l457 237q22 11 52 11q37 0 61.5 -24t24.5 -61q0 -59 -68 -88
l-336 -157v-6l336 -154q37 -15 52.5 -35t15.5 -51q0 -38 -24.5 -62.5t-62.5 -24.5z" />
    <glyph glyph-name="uni100059.small" unicode="&#x3c;&#x20dd;&#x25cf;" 
d="M964 -102q-166 0 -318.5 65.5t-263 176.5t-176.5 263.5t-66 318.5t65.5 318.5t176 263t263 176.5t318.5 66t319 -66t263.5 -176.5t176.5 -263t66 -318.5t-66 -318.5t-176.5 -263.5t-263 -176.5t-318.5 -65.5zM1176 376q40 0 66 26t26 66q0 33 -16.5 54t-54.5 37l-353 161
v7l353 164q38 16 54.5 38t16.5 54q0 39 -25.5 65t-65.5 26q-29 0 -55 -13l-480 -248q-64 -33 -64 -93q0 -59 64 -90l480 -241q28 -13 54 -13z" />
    <glyph glyph-name="uni1000E6.small" unicode="&#x3c;&#x20de;" horiz-adv-x="1891" 
d="M473 -24q-134 0 -203.5 68.5t-69.5 201.5v950q0 133 69.5 201.5t203.5 68.5h944q134 0 204 -68.5t70 -201.5v-950q0 -133 -70 -201.5t-204 -68.5h-944zM489 166h912q99 0 99 100v910q0 100 -99 100h-912q-98 0 -98 -100v-910q0 -100 98 -100zM1145 394q-28 0 -50 11
l-457 230q-61 29 -61 85q0 57 61 88l457 237q24 12 52 12q37 0 61.5 -24.5t24.5 -61.5q0 -31 -16 -51t-52 -36l-336 -157v-7l336 -153q37 -16 52.5 -36t15.5 -51q0 -37 -25 -61.5t-63 -24.5z" />
    <glyph glyph-name="uni1000E7.small" unicode="&#x3c;&#x20de;&#x25a0;" horiz-adv-x="1891" 
d="M473 -24q-134 0 -203.5 68.5t-69.5 201.5v950q0 133 69.5 201.5t203.5 68.5h944q134 0 204 -68.5t70 -201.5v-950q0 -133 -70 -201.5t-204 -68.5h-944zM1161 376q40 0 66 26t26 66q0 33 -16.5 54t-54.5 37l-353 161v7l353 164q38 16 54.5 38t16.5 54q0 39 -25.5 65
t-65.5 26q-29 0 -55 -13l-480 -248q-64 -33 -64 -93q0 -59 64 -90l480 -241q28 -13 54 -13z" />
    <glyph glyph-name="uni100056.small" unicode="&#x3e;&#x20dd;" 
d="M964 -102q-166 0 -318.5 65.5t-263 176.5t-176.5 263.5t-66 318.5t65.5 318.5t176 263t263 176.5t318.5 66t319 -66t263.5 -176.5t176.5 -263t66 -318.5t-66 -318.5t-176.5 -263.5t-263 -176.5t-318.5 -65.5zM964 94q171 0 315.5 83.5t228.5 228t84 316.5
q0 128 -50 244.5t-134 200t-200 133t-245 49.5q-171 0 -315 -83.5t-227.5 -228t-83.5 -315.5q0 -129 49.5 -245t133 -200t200 -133.5t244.5 -49.5zM769 401q-37 0 -61 23.5t-24 60.5q0 30 15 49t50 34l332 152v6l-332 156q-65 28 -65 84q0 35 23.5 59t59.5 24q27 0 51 -12
l447 -232q58 -30 58 -85q0 -54 -58 -83l-447 -225q-24 -11 -49 -11z" />
    <glyph glyph-name="uni100057.small" unicode="&#x3e;&#x20dd;&#x25cf;" 
d="M964 -102q-166 0 -318.5 65.5t-263 176.5t-176.5 263.5t-66 318.5t65.5 318.5t176 263t263 176.5t318.5 66t319 -66t263.5 -176.5t176.5 -263t66 -318.5t-66 -318.5t-176.5 -263.5t-263 -176.5t-318.5 -65.5zM758 385q28 0 52 12l470 236q61 30 61 87q0 59 -61 90
l-470 243q-28 13 -53 13q-38 0 -63 -25t-25 -63q0 -32 16 -52.5t53 -36.5l346 -162v-7l-346 -159q-37 -15 -53 -35.5t-16 -52.5q0 -38 25 -63t64 -25z" />
    <glyph glyph-name="uni1000E8.small" unicode="&#x3e;&#x20de;" horiz-adv-x="1891" 
d="M473 -24q-134 0 -203.5 68.5t-69.5 201.5v950q0 133 69.5 201.5t203.5 68.5h944q134 0 204 -68.5t70 -201.5v-950q0 -133 -70 -201.5t-204 -68.5h-944zM489 166h912q99 0 99 100v910q0 100 -99 100h-912q-98 0 -98 -100v-910q0 -100 98 -100zM750 401q-36 0 -60 24
t-24 60q0 30 15 49.5t50 34.5l331 151v7l-331 155q-65 28 -65 84q0 36 23.5 59.5t59.5 23.5q26 0 51 -11l447 -232q58 -30 58 -86q0 -53 -58 -83l-447 -224q-22 -12 -50 -12z" />
    <glyph glyph-name="uni1000E9.small" unicode="&#x3e;&#x20de;&#x25a0;" horiz-adv-x="1891" 
d="M473 -24q-134 0 -203.5 68.5t-69.5 201.5v950q0 133 69.5 201.5t203.5 68.5h944q134 0 204 -68.5t70 -201.5v-950q0 -133 -70 -201.5t-204 -68.5h-944zM743 385q28 0 52 12l470 236q61 30 61 87q0 59 -61 90l-470 243q-28 13 -53 13q-38 0 -63 -25t-25 -63
q0 -32 16 -52.5t53 -36.5l346 -162v-7l-346 -159q-37 -15 -53 -35.5t-16 -52.5q0 -38 25 -63t64 -25z" />
    <glyph glyph-name="uni10005A.small" unicode="&#x23;&#x20dd;" 
d="M964 -102q-166 0 -318.5 65.5t-263 176.5t-176.5 263.5t-66 318.5t65.5 318.5t176 263t263 176.5t318.5 66t319 -66t263.5 -176.5t176.5 -263t66 -318.5t-66 -318.5t-176.5 -263.5t-263 -176.5t-318.5 -65.5zM964 94q171 0 315.5 83.5t228.5 228t84 316.5
q0 128 -50 244.5t-134 200t-200 133t-245 49.5q-171 0 -315 -83.5t-227.5 -228t-83.5 -315.5q0 -129 49.5 -245t133 -200t200 -133.5t244.5 -49.5zM763 340q-32 0 -51 23t-12 54l24 120h-45q-26 0 -42.5 17t-16.5 44q0 31 20.5 51t51.5 20h59l25 122h-46q-25 0 -41.5 17.5
t-16.5 43.5q0 31 20 51.5t51 20.5h60l26 126q10 61 75 61q32 0 51 -23t13 -54l-23 -110h114l25 126q12 61 76 61q32 0 51 -23t13 -54l-22 -110h46q26 0 42.5 -17.5t16.5 -44.5q0 -31 -20.5 -51t-51.5 -20h-59l-25 -122h45q26 0 42.5 -17t16.5 -44q0 -31 -20.5 -51t-51.5 -20
h-60l-28 -135q-12 -62 -78 -62q-32 0 -50 22.5t-12 54.5l24 119h-112l-28 -134q-14 -62 -76 -62zM881 652h135l30 151h-135z" />
    <glyph glyph-name="uni10005B.small" unicode="&#x23;&#x20dd;&#x25cf;" 
d="M964 -102q-166 0 -318.5 65.5t-263 176.5t-176.5 263.5t-66 318.5t65.5 318.5t176 263t263 176.5t318.5 66t319 -66t263.5 -176.5t176.5 -263t66 -318.5t-66 -318.5t-176.5 -263.5t-263 -176.5t-318.5 -65.5zM753 321q66 0 80 65l29 141h118l-26 -125q-6 -34 13 -57.5
t53 -23.5q70 0 83 66l29 141h62q34 0 55 21t21 54q0 29 -17 46.5t-45 17.5h-47l26 127h62q33 0 54.5 21.5t21.5 54.5q0 28 -17.5 46.5t-44.5 18.5h-49l24 115q7 33 -13.5 57t-54.5 24q-68 0 -80 -65l-27 -131h-118l23 115q7 33 -13 57t-54 24q-68 0 -80 -65l-27 -131h-62
q-33 0 -54.5 -21.5t-21.5 -54.5q0 -28 17.5 -46.5t44.5 -18.5h48l-26 -127h-62q-34 0 -55 -21.5t-21 -53.5q0 -28 17.5 -46t44.5 -18h48l-26 -126q-7 -34 12.5 -57.5t54.5 -23.5zM877 649l32 158h141l-32 -158h-141z" />
    <glyph glyph-name="uni1000EA.small" unicode="&#x23;&#x20de;" horiz-adv-x="1891" 
d="M473 -24q-134 0 -203.5 68.5t-69.5 201.5v950q0 133 69.5 201.5t203.5 68.5h944q134 0 204 -68.5t70 -201.5v-950q0 -133 -70 -201.5t-204 -68.5h-944zM489 166h912q99 0 99 100v910q0 100 -99 100h-912q-98 0 -98 -100v-910q0 -100 98 -100zM745 341q-32 0 -51 22.5
t-12 54.5l24 119h-45q-26 0 -42.5 17.5t-16.5 43.5q0 31 20 51.5t51 20.5h60l25 121h-46q-25 0 -41.5 17.5t-16.5 44.5q0 31 20 51t51 20h60l25 126q12 62 76 62q32 0 51 -23t13 -54l-23 -111h114l25 126q12 62 76 62q32 0 51 -23t13 -54l-22 -111h46q26 0 42.5 -17
t16.5 -44q0 -31 -20.5 -51.5t-51.5 -20.5h-59l-26 -121h46q26 0 42.5 -17t16.5 -44q0 -31 -20.5 -51.5t-51.5 -20.5h-60l-28 -134q-12 -62 -78 -62q-32 0 -50.5 22.5t-11.5 53.5l24 120h-113l-27 -135q-13 -61 -76 -61zM863 653h134l31 151h-135z" />
    <glyph glyph-name="uni1000EB.small" unicode="&#x23;&#x20de;&#x25a0;" horiz-adv-x="1891" 
d="M473 -24q-134 0 -203.5 68.5t-69.5 201.5v950q0 133 69.5 201.5t203.5 68.5h944q134 0 204 -68.5t70 -201.5v-950q0 -133 -70 -201.5t-204 -68.5h-944zM738 321q66 0 80 65l29 141h118l-26 -125q-6 -34 13 -57.5t53 -23.5q69 0 83 66l29 141h62q33 0 54.5 21t21.5 54
q0 29 -17 46.5t-45 17.5h-47l26 127h62q33 0 54.5 21.5t21.5 54.5q0 28 -17.5 46.5t-44.5 18.5h-49l24 115q7 33 -13.5 57t-54.5 24q-68 0 -80 -65l-27 -131h-118l23 115q7 33 -13 57t-54 24q-68 0 -80 -65l-27 -131h-62q-33 0 -54.5 -21.5t-21.5 -54.5q0 -28 17.5 -46.5
t44.5 -18.5h48l-26 -127h-62q-33 0 -54.5 -21.5t-21.5 -53.5q0 -28 17.5 -46t44.5 -18h48l-26 -126q-7 -34 12.5 -57.5t54.5 -23.5zM862 649l32 158h141l-32 -158h-141z" />
    <glyph glyph-name="uni100060.small" unicode="&#x2717;&#x20dd;" 
d="M964 -102q-166 0 -318.5 65.5t-263 176.5t-176.5 263.5t-66 318.5t65.5 318.5t176 263t263 176.5t318.5 66t319 -66t263.5 -176.5t176.5 -263t66 -318.5t-66 -318.5t-176.5 -263.5t-263 -176.5t-318.5 -65.5zM964 94q171 0 315.5 83.5t228.5 228t84 316.5
q0 128 -50 244.5t-134 200t-200 133t-245 49.5q-171 0 -315 -83.5t-227.5 -228t-83.5 -315.5q0 -129 49.5 -245t133 -200t200 -133.5t244.5 -49.5zM717 391q-35 0 -59 24.5t-24 59.5q0 33 25 58l187 187l-187 188q-25 23 -25 57q0 35 24 59t59 24q37 0 59 -24l187 -186
l189 187q25 25 59 25q35 0 59.5 -24.5t24.5 -59.5q0 -32 -25 -57l-188 -189l187 -187q25 -25 25 -58q0 -35 -24 -59.5t-59 -24.5q-36 0 -61 25l-187 186l-185 -186q-24 -25 -61 -25z" />
    <glyph glyph-name="uni100061.small" unicode="&#x2717;&#x20dd;&#x25cf;" 
d="M964 -102q-166 0 -318.5 65.5t-263 176.5t-176.5 263.5t-66 318.5t65.5 318.5t176 263t263 176.5t318.5 66t319 -66t263.5 -176.5t176.5 -263t66 -318.5t-66 -318.5t-176.5 -263.5t-263 -176.5t-318.5 -65.5zM705 375q37 0 64 25l194 196l196 -196q27 -25 64 -25t62.5 26
t25.5 63q0 33 -26 61l-196 196l196 197q26 25 26 61q0 37 -25 62.5t-62 25.5t-63 -26l-198 -196l-196 195q-24 25 -62 25q-37 0 -62.5 -25t-25.5 -62q0 -35 26 -61l196 -196l-196 -197q-26 -26 -26 -60q0 -37 25.5 -63t62.5 -26z" />
    <glyph glyph-name="uni1000F1.small" unicode="&#x2717;&#x20de;&#x25a0;" horiz-adv-x="1891" 
d="M473 -24q-134 0 -203.5 68.5t-69.5 201.5v950q0 133 69.5 201.5t203.5 68.5h944q134 0 204 -68.5t70 -201.5v-950q0 -133 -70 -201.5t-204 -68.5h-944zM690 375q37 0 64 25l194 196l196 -196q27 -25 64 -25t62.5 26t25.5 63q0 33 -26 61l-196 196l196 197q26 25 26 61
q0 37 -25 62.5t-62 25.5t-63 -26l-198 -196l-196 195q-24 25 -62 25q-37 0 -62.5 -25t-25.5 -62q0 -35 26 -61l196 -196l-196 -197q-26 -26 -26 -60q0 -37 25.5 -63t62.5 -26z" />
    <glyph glyph-name="uni100062.small" unicode="&#x2713;&#x20dd;" 
d="M964 -102q-166 0 -318.5 65.5t-263 176.5t-176.5 263.5t-66 318.5t65.5 318.5t176 263t263 176.5t318.5 66t319 -66t263.5 -176.5t176.5 -263t66 -318.5t-66 -318.5t-176.5 -263.5t-263 -176.5t-318.5 -65.5zM964 94q171 0 315.5 83.5t228.5 228t84 316.5
q0 128 -50 244.5t-134 200t-200 133t-245 49.5q-171 0 -315 -83.5t-227.5 -228t-83.5 -315.5q0 -129 49.5 -245t133 -200t200 -133.5t244.5 -49.5zM880 349q-48 0 -84 45l-173 210q-23 31 -23 61q0 34 23.5 58t57.5 24q40 0 69 -37l127 -163l290 465q30 46 72 46
q34 0 59 -21.5t25 -54.5q0 -29 -22 -61l-341 -526q-29 -46 -80 -46z" />
    <glyph glyph-name="uni100063.small" unicode="&#x2713;&#x20dd;&#x25cf;" 
d="M964 -102q-166 0 -318.5 65.5t-263 176.5t-176.5 263.5t-66 318.5t65.5 318.5t176 263t263 176.5t318.5 66t319 -66t263.5 -176.5t176.5 -263t66 -318.5t-66 -318.5t-176.5 -263.5t-263 -176.5t-318.5 -65.5zM876 330q53 0 85 49l358 553q23 35 23 63q0 36 -26.5 58.5
t-62.5 22.5q-46 0 -76 -49l-304 -487l-133 170q-31 39 -73 39q-36 0 -61 -25t-25 -61q0 -33 25 -65l181 -220q39 -48 89 -48z" />
    <glyph glyph-name="uni1000F3.small" unicode="&#x2713;&#x20de;&#x25a0;" horiz-adv-x="1891" 
d="M473 -24q-134 0 -203.5 68.5t-69.5 201.5v950q0 133 69.5 201.5t203.5 68.5h944q134 0 204 -68.5t70 -201.5v-950q0 -133 -70 -201.5t-204 -68.5h-944zM861 330q53 0 85 49l358 553q23 35 23 63q0 36 -26.5 58.5t-62.5 22.5q-46 0 -76 -49l-304 -487l-133 170
q-31 39 -73 39q-36 0 -61 -25t-25 -61q0 -33 25 -65l181 -220q39 -48 89 -48z" />
    <glyph glyph-name="uni10006A.small" unicode="&#x25c0;&#x20dd;" 
d="M964 -102q-166 0 -318.5 65.5t-263 176.5t-176.5 263.5t-66 318.5t65.5 318.5t176 263t263 176.5t318.5 66t319 -66t263.5 -176.5t176.5 -263t66 -318.5t-66 -318.5t-176.5 -263.5t-263 -176.5t-318.5 -65.5zM964 94q171 0 315.5 83.5t228.5 228t84 316.5
q0 128 -50 244.5t-134 200t-200 133t-245 49.5q-171 0 -315 -83.5t-227.5 -228t-83.5 -315.5q0 -129 49.5 -245t133 -200t200 -133.5t244.5 -49.5zM643 676q-25 15 -25 45.5t25 44.5l454 265q28 17 56.5 4.5t28.5 -42.5v-544q0 -31 -28 -43t-57 5z" />
    <glyph glyph-name="uni10006B.small" unicode="&#x25c0;&#x20dd;&#x25cf;" 
d="M964 -102q-166 0 -318.5 65.5t-263 176.5t-176.5 263.5t-66 318.5t65.5 318.5t176 263t263 176.5t318.5 66t319 -66t263.5 -176.5t176.5 -263t66 -318.5t-66 -318.5t-176.5 -263.5t-263 -176.5t-318.5 -65.5zM630 674l477 -279q31 -17 60 -4t29 44v573q0 31 -30 44
t-59 -4l-477 -279q-27 -16 -27 -47.5t27 -47.5z" />
    <glyph glyph-name="uni1000FA.small" unicode="&#x25c0;&#x20de;" horiz-adv-x="1891" 
d="M473 -24q-134 0 -203.5 68.5t-69.5 201.5v950q0 133 69.5 201.5t203.5 68.5h944q134 0 204 -68.5t70 -201.5v-950q0 -133 -70 -201.5t-204 -68.5h-944zM489 166h912q99 0 99 100v910q0 100 -99 100h-912q-98 0 -98 -100v-910q0 -100 98 -100zM625 676q-25 15 -25 45.5
t25 44.5l454 266q27 16 55.5 4t28.5 -42v-545q0 -30 -27.5 -42t-56.5 5z" />
    <glyph glyph-name="uni1000FB.small" unicode="&#x25c0;&#x20de;&#x25a0;" horiz-adv-x="1891" 
d="M473 -24q-134 0 -203.5 68.5t-69.5 201.5v950q0 133 69.5 201.5t203.5 68.5h944q134 0 204 -68.5t70 -201.5v-950q0 -133 -70 -201.5t-204 -68.5h-944zM615 674l477 -279q31 -17 60 -4t29 44v573q0 31 -30.5 44t-58.5 -4l-477 -279q-27 -16 -27 -47.5t27 -47.5z" />
    <glyph glyph-name="uni10006C.small" unicode="&#x25b6;&#x20dd;" 
d="M964 -102q-166 0 -318.5 65.5t-263 176.5t-176.5 263.5t-66 318.5t65.5 318.5t176 263t263 176.5t318.5 66t319 -66t263.5 -176.5t176.5 -263t66 -318.5t-66 -318.5t-176.5 -263.5t-263 -176.5t-318.5 -65.5zM964 94q171 0 315.5 83.5t228.5 228t84 316.5
q0 128 -50 244.5t-134 200t-200 133t-245 49.5q-171 0 -315 -83.5t-227.5 -228t-83.5 -315.5q0 -129 49.5 -245t133 -200t200 -133.5t244.5 -49.5zM1271 676l-454 -265q-29 -17 -57 -5t-28 43v544q0 30 28.5 42.5t56.5 -4.5l454 -265q25 -15 25 -45t-25 -45z" />
    <glyph glyph-name="uni10006D.small" unicode="&#x25b6;&#x20dd;&#x25cf;" 
d="M964 -102q-166 0 -318.5 65.5t-263 176.5t-176.5 263.5t-66 318.5t65.5 318.5t176 263t263 176.5t318.5 66t319 -66t263.5 -176.5t176.5 -263t66 -318.5t-66 -318.5t-176.5 -263.5t-263 -176.5t-318.5 -65.5zM1286 674q28 16 27.5 47.5t-27.5 47.5l-477 279
q-29 17 -58.5 4t-29.5 -44v-573q0 -32 28.5 -45t59.5 5z" />
    <glyph glyph-name="uni1000FC.small" unicode="&#x25b6;&#x20de;" horiz-adv-x="1891" 
d="M473 -24q-134 0 -203.5 68.5t-69.5 201.5v950q0 133 69.5 201.5t203.5 68.5h944q134 0 204 -68.5t70 -201.5v-950q0 -133 -70 -201.5t-204 -68.5h-944zM489 166h912q99 0 99 100v910q0 100 -99 100h-912q-98 0 -98 -100v-910q0 -100 98 -100zM1253 676l-455 -264
q-28 -18 -56 -5.5t-28 42.5v545q0 30 28.5 42t55.5 -4l455 -266q25 -15 25 -45t-25 -45z" />
    <glyph glyph-name="uni1000FD.small" unicode="&#x25b6;&#x20de;&#x25a0;" horiz-adv-x="1891" 
d="M473 -24q-134 0 -203.5 68.5t-69.5 201.5v950q0 133 69.5 201.5t203.5 68.5h944q134 0 204 -68.5t70 -201.5v-950q0 -133 -70 -201.5t-204 -68.5h-944zM1271 674q28 16 27.5 47.5t-27.5 47.5l-477 279q-28 17 -58 4t-30 -44v-573q0 -32 28.5 -45t59.5 5z" />
    <glyph glyph-name="uni100066.small" unicode="&#x25b2;&#x20dd;" 
d="M964 -102q-166 0 -318.5 65.5t-263 176.5t-176.5 263.5t-66 318.5t65.5 318.5t176 263t263 176.5t318.5 66t319 -66t263.5 -176.5t176.5 -263t66 -318.5t-66 -318.5t-176.5 -263.5t-263 -176.5t-318.5 -65.5zM964 94q171 0 315.5 83.5t228.5 228t84 316.5
q0 128 -50 244.5t-134 200t-200 133t-245 49.5q-171 0 -315 -83.5t-227.5 -228t-83.5 -315.5q0 -129 49.5 -245t133 -200t200 -133.5t244.5 -49.5zM1233 478h-539q-30 0 -41.5 28t4.5 55l262 448q15 26 44.5 26t45.5 -26l261 -448q17 -29 5 -56t-42 -27z" />
    <glyph glyph-name="uni100067.small" unicode="&#x25b2;&#x20dd;&#x25cf;" 
d="M964 -102q-166 0 -318.5 65.5t-263 176.5t-176.5 263.5t-66 318.5t65.5 318.5t176 263t263 176.5t318.5 66t319 -66t263.5 -176.5t176.5 -263t66 -318.5t-66 -318.5t-176.5 -263.5t-263 -176.5t-318.5 -65.5zM1247 464q31 0 43 28.5t-5 58.5l-274 472q-17 27 -48 26.5
t-47 -26.5l-275 -472q-17 -29 -4 -58t43 -29h567z" />
    <glyph glyph-name="uni1000F6.small" unicode="&#x25b2;&#x20de;" horiz-adv-x="1891" 
d="M473 -24q-134 0 -203.5 68.5t-69.5 201.5v950q0 133 69.5 201.5t203.5 68.5h944q134 0 204 -68.5t70 -201.5v-950q0 -133 -70 -201.5t-204 -68.5h-944zM489 166h912q99 0 99 100v910q0 100 -99 100h-912q-98 0 -98 -100v-910q0 -100 98 -100zM1215 478h-539
q-30 0 -41.5 28t4.5 55l262 449q15 25 44.5 25t45.5 -25l260 -449q17 -29 5.5 -56t-41.5 -27z" />
    <glyph glyph-name="uni1000F7.small" unicode="&#x25b2;&#x20de;&#x25a0;" horiz-adv-x="1891" 
d="M473 -24q-134 0 -203.5 68.5t-69.5 201.5v950q0 133 69.5 201.5t203.5 68.5h944q134 0 204 -68.5t70 -201.5v-950q0 -133 -70 -201.5t-204 -68.5h-944zM1232 464q31 0 43 28.5t-5 58.5l-274 472q-17 27 -48 26.5t-47 -26.5l-275 -472q-17 -29 -4 -58t43 -29h567z" />
    <glyph glyph-name="uni100068.small" unicode="&#x25bc;&#x20dd;" 
d="M964 -102q-166 0 -318.5 65.5t-263 176.5t-176.5 263.5t-66 318.5t65.5 318.5t176 263t263 176.5t318.5 66t319 -66t263.5 -176.5t176.5 -263t66 -318.5t-66 -318.5t-176.5 -263.5t-263 -176.5t-318.5 -65.5zM964 94q171 0 315.5 83.5t228.5 228t84 316.5
q0 128 -50 244.5t-134 200t-200 133t-245 49.5q-171 0 -315 -83.5t-227.5 -228t-83.5 -315.5q0 -129 49.5 -245t133 -200t200 -133.5t244.5 -49.5zM1233 958q30 0 42 -27t-5 -55l-261 -449q-15 -26 -45 -26t-45 26l-262 449q-16 26 -4 54t41 28h539z" />
    <glyph glyph-name="uni100069.small" unicode="&#x25bc;&#x20dd;&#x25cf;" 
d="M964 -102q-166 0 -318.5 65.5t-263 176.5t-176.5 263.5t-66 318.5t65.5 318.5t176 263t263 176.5t318.5 66t319 -66t263.5 -176.5t176.5 -263t66 -318.5t-66 -318.5t-176.5 -263.5t-263 -176.5t-318.5 -65.5zM1246 973h-566q-31 0 -43.5 -29.5t3.5 -57.5l276 -472
q15 -27 46.5 -27t47.5 27l274 472q17 30 5 58.5t-43 28.5z" />
    <glyph glyph-name="uni1000F8.small" unicode="&#x25bc;&#x20de;" horiz-adv-x="1891" 
d="M473 -24q-134 0 -203.5 68.5t-69.5 201.5v950q0 133 69.5 201.5t203.5 68.5h944q134 0 204 -68.5t70 -201.5v-950q0 -133 -70 -201.5t-204 -68.5h-944zM489 166h912q99 0 99 100v910q0 100 -99 100h-912q-98 0 -98 -100v-910q0 -100 98 -100zM1215 959q30 0 41.5 -27.5
t-5.5 -55.5l-260 -449q-16 -25 -46 -25t-44 25l-262 449q-16 27 -4.5 55t41.5 28h539z" />
    <glyph glyph-name="uni1000F9.small" unicode="&#x25bc;&#x20de;&#x25a0;" horiz-adv-x="1891" 
d="M473 -24q-134 0 -203.5 68.5t-69.5 201.5v950q0 133 69.5 201.5t203.5 68.5h944q134 0 204 -68.5t70 -201.5v-950q0 -133 -70 -201.5t-204 -68.5h-944zM1231 973h-566q-31 0 -43.5 -29.5t3.5 -57.5l276 -472q15 -27 46.5 -27t47.5 27l274 472q17 30 5 58.5t-43 28.5z" />
    <glyph glyph-name="uni1000C8.small" unicode="&#x30;&#x20de;" horiz-adv-x="1891" 
d="M473 -24q-134 0 -203.5 68.5t-69.5 201.5v950q0 133 69.5 201.5t203.5 68.5h944q134 0 204 -68.5t70 -201.5v-950q0 -133 -70 -201.5t-204 -68.5h-944zM489 166h912q99 0 99 100v910q0 100 -99 100h-912q-98 0 -98 -100v-910q0 -100 98 -100zM944 352q-133 0 -213 101
t-80 269t80 269t213 101t214.5 -101t81.5 -269t-81.5 -269t-214.5 -101zM945 493q55 0 88 60.5t33 168.5t-33 168.5t-88 60.5t-87.5 -60t-32.5 -169t32.5 -169t87.5 -60z" />
    <glyph glyph-name="uni1000C9.small" unicode="&#x30;&#x20de;&#x25a0;" horiz-adv-x="1891" 
d="M473 -24q-134 0 -203.5 68.5t-69.5 201.5v950q0 133 69.5 201.5t203.5 68.5h944q134 0 204 -68.5t70 -201.5v-950q0 -133 -70 -201.5t-204 -68.5h-944zM947 342q137 0 220 104t83 276t-83 276t-220 104q-136 0 -218 -103.5t-82 -276.5t82 -276.5t218 -103.5zM948 486
q-56 0 -90 62.5t-34 173.5t34 173.5t90 62.5q57 0 91 -62.5t34 -173.5t-34 -173.5t-91 -62.5z" />
    <glyph glyph-name="uni1000CA.small" unicode="&#x31;&#x20de;" horiz-adv-x="1891" 
d="M473 -24q-134 0 -203.5 68.5t-69.5 201.5v950q0 133 69.5 201.5t203.5 68.5h944q134 0 204 -68.5t70 -201.5v-950q0 -133 -70 -201.5t-204 -68.5h-944zM489 166h912q99 0 99 100v910q0 100 -99 100h-912q-98 0 -98 -100v-910q0 -100 98 -100zM993 365q-43 0 -67 25
t-24 74v431h-7l-79 -52q-26 -18 -50 -18q-26 0 -43.5 18.5t-17.5 45.5q0 40 37 64l127 86q59 40 115 40q47 0 74 -26.5t27 -72.5v-516q0 -49 -24 -74t-68 -25z" />
    <glyph glyph-name="uni1000CB.small" unicode="&#x31;&#x20de;&#x25a0;" horiz-adv-x="1891" 
d="M473 -24q-134 0 -203.5 68.5t-69.5 201.5v950q0 133 69.5 201.5t203.5 68.5h944q134 0 204 -68.5t70 -201.5v-950q0 -133 -70 -201.5t-204 -68.5h-944zM999 347q46 0 72 26.5t26 77.5v542q0 48 -29.5 76.5t-78.5 28.5q-59 0 -122 -43l-133 -90q-40 -27 -40 -68
q0 -28 19 -48t46 -20q26 0 54 20l83 54h6v-452q0 -51 26 -77.5t71 -26.5z" />
    <glyph glyph-name="uni1000CC.small" unicode="&#x32;&#x20de;" horiz-adv-x="1891" 
d="M473 -24q-134 0 -203.5 68.5t-69.5 201.5v950q0 133 69.5 201.5t203.5 68.5h944q134 0 204 -68.5t70 -201.5v-950q0 -133 -70 -201.5t-204 -68.5h-944zM489 166h912q99 0 99 100v910q0 100 -99 100h-912q-98 0 -98 -100v-910q0 -100 98 -100zM768 371q-35 0 -56 19.5
t-21 51.5q0 41 34 72l224 223q45 43 67 72.5t22 61.5q0 36 -25.5 58t-66.5 22q-27 0 -49.5 -12.5t-33.5 -26t-25 -35.5q-11 -15 -19 -23t-22.5 -15t-32.5 -7q-34 0 -55 18t-21 50q0 21 7 39q23 67 93 110t159 43q117 0 189 -56.5t72 -149.5q0 -59 -30.5 -108.5t-94.5 -111.5
l-142 -143v-6h221q36 0 57 -19.5t21 -53.5t-21.5 -53.5t-56.5 -19.5h-394z" />
    <glyph glyph-name="uni1000CD.small" unicode="&#x32;&#x20de;&#x25a0;" horiz-adv-x="1891" 
d="M473 -24q-134 0 -203.5 68.5t-69.5 201.5v950q0 133 69.5 201.5t203.5 68.5h944q134 0 204 -68.5t70 -201.5v-950q0 -133 -70 -201.5t-204 -68.5h-944zM762 353h414q38 0 60.5 21t22.5 57t-22 56t-61 20h-230v6l147 150q67 64 99.5 116.5t32.5 114.5q0 98 -75.5 157.5
t-199.5 59.5q-94 0 -168 -45.5t-97 -115.5q-8 -19 -8 -41q0 -34 22 -53.5t59 -19.5q27 0 44 12.5t34 35.5q15 23 27 37t35 27t51 13q43 0 69.5 -22.5t26.5 -60.5q0 -33 -23 -64t-70 -76l-235 -234q-37 -33 -37 -76q0 -34 22.5 -54.5t59.5 -20.5z" />
    <glyph glyph-name="uni1000CE.small" unicode="&#x33;&#x20de;" horiz-adv-x="1891" 
d="M473 -24q-134 0 -203.5 68.5t-69.5 201.5v950q0 133 69.5 201.5t203.5 68.5h944q134 0 204 -68.5t70 -201.5v-950q0 -133 -70 -201.5t-204 -68.5h-944zM489 166h912q99 0 99 100v910q0 100 -99 100h-912q-98 0 -98 -100v-910q0 -100 98 -100zM943 352q-100 0 -173.5 41
t-93.5 107q-6 19 -6 36q0 32 21.5 52t56.5 20q48 0 73 -45q34 -73 125 -73q52 0 83.5 23t31.5 62q0 40 -31.5 64t-84.5 24h-34q-33 0 -53.5 18.5t-20.5 48.5q0 31 20 49t54 18h31q44 0 72 23.5t28 61.5q0 35 -25.5 55t-70.5 20q-83 0 -115 -73q-23 -45 -72 -45q-35 0 -56 19
t-21 51q0 22 5 38q20 67 89.5 106t171.5 39q118 0 191 -53t73 -138q0 -58 -40 -103.5t-96 -53.5v-8q68 -6 113 -54.5t45 -116.5q0 -96 -78.5 -154.5t-212.5 -58.5z" />
    <glyph glyph-name="uni1000CF.small" unicode="&#x33;&#x20de;&#x25a0;" horiz-adv-x="1891" 
d="M473 -24q-134 0 -203.5 68.5t-69.5 201.5v950q0 133 69.5 201.5t203.5 68.5h944q134 0 204 -68.5t70 -201.5v-950q0 -133 -70 -201.5t-204 -68.5h-944zM946 333q142 0 224 61.5t82 163.5q0 71 -47 121.5t-119 57.5v8q60 8 101.5 56t41.5 109q0 89 -76.5 145t-200.5 56
q-108 0 -181.5 -40.5t-93.5 -111.5q-6 -21 -6 -40q0 -34 22.5 -54.5t59.5 -20.5q51 0 76 48q33 76 121 76q47 0 73.5 -20.5t26.5 -57.5q0 -39 -29 -63.5t-75 -24.5h-34q-35 0 -56 -19.5t-21 -52.5q0 -32 21.5 -51.5t55.5 -19.5h36q55 0 88 -25t33 -67q0 -40 -33 -64t-86 -24
q-94 0 -132 76q-25 48 -76 48q-37 0 -60 -21t-23 -55q0 -18 6 -39q20 -69 98 -112t183 -43z" />
    <glyph glyph-name="uni1000D0.small" unicode="&#x34;&#x20de;" horiz-adv-x="1891" 
d="M473 -24q-134 0 -203.5 68.5t-69.5 201.5v950q0 133 69.5 201.5t203.5 68.5h944q134 0 204 -68.5t70 -201.5v-950q0 -133 -70 -201.5t-204 -68.5h-944zM489 166h912q99 0 99 100v910q0 100 -99 100h-912q-98 0 -98 -100v-910q0 -100 98 -100zM1050 365q-37 0 -57.5 22.5
t-20.5 63.5v44h-248q-50 0 -80 28t-30 74q0 42 25 92q46 78 193 307q32 52 69.5 74t96.5 22q57 0 94 -32t37 -82v-342h37q35 0 55.5 -19t20.5 -51t-20.5 -51.5t-55.5 -19.5h-37v-44q0 -42 -21 -64t-58 -22zM972 636v325h-7q-151 -245 -192 -320v-5h199z" />
    <glyph glyph-name="uni1000D1.small" unicode="&#x34;&#x20de;&#x25a0;" horiz-adv-x="1891" 
d="M473 -24q-134 0 -203.5 68.5t-69.5 201.5v950q0 133 69.5 201.5t203.5 68.5h944q134 0 204 -68.5t70 -201.5v-950q0 -133 -70 -201.5t-204 -68.5h-944zM1058 346q40 0 62 23.5t22 67.5v46h39q36 0 57.5 20t21.5 54q0 35 -21 55t-58 20h-39v358q0 53 -39 87t-100 34
q-62 0 -101.5 -23t-73.5 -78q-149 -232 -201 -322q-27 -49 -27 -98t31.5 -78t83.5 -29h260v-46q0 -44 22 -67.5t61 -23.5zM975 632h-207v5q63 115 201 335h6v-340z" />
    <glyph glyph-name="uni1000D2.small" unicode="&#x35;&#x20de;" horiz-adv-x="1891" 
d="M473 -24q-134 0 -203.5 68.5t-69.5 201.5v950q0 133 69.5 201.5t203.5 68.5h944q134 0 204 -68.5t70 -201.5v-950q0 -133 -70 -201.5t-204 -68.5h-944zM489 166h912q99 0 99 100v910q0 100 -99 100h-912q-98 0 -98 -100v-910q0 -100 98 -100zM941 352q-100 0 -168.5 32.5
t-92.5 89.5q-10 23 -10 44q0 31 20.5 50t54.5 19q45 0 74 -37q42 -61 117 -61q51 0 84.5 33t33.5 83t-29 80t-77 30q-42 0 -84 -29q-43 -29 -89 -29q-47 0 -72 26t-22 72l17 223q3 43 32 69t75 26h322q32 0 51 -18t19 -48t-19 -48t-51 -18h-288l-14 -166h8q18 29 61.5 47.5
t92.5 18.5q107 0 173.5 -64t66.5 -169q0 -117 -78 -186.5t-208 -69.5z" />
    <glyph glyph-name="uni1000D3.small" unicode="&#x35;&#x20de;&#x25a0;" horiz-adv-x="1891" 
d="M473 -24q-134 0 -203.5 68.5t-69.5 201.5v950q0 133 69.5 201.5t203.5 68.5h944q134 0 204 -68.5t70 -201.5v-950q0 -133 -70 -201.5t-204 -68.5h-944zM944 333q137 0 219.5 73.5t82.5 196.5q0 109 -70 176.5t-183 67.5q-52 0 -97.5 -19t-64.5 -50h-9l15 173h303
q33 0 53.5 19.5t20.5 50.5q0 32 -20 51t-54 19h-339q-49 0 -79.5 -27.5t-32.5 -72.5l-18 -234q-4 -49 22.5 -76.5t76.5 -27.5q48 0 94 31t88 31q49 0 79.5 -32t30.5 -84t-35 -86.5t-88 -34.5q-79 0 -123 64q-28 38 -77 38q-37 0 -58.5 -19.5t-21.5 -52.5q0 -22 10 -47
q26 -60 98 -94t177 -34z" />
    <glyph glyph-name="uni1000D4.small" unicode="&#x36;&#x20de;" horiz-adv-x="1891" 
d="M473 -24q-134 0 -203.5 68.5t-69.5 201.5v950q0 133 69.5 201.5t203.5 68.5h944q134 0 204 -68.5t70 -201.5v-950q0 -133 -70 -201.5t-204 -68.5h-944zM489 166h912q99 0 99 100v910q0 100 -99 100h-912q-98 0 -98 -100v-910q0 -100 98 -100zM952 352q-169 0 -246 123
q-56 87 -56 239q0 185 85 281.5t237 96.5q75 0 135 -28t83 -72q13 -23 13 -47q0 -27 -19 -44.5t-48 -17.5q-24 0 -40.5 8.5t-39.5 28.5q-41 37 -87 37q-66 0 -106.5 -56.5t-40.5 -147.5v-16h8q21 40 66.5 67t110.5 27q97 0 164 -60t67 -163q0 -120 -78.5 -188t-207.5 -68z
M944 484q53 0 84.5 32.5t31.5 85.5q0 51 -32 83t-84 32t-84 -32t-32 -82q0 -52 32.5 -85.5t83.5 -33.5z" />
    <glyph glyph-name="uni1000D5.small" unicode="&#x36;&#x20de;&#x25a0;" horiz-adv-x="1891" 
d="M473 -24q-134 0 -203.5 68.5t-69.5 201.5v950q0 133 69.5 201.5t203.5 68.5h944q134 0 204 -68.5t70 -201.5v-950q0 -133 -70 -201.5t-204 -68.5h-944zM956 333q135 0 217.5 72t82.5 197q0 109 -69.5 172t-172.5 63q-68 0 -116.5 -28.5t-69.5 -71.5h-8q0 4 -0.5 10
t-0.5 9q0 95 42.5 153.5t111.5 58.5q21 0 39.5 -6.5t28 -12.5t24.5 -19q17 -14 26.5 -21t25 -12.5t32.5 -5.5q31 0 51 18.5t20 47.5q0 25 -14 50q-24 46 -87 75t-142 29q-160 0 -249.5 -101t-89.5 -296q0 -159 59 -252q81 -129 259 -129zM947 472q-53 0 -87 35t-34 90
q0 52 34 85.5t87 33.5q54 0 88 -33.5t34 -86.5q0 -56 -33.5 -90t-88.5 -34z" />
    <glyph glyph-name="uni1000D6.small" unicode="&#x37;&#x20de;" horiz-adv-x="1891" 
d="M473 -24q-134 0 -203.5 68.5t-69.5 201.5v950q0 133 69.5 201.5t203.5 68.5h944q134 0 204 -68.5t70 -201.5v-950q0 -133 -70 -201.5t-204 -68.5h-944zM489 166h912q99 0 99 100v910q0 100 -99 100h-912q-98 0 -98 -100v-910q0 -100 98 -100zM855 352q-39 0 -64 22
t-25 57q0 30 16 55l256 439v8h-290q-34 0 -54 19t-20 51t20 51t54 19h370q53 0 84 -28t31 -74q0 -41 -27 -89l-264 -469q-19 -34 -38.5 -47.5t-48.5 -13.5z" />
    <glyph glyph-name="uni1000D7.small" unicode="&#x37;&#x20de;&#x25a0;" horiz-adv-x="1891" 
d="M473 -24q-134 0 -203.5 68.5t-69.5 201.5v950q0 133 69.5 201.5t203.5 68.5h944q134 0 204 -68.5t70 -201.5v-950q0 -133 -70 -201.5t-204 -68.5h-944zM853 333q31 0 52 14.5t41 49.5l277 492q29 51 29 94q0 48 -33 78t-89 30h-390q-35 0 -56.5 -20.5t-21.5 -54.5
t21.5 -54t56.5 -20h305v-7l-269 -460q-16 -28 -16 -58q0 -38 26 -61t67 -23z" />
    <glyph glyph-name="uni1000D8.small" unicode="&#x38;&#x20de;" horiz-adv-x="1891" 
d="M473 -24q-134 0 -203.5 68.5t-69.5 201.5v950q0 133 69.5 201.5t203.5 68.5h944q134 0 204 -68.5t70 -201.5v-950q0 -133 -70 -201.5t-204 -68.5h-944zM489 166h912q99 0 99 100v910q0 100 -99 100h-912q-98 0 -98 -100v-910q0 -100 98 -100zM944 352q-137 0 -219 57.5
t-82 154.5q0 67 43.5 114.5t116.5 59.5v7q-63 19 -96 59t-33 97q0 86 74.5 138.5t196.5 52.5t197 -52.5t75 -138.5q0 -57 -34 -98t-96 -58v-7q73 -12 116.5 -59.5t43.5 -113.5q0 -97 -82.5 -155t-220.5 -58zM945 792q44 0 72.5 26t28.5 65t-28.5 64t-72.5 25t-72 -25
t-28 -64t28.5 -65t71.5 -26zM946 472q53 0 87 29.5t34 75.5q0 45 -34 74.5t-87 29.5q-52 0 -87 -30t-35 -74q0 -46 34.5 -75.5t87.5 -29.5z" />
    <glyph glyph-name="uni1000D9.small" unicode="&#x38;&#x20de;&#x25a0;" horiz-adv-x="1891" 
d="M473 -24q-134 0 -203.5 68.5t-69.5 201.5v950q0 133 69.5 201.5t203.5 68.5h944q134 0 204 -68.5t70 -201.5v-950q0 -133 -70 -201.5t-204 -68.5h-944zM947 333q146 0 233 60.5t87 162.5q0 70 -46 120t-123 63v8q66 18 101.5 60.5t35.5 102.5q0 91 -78.5 146t-208.5 55
q-129 0 -207.5 -55t-78.5 -146q0 -60 35.5 -102t101.5 -61v-8q-77 -13 -123 -63t-46 -120q0 -102 86 -162.5t231 -60.5zM948 796q-45 0 -75 27t-30 68q0 40 30 66.5t75 26.5q46 0 76 -26.5t30 -66.5q0 -41 -30 -68t-76 -27zM949 460q-55 0 -91 31t-36 78t36 78.5t91 31.5
q56 0 91.5 -31t35.5 -79q0 -47 -36 -78t-91 -31z" />
    <glyph glyph-name="uni1000DA.small" unicode="&#x39;&#x20de;" horiz-adv-x="1891" 
d="M473 -24q-134 0 -203.5 68.5t-69.5 201.5v950q0 133 69.5 201.5t203.5 68.5h944q134 0 204 -68.5t70 -201.5v-950q0 -133 -70 -201.5t-204 -68.5h-944zM489 166h912q99 0 99 100v910q0 100 -99 100h-912q-98 0 -98 -100v-910q0 -100 98 -100zM931 352q-95 0 -155 32.5
t-80 78.5q-7 17 -7 36q0 29 20 48.5t51 19.5q39 0 70 -31q44 -48 100 -48q66 0 105.5 61.5t35.5 160.5h-7q-20 -43 -64 -70.5t-110 -27.5q-99 0 -166 60.5t-67 165.5q0 115 78.5 184.5t206.5 69.5q142 0 220.5 -92.5t78.5 -262.5q0 -186 -80 -285.5t-230 -99.5zM949 728
q51 0 83.5 32t32.5 83q0 52 -33 85.5t-83 33.5q-52 0 -84.5 -33t-32.5 -86q0 -50 32.5 -82.5t84.5 -32.5z" />
    <glyph glyph-name="uni1000DB.small" unicode="&#x39;&#x20de;&#x25a0;" horiz-adv-x="1891" 
d="M473 -24q-134 0 -203.5 68.5t-69.5 201.5v950q0 133 69.5 201.5t203.5 68.5h944q134 0 204 -68.5t70 -201.5v-950q0 -133 -70 -201.5t-204 -68.5h-944zM934 333q157 0 241.5 104.5t84.5 299.5q0 179 -82.5 276.5t-232.5 97.5q-135 0 -217.5 -73t-82.5 -194
q0 -110 70.5 -173.5t174.5 -63.5q69 0 115.5 28.5t66.5 73.5h8q4 -105 -37 -168.5t-110 -63.5q-60 0 -105 50q-32 32 -74 32q-32 0 -53.5 -20.5t-21.5 -51.5q0 -21 8 -37q21 -49 83.5 -83t163.5 -34zM953 729q-54 0 -88.5 33.5t-34.5 86.5q0 56 33.5 90t89.5 34q53 0 87 -35
t34 -89q0 -52 -34 -86t-87 -34z" />
    <glyph glyph-name=".notdef" horiz-adv-x="2048" 
d="M100 1724v226h1848v-226h-1848zM100 1281v225h1848v-225h-1848zM100 837v226h1848v-226h-1848zM100 393v226h1848v-226h-1848zM100 -50v225h1848v-225h-1848zM100 -494v226h1848v-226h-1848z" />
    <glyph glyph-name=".null" horiz-adv-x="0" 
 />
    <glyph glyph-name="nonmarkingreturn" unicode="&#x2029;" horiz-adv-x="0" 
 />
    <glyph glyph-name="nonmarkingreturn" unicode="&#x2028;" horiz-adv-x="0" 
 />
    <glyph glyph-name="space" unicode=" " horiz-adv-x="410" 
 />
    <glyph glyph-name="exclamationmark" unicode="!" horiz-adv-x="611" 
d="M197 483l-20 960h257l-20 -960h-217zM305 -11q-61 0 -103 41t-42 100q0 60 42 100.5t103 40.5q62 0 104 -40.5t42 -100.5q0 -59 -42.5 -100t-103.5 -41z" />
    <glyph glyph-name="quotedbl" unicode="&#x22;" horiz-adv-x="894" 
d="M182 900l-24 543h225l-24 -543h-177zM535 900l-24 543h225l-24 -543h-177z" />
    <glyph glyph-name="numbersign" unicode="#" horiz-adv-x="1282" 
d="M352 0h-195l71 373h-228l37 190h227l63 333h-235l37 190h234l68 357h195l-68 -357h289l69 357h195l-68 -357h240l-37 -190h-239l-63 -333h246l-37 -190h-245l-71 -373h-196l70 373h-289zM447 554h308l67 351h-308z" />
    <glyph glyph-name="dollarsign" unicode="$" horiz-adv-x="1293" 
d="M592 -145v168q-205 12 -335 116t-142 274l-1 14h233l2 -11q31 -171 243 -193v403l-56 12q-198 44 -297 137.5t-99 246.5v2q0 168 125 275.5t327 120.5v168h108v-168q196 -14 318 -116.5t135 -269.5l1 -16h-233l-1 9q-11 81 -68.5 131t-151.5 61v-387l61 -13
q209 -47 309.5 -138t100.5 -248v-2q0 -181 -131 -288.5t-340 -119.5v-168h-108zM381 1040q0 -68 49.5 -113t161.5 -71v364q-100 -11 -155.5 -61t-55.5 -118v-1zM931 411q0 73 -50.5 117t-180.5 74v-380q117 9 174 59t57 128v2z" />
    <glyph glyph-name="percent" unicode="%" horiz-adv-x="1762" 
d="M406 711q-149 0 -234.5 100t-85.5 272v1q0 172 85.5 272t234.5 100q148 0 233 -100t85 -272v-1q0 -172 -85 -272t-233 -100zM524 0h-202l918 1443h200zM406 861q64 0 99 57.5t35 164.5v1q0 107 -35 164.5t-99 57.5q-65 0 -100.5 -57.5t-35.5 -164.5v-1
q0 -107 35.5 -164.5t100.5 -57.5zM1357 -13q-148 0 -233.5 100t-85.5 273v1q0 171 85.5 271t233.5 100t233.5 -100t85.5 -271v-1q0 -173 -85.5 -273t-233.5 -100zM1357 137q65 0 100 58t35 164v1q0 106 -35 164t-100 58t-100.5 -57.5t-35.5 -164.5v-1q0 -107 35.5 -164.5
t100.5 -57.5z" />
    <glyph glyph-name="ampersand" unicode="&#x26;" horiz-adv-x="1413" 
d="M569 -25q-223 0 -359.5 111t-136.5 293v1q0 245 278 394l54 29q-97 109 -136.5 182t-40.5 147v1q0 143 112 237t282 94q169 0 278 -91.5t109 -235.5v-1q0 -109 -71 -198t-230 -175l306 -323q59 135 59 327v45h216v-53q0 -286 -124 -479l260 -275v-5h-284l-114 124
q-183 -149 -458 -149zM449 1121q0 -50 31 -99t111 -135q108 58 155.5 112.5t47.5 122.5v1q0 73 -48 119.5t-124 46.5q-75 0 -124 -47t-49 -120v-1zM311 399q0 -105 78.5 -170t204.5 -65q177 0 298 107l-363 395l-37 -21q-96 -55 -138.5 -113.5t-42.5 -131.5v-1z" />
    <glyph glyph-name="quotesingle" unicode="'" horiz-adv-x="541" 
d="M182 900l-24 543h225l-24 -543h-177z" />
    <glyph glyph-name="parenleft" unicode="(" horiz-adv-x="738" 
d="M477 -350q-150 184 -221 404.5t-71 491.5q0 273 71 493t221 404h224q-111 -129 -185.5 -386t-74.5 -510t74.5 -510t185.5 -387h-224z" />
    <glyph glyph-name="parenright" unicode=")" horiz-adv-x="738" 
d="M261 -350h-224q110 130 185 387.5t75 509.5q0 253 -75 510.5t-185 385.5h224q150 -184 221 -404t71 -493q0 -538 -292 -896z" />
    <glyph glyph-name="asterisk" unicode="*" horiz-adv-x="884" 
d="M359 740l11 224l-180 -118l-85 130l206 109l-206 109l85 130l180 -118l-11 224h165l-11 -224l181 118l84 -130l-205 -108l205 -109l-85 -130l-180 118l11 -225h-165z" />
    <glyph glyph-name="plus" unicode="+" horiz-adv-x="1293" 
d="M117 475v222h419v395h221v-395h420v-222h-420v-395h-221v395h-419z" />
    <glyph glyph-name="comma" unicode="," horiz-adv-x="474" 
d="M40 -295l79 530h241l-146 -530h-174z" />
    <glyph glyph-name="hyphen" unicode="&#x2011;" horiz-adv-x="894" 
d="M124 475v222h645v-222h-645z" />
    <glyph glyph-name="hyphen" unicode="&#x2010;" horiz-adv-x="894" 
d="M124 475v222h645v-222h-645z" />
    <glyph glyph-name="hyphen" unicode="-" horiz-adv-x="894" 
d="M124 475v222h645v-222h-645z" />
    <glyph glyph-name="period" unicode="." horiz-adv-x="474" 
d="M237 -16q-61 0 -103 42t-42 103q0 60 42 102t103 42t102.5 -42t41.5 -102q0 -61 -41.5 -103t-102.5 -42z" />
    <glyph glyph-name="slash" unicode="/" horiz-adv-x="603" 
d="M604 1443l-379 -1793h-225l378 1793h226z" />
    <glyph glyph-name="zero" unicode="0" horiz-adv-x="1306" 
d="M653 -25q-265 0 -416 200.5t-151 545.5v2q0 345 151 545t416 200q264 0 415.5 -200t151.5 -545v-2q0 -345 -151.5 -545.5t-415.5 -200.5zM653 186q145 0 226 142t81 393v2q0 250 -81 391.5t-226 141.5q-146 0 -226.5 -141t-80.5 -392v-2q0 -251 80.5 -393t226.5 -142z
" />
    <glyph glyph-name="one" unicode="1" horiz-adv-x="956" 
d="M471 0v1197h-6l-373 -256v237l377 265h255v-1443h-253z" />
    <glyph glyph-name="two" unicode="2" horiz-adv-x="1207" 
d="M107 0v176l510 497q139 136 184.5 209.5t45.5 155.5v2q-1 97 -67 159t-170 62q-119 0 -196 -70.5t-79 -175.5v-7h-242v7q0 197 147 325t368 128q216 0 353.5 -117t137.5 -296v-2q0 -125 -69.5 -234t-263.5 -295l-318 -302v-11h673v-211h-1014z" />
    <glyph glyph-name="three" unicode="3" horiz-adv-x="1261" 
d="M626 -25q-235 0 -381.5 114t-161.5 298l-1 12h247l1 -11q11 -89 90.5 -145.5t204.5 -56.5t201.5 62t76.5 161v2q0 113 -78.5 174.5t-217.5 61.5h-171v192h165q118 0 191.5 60.5t73.5 155.5v2q0 98 -63.5 152t-179.5 54q-114 0 -186.5 -55t-82.5 -148l-1 -10h-240l1 12
q16 184 154 295t355 111q222 0 356.5 -104t134.5 -273v-2q0 -130 -84 -218t-219 -116v-5q162 -15 258 -106.5t96 -239.5v-2q0 -189 -150 -308t-389 -119z" />
    <glyph glyph-name="four" unicode="4" horiz-adv-x="1294" 
d="M794 0v277h-720v220l599 946h367v-954h196v-212h-196v-277h-246zM306 483h492v765h-6l-486 -758v-7z" />
    <glyph glyph-name="five" unicode="5" horiz-adv-x="1250" 
d="M640 -25q-222 0 -365.5 118t-157.5 300l-1 13h242l1 -7q16 -93 93.5 -153.5t189.5 -60.5q129 0 210 80t81 207v2q0 124 -81.5 203.5t-208.5 79.5q-123 0 -208 -71q-43 -35 -68 -82h-225l69 839h886v-211h-680l-40 -435h5q47 73 133 113.5t194 40.5q206 0 339.5 -133.5
t133.5 -339.5v-2q0 -222 -151 -361.5t-391 -139.5z" />
    <glyph glyph-name="six" unicode="6" horiz-adv-x="1309" 
d="M668 -25q-122 0 -226 43.5t-184.5 130t-126.5 229t-46 326.5v2q0 358 156.5 560t432.5 202q198 0 337.5 -103t174.5 -269l2 -11h-256l-4 9q-29 76 -95 119.5t-161 43.5q-84 0 -149 -38.5t-104.5 -107.5t-60.5 -156t-25 -193q-1 -15 -1 -46h5q44 103 149.5 167.5
t247.5 64.5q207 0 340 -133.5t133 -337.5v-2q0 -218 -152.5 -359t-386.5 -141zM376 471q0 -120 83.5 -202.5t204.5 -82.5t205 81.5t84 198.5v2q0 123 -81 202t-205 79t-207.5 -78.5t-83.5 -198.5v-1z" />
    <glyph glyph-name="seven" unicode="7" horiz-adv-x="1153" 
d="M185 0l633 1227v5h-750v211h1004v-215l-617 -1228h-270z" />
    <glyph glyph-name="eight" unicode="8" horiz-adv-x="1292" 
d="M646 -25q-247 0 -403.5 116.5t-156.5 301.5v2q0 136 89.5 235t234.5 129v6q-124 33 -198 118.5t-74 199.5v2q0 166 143 274.5t365 108.5q223 0 365.5 -108.5t142.5 -274.5v-2q0 -114 -74 -199.5t-198 -118.5v-6q145 -30 235 -129t90 -235v-2q0 -184 -156.5 -301
t-404.5 -117zM646 847q112 0 182.5 59t70.5 153v2q0 94 -70.5 153t-182.5 59t-182.5 -59t-70.5 -153v-2q0 -94 70.5 -153t182.5 -59zM646 172q130 0 212.5 66.5t82.5 170.5v2q0 105 -82.5 172t-212.5 67t-212.5 -67t-82.5 -172v-2q0 -104 83 -170.5t212 -66.5z" />
    <glyph glyph-name="nine" unicode="9" horiz-adv-x="1309" 
d="M642 1468q122 0 225.5 -43.5t184.5 -130t127 -229t46 -326.5v-2q0 -358 -156.5 -560t-432.5 -202q-198 0 -338 103.5t-174 268.5l-2 11h256l3 -9q30 -76 95.5 -119.5t160.5 -43.5q84 0 149 38.5t104.5 107.5t60.5 156t25 193q2 30 2 46h-6q-44 -103 -149 -167.5
t-247 -64.5q-208 0 -341 133.5t-133 337.5v2q0 218 153 359t387 141zM642 694q124 0 207.5 78.5t83.5 198.5v1q0 120 -83.5 202.5t-204.5 82.5q-120 0 -204.5 -81.5t-84.5 -198.5v-2q0 -122 81 -201.5t205 -79.5z" />
    <glyph glyph-name="colon" unicode=":" horiz-adv-x="474" 
d="M237 718q-61 0 -103 42t-42 103t42 102.5t103 41.5t102.5 -41.5t41.5 -102.5t-41.5 -103t-102.5 -42zM237 -16q-61 0 -103 42t-42 103q0 60 42 102t103 42t102.5 -42t41.5 -102q0 -61 -41.5 -103t-102.5 -42z" />
    <glyph glyph-name="semicolon" unicode=";" horiz-adv-x="474" 
d="M237 718q-61 0 -103 42t-42 103t42 102.5t103 41.5t102.5 -41.5t41.5 -102.5t-41.5 -103t-102.5 -42zM40 -295l79 530h241l-146 -530h-174z" />
    <glyph glyph-name="less" unicode="&#x3c;" horiz-adv-x="1293" 
d="M129 460v252l1035 374v-219l-819 -278l819 -279v-224z" />
    <glyph glyph-name="equal" unicode="=" horiz-adv-x="1293" 
d="M129 729v221h1035v-221h-1035zM129 223v221h1035v-221h-1035z" />
    <glyph glyph-name="greater" unicode="&#x3e;" horiz-adv-x="1293" 
d="M1164 712v-252l-1035 -374v219l820 279l-820 278v224z" />
    <glyph glyph-name="questionmark" unicode="?" horiz-adv-x="1060" 
d="M366 459v70q-5 104 39 177t148 134q94 57 130 105.5t36 121.5v1q0 81 -58.5 132t-151.5 51q-95 0 -153.5 -53.5t-65.5 -140.5l-1 -9h-235l1 11q9 175 130.5 285.5t336.5 110.5q204 0 330.5 -105.5t126.5 -272.5v-1q0 -214 -212 -340q-97 -57 -132.5 -105t-35.5 -122v-50
h-233zM486 -11q-61 0 -103.5 41t-42.5 100q0 60 42.5 100.5t103.5 40.5t103 -40.5t42 -100.5q0 -59 -42 -100t-103 -41z" />
    <glyph glyph-name="at" unicode="@" horiz-adv-x="1808" 
d="M954 -240q-190 0 -349.5 57t-274.5 163.5t-179 266t-64 355.5v1q0 246 106.5 437.5t298 297t436.5 105.5q177 0 326.5 -54.5t256 -153t166 -242.5t59.5 -317v-1q0 -238 -95 -372t-247 -134q-90 0 -155 46t-96 122l-7 15h-8q-37 -89 -109 -134.5t-169 -45.5
q-154 0 -249.5 118t-95.5 311v1q0 183 97 299.5t248 116.5q83 0 148.5 -39t94.5 -106h8v124h184v-474q0 -93 32 -142t87 -49q72 0 114.5 88t42.5 249v1q0 284 -175 451.5t-467 167.5q-191 0 -340.5 -86.5t-233 -243t-83.5 -357.5v-1q0 -216 90 -372t247.5 -234.5
t364.5 -78.5q210 0 337 50v-155q-151 -51 -347 -51zM893 340q90 0 143 69.5t53 187.5v2q0 116 -53 184.5t-141 68.5t-138 -67t-50 -186v-1q0 -120 50 -189t136 -69z" />
    <glyph glyph-name="A" unicode="A" horiz-adv-x="1375" 
d="M27 0l516 1443h290l516 -1443h-271l-122 373h-537l-122 -373h-270zM685 1186l-201 -614h407l-200 614h-6z" />
    <glyph glyph-name="B" unicode="B" horiz-adv-x="1284" 
d="M127 0v1443h599q197 0 314.5 -98.5t117.5 -262.5v-2q0 -117 -78 -208t-194 -107v-5q152 -13 246.5 -110t94.5 -240v-2q0 -189 -132 -298.5t-363 -109.5h-605zM661 1242h-276v-409h232q139 0 212.5 55t73.5 157v2q0 93 -63.5 144t-178.5 51zM658 646h-273v-445h288
q142 0 216.5 56.5t74.5 165.5v2q0 109 -77.5 165t-228.5 56z" />
    <glyph glyph-name="C" unicode="C" horiz-adv-x="1439" 
d="M755 -25q-312 0 -494.5 201t-182.5 546v1q0 345 183 545t494 200q247 0 416 -139.5t198 -361.5l1 -10h-253l-5 19q-32 126 -125 197t-232 71q-189 0 -301 -140.5t-112 -380.5v-1q0 -240 112 -381.5t301 -141.5q138 0 231.5 72t128.5 205l3 10h253l-2 -10
q-28 -223 -197 -362t-417 -139z" />
    <glyph glyph-name="D" unicode="D" horiz-adv-x="1418" 
d="M127 0v1443h527q324 0 505 -187.5t181 -528.5v-2q0 -343 -181 -534t-505 -191h-527zM385 218h242q218 0 334 130t116 376v2q0 241 -117 370t-333 129h-242v-1007z" />
    <glyph glyph-name="E" unicode="E" horiz-adv-x="1158" 
d="M127 0v1443h934v-217h-676v-389h639v-209h-639v-411h676v-217h-934z" />
    <glyph glyph-name="F" unicode="F" horiz-adv-x="1107" 
d="M127 0v1443h920v-217h-662v-427h605v-210h-605v-589h-258z" />
    <glyph glyph-name="G" unicode="G" horiz-adv-x="1473" 
d="M761 -25q-316 0 -499.5 201.5t-183.5 550.5v1q0 343 182.5 541.5t495.5 198.5q249 0 412.5 -129t206.5 -335l4 -16h-262l-3 11q-42 117 -133.5 181t-223.5 64q-195 0 -305.5 -136t-110.5 -378v-1q0 -247 113.5 -388.5t309.5 -141.5q164 0 266.5 92.5t106.5 243.5l1 22
h-358v201h610v-156q0 -294 -166.5 -460.5t-462.5 -166.5z" />
    <glyph glyph-name="H" unicode="H" horiz-adv-x="1471" 
d="M127 0v1443h258v-600h702v600h257v-1443h-257v626h-702v-626h-258z" />
    <glyph glyph-name="I" unicode="I" horiz-adv-x="512" 
d="M127 0v1443h258v-1443h-258z" />
    <glyph glyph-name="J" unicode="J" horiz-adv-x="1096" 
d="M493 -25q-207 0 -328 114t-129 303l-1 11h252l1 -8q5 -87 57.5 -140.5t144.5 -53.5q105 0 159.5 61.5t54.5 179.5v1001h257v-1003q0 -220 -123 -342.5t-345 -122.5z" />
    <glyph glyph-name="K" unicode="&#x212a;" horiz-adv-x="1298" 
d="M127 0v1443h258v-677h7l559 677h295l-533 -637l577 -806h-314l-449 634l-142 -169v-465h-258z" />
    <glyph glyph-name="K" unicode="K" horiz-adv-x="1298" 
d="M127 0v1443h258v-677h7l559 677h295l-533 -637l577 -806h-314l-449 634l-142 -169v-465h-258z" />
    <glyph glyph-name="L" unicode="L" horiz-adv-x="1098" 
d="M127 0v1443h258v-1226h655v-217h-913z" />
    <glyph glyph-name="M" unicode="M" horiz-adv-x="1741" 
d="M127 0v1443h298l442 -1102h7l442 1102h298v-1443h-232v1026h-8l-416 -1026h-175l-416 1026h-7v-1026h-233z" />
    <glyph glyph-name="N" unicode="N" horiz-adv-x="1452" 
d="M127 0v1443h232l703 -1011h6v1011h256v-1443h-230l-705 1015h-5v-1015h-257z" />
    <glyph glyph-name="O" unicode="O" horiz-adv-x="1525" 
d="M763 -25q-316 0 -500.5 201t-184.5 545v2q0 343 185 544t500 201q316 0 500 -200.5t184 -544.5v-2q0 -344 -184 -545t-500 -201zM763 199q195 0 308.5 141.5t113.5 380.5v2q0 240 -114 380.5t-308 140.5q-193 0 -307.5 -140.5t-114.5 -380.5v-2q0 -240 114 -381t308 -141
z" />
    <glyph glyph-name="P" unicode="P" horiz-adv-x="1235" 
d="M127 0v1443h556q219 0 355 -133t136 -349v-2q0 -216 -136 -349t-355 -133h-298v-477h-258zM619 1232h-234v-547h234q139 0 216 71.5t77 201.5v2q0 130 -77 201t-216 71z" />
    <glyph glyph-name="Q" unicode="Q" horiz-adv-x="1525" 
d="M763 -25q-316 0 -500.5 201t-184.5 545v2q0 343 185 544t500 201q316 0 500 -200.5t184 -544.5v-2q0 -198 -63 -352t-182 -251l189 -264h-256l-116 162q-117 -41 -256 -41zM763 199q59 0 115 14l-180 252h256l102 -142q128 142 128 398v2q0 240 -113.5 380.5
t-307.5 140.5q-193 0 -307 -140.5t-114 -380.5v-2q0 -241 113.5 -381.5t307.5 -140.5z" />
    <glyph glyph-name="R" unicode="R" horiz-adv-x="1280" 
d="M127 0v1443h576q231 0 363.5 -120.5t132.5 -329.5v-2q0 -145 -73 -255.5t-199 -156.5l315 -579h-294l-284 540h-279v-540h-258zM385 744h291q122 0 190.5 64.5t68.5 180.5v2q0 113 -71 178t-193 65h-286v-490z" />
    <glyph glyph-name="S" unicode="S" horiz-adv-x="1264" 
d="M634 -25q-249 0 -401 110.5t-165 304.5l-1 15h247l2 -12q14 -93 102.5 -147t224.5 -54t216 56t80 149v1q0 81 -60.5 128.5t-200.5 76.5l-155 32q-214 44 -319 144.5t-105 261.5v1q1 190 151 308t384 118q235 0 380 -113t156 -300l1 -17h-247l-2 12q-13 94 -90.5 147.5
t-199.5 53.5q-126 -1 -200 -54.5t-74 -140.5v-1q0 -76 61 -123.5t192 -74.5l156 -32q226 -47 328.5 -144t102.5 -265v-1q0 -203 -150.5 -321.5t-413.5 -118.5z" />
    <glyph glyph-name="T" unicode="T" horiz-adv-x="1217" 
d="M480 0v1226h-432v217h1120v-217h-431v-1226h-257z" />
    <glyph glyph-name="U" unicode="U" horiz-adv-x="1441" 
d="M721 -25q-273 0 -433.5 146.5t-160.5 387.5v934h258v-913q0 -152 88.5 -241.5t247.5 -89.5q158 0 246.5 89.5t88.5 241.5v913h257v-934q0 -241 -159.5 -387.5t-432.5 -146.5z" />
    <glyph glyph-name="V" unicode="V" horiz-adv-x="1354" 
d="M527 0l-500 1443h281l366 -1168h5l367 1168h281l-501 -1443h-299z" />
    <glyph glyph-name="W" unicode="W" horiz-adv-x="1946" 
d="M430 0l-387 1443h268l251 -1089h5l289 1089h234l289 -1089h5l251 1089h268l-387 -1443h-249l-291 1035h-6l-291 -1035h-249z" />
    <glyph glyph-name="X" unicode="X" horiz-adv-x="1366" 
d="M44 0l470 727v3l-466 713h305l335 -543h11l334 543h289l-482 -720v-3l474 -720h-297l-341 531h-9l-342 -531h-281z" />
    <glyph glyph-name="Y" unicode="Y" horiz-adv-x="1323" 
d="M533 0v569l-506 874h282l349 -628h7l349 628h282l-506 -874v-569h-257z" />
    <glyph glyph-name="Z" unicode="Z" horiz-adv-x="1281" 
d="M92 0v172l767 1048v6h-746v217h1057v-172l-764 -1048v-6h783v-217h-1097z" />
    <glyph glyph-name="bracketleft" unicode="[" horiz-adv-x="738" 
d="M204 -350v1793h510v-186h-270v-1421h270v-186h-510z" />
    <glyph glyph-name="backslash" unicode="\" horiz-adv-x="603" 
d="M225 1443l379 -1793h-226l-378 1793h225z" />
    <glyph glyph-name="bracketright" unicode="]" horiz-adv-x="738" 
d="M534 -350h-511v186h271v1421h-271v186h511v-1793z" />
    <glyph glyph-name="asciicircum" unicode="^" horiz-adv-x="1293" 
d="M369 805h-249l417 638h220l417 -638h-249l-278 437z" />
    <glyph glyph-name="underscore" unicode="_" horiz-adv-x="1143" 
d="M0 -321v221h1143v-221h-1143z" />
    <glyph glyph-name="grave" unicode="`" horiz-adv-x="1024" 
d="M542 1180l-234 326h232l177 -326h-175z" />
    <glyph glyph-name="a" unicode="a" horiz-adv-x="1087" 
d="M415 -18q-159 0 -257 89t-98 231v2q0 141 105 223t298 94l277 17v73q0 81 -51 126.5t-145 45.5q-86 0 -140 -36.5t-66 -96.5l-2 -9h-231l1 12q12 145 131 237t316 92q198 0 317 -96.5t119 -256.5v-729h-249v163h-6q-46 -84 -130.5 -132.5t-188.5 -48.5zM308 312
q0 -65 49.5 -102.5t131.5 -37.5q107 0 179 63.5t72 157.5v80l-242 -15q-92 -6 -141 -44t-49 -101v-1z" />
    <glyph glyph-name="b" unicode="b" horiz-adv-x="1190" 
d="M694 -21q-113 0 -198.5 53t-131.5 148h-6v-180h-249v1443h249v-565h6q45 96 132 150t199 54q200 0 318.5 -148t118.5 -403v-1q0 -255 -118 -403t-320 -148zM619 189q120 0 189.5 91.5t69.5 249.5v1q0 158 -70 249.5t-189 91.5q-116 0 -188.5 -93.5t-72.5 -247.5v-1
q0 -155 72.5 -248t188.5 -93z" />
    <glyph glyph-name="c" unicode="c" horiz-adv-x="1083" 
d="M570 -21q-236 0 -374 148.5t-138 403.5v1q0 253 138.5 401.5t370.5 148.5q203 0 329.5 -112t138.5 -277l1 -8h-235l-2 9q-17 82 -76 134t-153 52q-118 0 -188 -94t-70 -256v-1q0 -164 70 -256.5t189 -92.5q92 0 151.5 50t77.5 136l2 9h235l-1 -7q-15 -169 -142 -279
t-324 -110z" />
    <glyph glyph-name="d" unicode="d" horiz-adv-x="1188" 
d="M496 -21q-202 0 -320 148t-118 403v1q0 255 118.5 403t318.5 148q112 0 199 -54t132 -150h6v565h249v-1443h-249v180h-6q-46 -95 -131.5 -148t-198.5 -53zM571 189q116 0 188.5 93t72.5 248v1q0 154 -72.5 247.5t-188.5 93.5q-119 0 -189 -91.5t-70 -249.5v-1
q0 -158 69.5 -249.5t189.5 -91.5z" />
    <glyph glyph-name="e" unicode="e" horiz-adv-x="1105" 
d="M568 -21q-238 0 -374 147t-136 401v1q0 251 135.5 402.5t362.5 151.5q226 0 358.5 -145.5t132.5 -387.5v-80h-742q3 -139 74.5 -217.5t193.5 -78.5q88 0 149 40t80 97l2 7h233l-3 -11q-13 -63 -48.5 -120t-92 -104t-141 -75t-184.5 -28zM559 887q-101 0 -168.5 -66
t-82.5 -186h497q-13 123 -78.5 187.5t-167.5 64.5z" />
    <glyph glyph-name="f" unicode="f" horiz-adv-x="690" 
d="M171 0v868h-145v192h145v101q0 156 78.5 229.5t249.5 73.5q81 0 133 -10v-174q-33 5 -75 5q-142 0 -142 -131v-94h213v-192h-208v-868h-249z" />
    <glyph glyph-name="g" unicode="g" horiz-adv-x="1182" 
d="M580 -371q-205 0 -335 82.5t-153 211.5l-2 9h245l3 -8q21 -48 84.5 -77.5t157.5 -29.5q120 0 185.5 59t65.5 162v153h-5q-45 -86 -132 -135.5t-199 -49.5q-200 0 -318.5 143.5t-118.5 390.5v1q0 250 119.5 395.5t321.5 145.5q110 0 195 -54t131 -148h6v180h249v-1030
q0 -181 -135.5 -291t-364.5 -110zM573 198q117 0 188 91.5t71 245.5v1q0 153 -71.5 244.5t-187.5 91.5q-120 0 -190.5 -90.5t-70.5 -244.5v-1q0 -156 70.5 -247t190.5 -91z" />
    <glyph glyph-name="h" unicode="h" horiz-adv-x="1163" 
d="M109 0v1443h249v-561h6q42 96 125.5 148t201.5 52q171 0 272.5 -115t101.5 -307v-660h-249v611q0 123 -59 192t-166 69q-105 0 -169 -72.5t-64 -188.5v-611h-249z" />
    <glyph glyph-name="i" unicode="i" horiz-adv-x="467" 
d="M234 1212q-58 0 -98.5 40t-40.5 96q0 57 40.5 97t98.5 40t98 -40t40 -97q0 -56 -40 -96t-98 -40zM109 0v1060h249v-1060h-249z" />
    <glyph glyph-name="j" unicode="j" horiz-adv-x="466" 
d="M232 1212q-58 0 -98.5 40t-40.5 96q0 57 40.5 97t98.5 40t98.5 -40t40.5 -97q0 -56 -40.5 -96t-98.5 -40zM-5 -353q-39 0 -62 3v195q5 0 16 -0.5t17 -0.5q78 0 110 28.5t32 101.5v1086h249v-1090q0 -323 -362 -323z" />
    <glyph glyph-name="k" unicode="k" horiz-adv-x="1062" 
d="M113 0v1443h249v-823h5l396 440h288l-420 -456l437 -604h-287l-335 456l-84 -88v-368h-249z" />
    <glyph glyph-name="l" unicode="l" horiz-adv-x="468" 
d="M109 0v1443h249v-1443h-249z" />
    <glyph glyph-name="m" unicode="m" horiz-adv-x="1723" 
d="M102 0v1060h249v-170h5q34 88 112 140t182 52q111 0 188 -56t106 -158h6q38 99 126.5 156.5t203.5 57.5q156 0 251 -97.5t95 -256.5v-728h-249v666q0 98 -49.5 152t-140.5 54q-90 0 -146 -60.5t-56 -156.5v-655h-242v679q0 89 -50.5 141t-137.5 52q-90 0 -147 -63
t-57 -160v-649h-249z" />
    <glyph glyph-name="n" unicode="n" horiz-adv-x="1143" 
d="M102 0v1060h249v-166h5q43 89 125 138.5t199 49.5q174 0 270 -105t96 -291v-686h-249v636q0 115 -53.5 175.5t-158.5 60.5q-107 0 -170.5 -71t-63.5 -186v-615h-249z" />
    <glyph glyph-name="o" unicode="o" horiz-adv-x="1142" 
d="M571 -21q-235 0 -374 147.5t-139 403.5v2q0 253 139.5 401.5t372.5 148.5q234 0 374 -148t140 -402v-2q0 -256 -139 -403.5t-374 -147.5zM572 180q119 0 188.5 92.5t69.5 257.5v2q0 164 -70 256t-190 92q-118 0 -188 -92.5t-70 -255.5v-2q0 -166 70 -258t190 -92z" />
    <glyph glyph-name="p" unicode="p" horiz-adv-x="1182" 
d="M102 -350v1410h249v-183h5q46 97 131.5 151t197.5 54q202 0 320.5 -148t118.5 -404v-1q0 -254 -118 -402t-318 -148q-112 0 -199.5 53t-132.5 147h-5v-529h-249zM611 189q119 0 189 91.5t70 248.5v1q0 159 -69.5 250.5t-189.5 91.5q-116 0 -189 -93.5t-73 -248.5v-1
q0 -154 73 -247t189 -93z" />
    <glyph glyph-name="q" unicode="q" horiz-adv-x="1181" 
d="M831 -350v526h-5q-45 -91 -132 -143.5t-199 -52.5q-200 0 -318.5 148.5t-118.5 402.5v1q0 253 119.5 400.5t321.5 147.5q110 0 195 -54.5t131 -148.5h6v183h249v-1410h-249zM573 190q117 0 188 93t71 248v1q0 154 -71.5 246t-187.5 92q-120 0 -190.5 -91t-70.5 -247v-1
q0 -158 70.5 -249.5t190.5 -91.5z" />
    <glyph glyph-name="r" unicode="r" horiz-adv-x="704" 
d="M102 0v1060h249v-183h5q25 97 88.5 151t154.5 54q41 0 79 -10v-225q-37 14 -101 14q-106 0 -166 -64.5t-60 -181.5v-615h-249z" />
    <glyph glyph-name="s" unicode="s" horiz-adv-x="1017" 
d="M516 -21q-204 0 -323 89t-136 240l-1 9h245l2 -9q30 -145 214 -145q90 0 142 34t52 93v1q0 49 -33 78t-114 47l-176 39q-305 68 -305 301v1q0 146 116.5 235.5t308.5 89.5t306 -93t121 -235l1 -11h-232l-1 8q-9 66 -60 106.5t-135 40.5q-82 0 -130.5 -35t-48.5 -94v-1
q0 -47 35 -77.5t116 -48.5l177 -39q163 -36 233.5 -104t70.5 -185v-1q0 -149 -124.5 -241.5t-320.5 -92.5z" />
    <glyph glyph-name="t" unicode="t" horiz-adv-x="687" 
d="M496 -21q-168 0 -247.5 73t-79.5 235v581h-150v192h150v269h253v-269h197v-192h-197v-560q0 -76 33 -106.5t104 -30.5q14 0 36 2t24 2v-187q-65 -9 -123 -9z" />
    <glyph glyph-name="u" unicode="u" horiz-adv-x="1143" 
d="M463 -21q-174 0 -270 105t-96 291v685h249v-636q0 -114 53.5 -174.5t158.5 -60.5q107 0 170.5 70.5t63.5 186.5v614h249v-1060h-249v166h-5q-43 -88 -125 -137.5t-199 -49.5z" />
    <glyph glyph-name="v" unicode="v" horiz-adv-x="1048" 
d="M388 0l-375 1060h265l246 -829h6l245 829h260l-373 -1060h-274z" />
    <glyph glyph-name="w" unicode="w" horiz-adv-x="1562" 
d="M309 0l-287 1060h250l179 -814h5l207 814h239l207 -814h6l179 814h246l-287 -1060h-262l-209 775h-5l-208 -775h-260z" />
    <glyph glyph-name="x" unicode="x" horiz-adv-x="1036" 
d="M25 0l343 529l-339 531h280l213 -372h6l211 372h272l-341 -524l338 -536h-272l-220 380h-6l-219 -380h-266z" />
    <glyph glyph-name="y" unicode="y" horiz-adv-x="1064" 
d="M244 -352q-62 0 -128 11v190q43 -9 83 -9q74 0 115.5 25.5t64.5 90.5l15 43l-381 1061h272l248 -848h7l249 848h262l-381 -1096q-60 -172 -159 -244t-267 -72z" />
    <glyph glyph-name="z" unicode="z" horiz-adv-x="1007" 
d="M81 0v151l552 712v5h-547v192h831v-164l-530 -699v-5h539v-192h-845z" />
    <glyph glyph-name="braceleft" unicode="{" horiz-adv-x="738" 
d="M647 -350q-205 0 -300 88t-95 277v202q0 114 -51.5 160t-177.5 47v246q126 1 177.5 47.5t51.5 160.5v203q0 188 94 275t301 87h67v-186h-42q-99 0 -141 -47.5t-42 -158.5v-246q0 -217 -246 -243v-29q246 -26 246 -244v-247q0 -111 42 -158.5t141 -47.5h42v-186h-67z" />
    <glyph glyph-name="bar" unicode="|" horiz-adv-x="476" 
d="M127 -350v1793h221v-1793h-221z" />
    <glyph glyph-name="braceright" unicode="}" horiz-adv-x="738" 
d="M90 -350h-67v186h43q98 0 140 47.5t42 158.5v247q0 218 247 244v29q-247 26 -247 243v246q0 111 -41.5 158.5t-140.5 47.5h-43v186h67q208 0 301.5 -87t93.5 -275v-203q0 -114 51.5 -160.5t177.5 -47.5v-246q-126 -1 -177.5 -47t-51.5 -160v-202q0 -189 -94.5 -277
t-300.5 -88z" />
    <glyph glyph-name="asciitilde" unicode="~" horiz-adv-x="1293" 
d="M906 418q-76 0 -172.5 28.5t-190 57t-161.5 28.5q-159 0 -253 -97v219q105 100 258 100q76 0 172.5 -28.5t190 -57t161.5 -28.5q159 0 253 97v-219q-104 -100 -258 -100z" />
    <glyph glyph-name="nonbreakingspace" unicode="&#xa0;" horiz-adv-x="410" 
 />
    <glyph glyph-name="exclamationmarkinverted" unicode="&#xa1;" horiz-adv-x="611" 
d="M305 1072q61 0 103.5 -41t42.5 -101q0 -59 -42.5 -100t-103.5 -41t-103 41t-42 100q0 60 42 101t103 41zM414 578l19 -961h-256l20 961h217z" />
    <glyph glyph-name="centsign" unicode="&#xa2;" horiz-adv-x="1293" 
d="M619 0v167q-218 18 -344.5 165.5t-126.5 389.5v2q0 242 126.5 389t344.5 165v165h107v-164q180 -13 296.5 -119t140.5 -269l1 -12h-233l-2 8q-18 79 -70 128.5t-133 60.5v-707q81 12 133 61.5t70 128.5l2 8h233l-1 -12q-24 -163 -140.5 -269t-296.5 -119v-167h-107z
M397 722q0 -153 58.5 -242t163.5 -108v702q-105 -19 -163.5 -108t-58.5 -242v-2z" />
    <glyph glyph-name="sterlingsign" unicode="&#xa3;" horiz-adv-x="1293" 
d="M111 30v199q261 41 261 292q0 47 -18 132h-248v144h214q-27 115 -27 193q0 205 141 318.5t383 113.5q94 0 178.5 -15t133.5 -36v-203q-115 46 -277 46q-144 0 -224 -61t-80 -177q0 -76 24 -179h469v-144h-436q13 -63 13 -125q0 -109 -40 -176.5t-120 -106.5v-6h739v-209
h-1086z" />
    <glyph glyph-name="currencysign" unicode="&#xa4;" horiz-adv-x="1293" 
d="M1047 722v-2q0 -118 -59 -213l177 -178l-126 -126l-178 177q-96 -60 -213 -60h-2q-116 0 -214 60l-177 -177l-127 126l178 178q-60 96 -60 213v2q0 116 60 214l-178 177l127 127l177 -178q98 60 214 60h2q117 0 213 -60l178 178l126 -127l-178 -178q60 -94 60 -213z
M874 722q0 95 -65.5 160.5t-160.5 65.5h-2q-95 0 -160.5 -65.5t-65.5 -160.5v-2q0 -95 65.5 -160.5t160.5 -65.5h2q95 0 160.5 65.5t65.5 160.5v2z" />
    <glyph glyph-name="yensign" unicode="&#xa5;" horiz-adv-x="1293" 
d="M195 245v108h334v166h-334v108h302l-455 786h277l334 -607h7l333 607h274l-454 -786h302v-108h-334v-166h334v-108h-334v-215h-252v215h-334z" />
    <glyph glyph-name="brokenbar" unicode="&#xa6;" horiz-adv-x="476" 
d="M348 1444v-770h-221v770h221zM127 -350v770h221v-770h-221z" />
    <glyph glyph-name="section" unicode="&#xa7;" horiz-adv-x="1264" 
d="M635 -275q-187 0 -310 85t-136 223l-1 11h239l1 -5q11 -59 68.5 -95t142.5 -36q90 0 144 36.5t54 97.5v2q0 98 -170 142l-172 49q-165 45 -241.5 117.5t-76.5 180.5v3q0 88 62 159t161 96v15q-114 48 -164.5 119t-50.5 168v2q2 146 123.5 235.5t318.5 89.5
q182 0 300.5 -81.5t136.5 -218.5l2 -13h-236l-2 8q-11 56 -64.5 88.5t-135.5 32.5q-87 0 -141 -37t-56 -97v-2q0 -101 166 -145l172 -48q164 -46 240.5 -117t76.5 -173v-2q0 -95 -61 -168t-161 -97v-16q116 -48 166.5 -117.5t50.5 -166.5v-2q0 -145 -124 -234t-322 -89z
M573 425l108 -32q75 17 121 62t46 106v2q0 110 -158 154l-108 32q-74 -17 -119.5 -62.5t-45.5 -105.5v-2q0 -111 156 -154z" />
    <glyph glyph-name="dieresis" unicode="&#xa8;" horiz-adv-x="1024" 
d="M307 1213q-54 0 -91 37t-37 89t37 88.5t91 36.5t91 -36.5t37 -88.5t-37 -89t-91 -37zM717 1213q-53 0 -90.5 37t-37.5 89t37.5 88.5t90.5 36.5q54 0 91 -36.5t37 -88.5t-37 -89t-91 -37z" />
    <glyph glyph-name="copyright" unicode="&#xa9;" horiz-adv-x="1744" 
d="M1666 726v-9q0 -131 -39.5 -251.5t-112 -217.5t-169.5 -169.5t-217.5 -111.5t-251.5 -39h-8q-131 0 -251.5 39t-217.5 111.5t-169.5 169.5t-112 217.5t-39.5 251.5v9q0 131 39.5 251.5t112 217.5t169.5 169.5t217.5 111.5t251.5 39h8q131 0 251.5 -39t217.5 -111.5
t169.5 -169.5t112 -217.5t39.5 -251.5zM1521 726q0 178 -85.5 326t-233.5 233.5t-326 85.5h-8q-178 0 -326.5 -85.5t-233.5 -233.5t-85 -326v-9q0 -178 85 -326t233.5 -233.5t326.5 -85.5h8q178 0 326 85.5t233.5 233.5t85.5 326v9zM884 367q-162 0 -255.5 93.5t-93.5 260.5
v1q0 167 93.5 260t255.5 93q139 0 228.5 -79.5t94.5 -199.5l1 -4h-176l-1 5q-9 53 -47.5 86t-99.5 33q-76 0 -119.5 -51t-43.5 -143q0 -93 44 -144.5t120 -51.5q59 0 98.5 32.5t48.5 87.5l1 5h175v-5q-5 -120 -95.5 -199.5t-228.5 -79.5z" />
    <glyph glyph-name="a.sups" unicode="&#xaa;" horiz-adv-x="734" 
d="M271 804q-98 0 -159 53.5t-61 136.5v1q0 87 66 136t190 57l162 10v35q0 39 -28 61t-80 22q-49 0 -79 -18t-36 -47l-1 -5h-165l1 7q7 92 83.5 147.5t204.5 55.5q127 0 203.5 -58t76.5 -154v-431h-180v92h-4q-28 -48 -78.5 -74.5t-115.5 -26.5zM229 1005q0 -32 27 -50
t74 -18q60 0 99.5 29.5t39.5 74.5v45l-135 -9q-105 -6 -105 -71v-1z" />
    <glyph glyph-name="guillemetleft" unicode="&#xab;" horiz-adv-x="1319" 
d="M472 145l-351 416v8l351 416h248l-352 -414v-11l352 -415h-248zM951 145l-351 416v8l351 416h247l-351 -414v-11l351 -415h-247z" />
    <glyph glyph-name="logicalnot" unicode="&#xac;" horiz-adv-x="1293" 
d="M129 475v222h1035v-617h-221v395h-814z" />
    <glyph glyph-name="registered" unicode="&#xae;" horiz-adv-x="1302" 
d="M1224 899v-7q0 -118 -44.5 -223.5t-120 -181.5t-181 -120.5t-223.5 -44.5h-7q-118 0 -223.5 44.5t-181.5 120.5t-120.5 181.5t-44.5 223.5v7q0 117 44.5 222.5t120.5 181.5t181.5 120.5t223.5 44.5h7q157 0 288 -75.5t206 -206t75 -287.5zM1085 899q0 180 -125 304.5
t-305 124.5h-7q-181 0 -306 -124.5t-125 -304.5v-7q0 -181 125 -306t306 -125h7q180 0 305 125t125 306v7zM406 607v575h270q116 0 177.5 -51t61.5 -150v-1q0 -53 -27.5 -98t-71.5 -65l116 -210h-195l-96 182h-62v-182h-173zM580 918h77q36 0 58.5 18t22.5 46t-23 46t-59 18
h-76v-128z" />
    <glyph glyph-name="macron" unicode="&#xaf;" horiz-adv-x="1024" 
d="M208 1258v161h608v-161h-608z" />
    <glyph glyph-name="degree" unicode="&#xb0;" horiz-adv-x="884" 
d="M442 757q-143 0 -238 94t-95 234v1q0 141 95 234.5t238 93.5q142 0 237.5 -93.5t95.5 -234.5v-1q0 -140 -95.5 -234t-237.5 -94zM442 941q60 0 100 41t40 103v1q0 62 -40 102.5t-100 40.5q-59 0 -99.5 -40.5t-40.5 -102.5v-1q0 -61 40.5 -102.5t99.5 -41.5z" />
    <glyph glyph-name="plusminus" unicode="&#xb1;" horiz-adv-x="1293" 
d="M539 310v301h-377v221h377v300h217v-300h376v-221h-376v-301h-217zM162 40v190h970v-190h-970z" />
    <glyph glyph-name="two.sups" unicode="&#xb2;" horiz-adv-x="665" 
d="M56 813v131l267 219q69 56 91.5 87.5t22.5 65.5v1q0 37 -29.5 60.5t-75.5 23.5q-53 0 -85 -26.5t-34 -69.5l-1 -5h-167v5q0 106 80.5 173t205.5 67q127 0 204.5 -59.5t77.5 -156.5v-1q0 -68 -37 -119t-135 -129l-148 -120h330v-147h-567z" />
    <glyph glyph-name="three.sups" unicode="&#xb3;" horiz-adv-x="694" 
d="M344 800q-132 0 -214 60t-90 159l-1 7h174l1 -6q5 -30 40 -50t89 -20q55 0 88 22.5t33 58.5v1q0 85 -135 85h-84v129h83q56 0 89 21.5t33 58.5v1q0 35 -29 55.5t-79 20.5t-82 -20.5t-37 -54.5v-4h-167l1 7q8 97 85 155.5t200 58.5q127 0 202.5 -52.5t75.5 -139.5v-1
q0 -65 -44 -107.5t-112 -55.5v-4q85 -8 135 -51.5t50 -112.5v-1q0 -100 -83 -160t-222 -60z" />
    <glyph glyph-name="acute" unicode="&#xb4;" horiz-adv-x="1024" 
d="M482 1180h-174l177 326h232z" />
    <glyph glyph-name="mu.grek" unicode="&#x3bc;" horiz-adv-x="1245" 
d="M102 -350v1410h249v-631q0 -240 211 -240q112 0 173.5 69.5t61.5 186.5v615h249v-763q0 -66 21.5 -92.5t67.5 -26.5q36 0 58 8v-191q-44 -16 -123 -16q-106 0 -166.5 42.5t-85.5 134.5l-5 17h-4q-39 -93 -107.5 -143.5t-156.5 -50.5q-62 0 -113.5 27t-75.5 70h-4v-426
h-250z" />
    <glyph glyph-name="mu.grek" unicode="&#xb5;" horiz-adv-x="1245" 
d="M102 -350v1410h249v-631q0 -240 211 -240q112 0 173.5 69.5t61.5 186.5v615h249v-763q0 -66 21.5 -92.5t67.5 -26.5q36 0 58 8v-191q-44 -16 -123 -16q-106 0 -166.5 42.5t-85.5 134.5l-5 17h-4q-39 -93 -107.5 -143.5t-156.5 -50.5q-62 0 -113.5 27t-75.5 70h-4v-426
h-250z" />
    <glyph glyph-name="paragraph" unicode="&#xb6;" horiz-adv-x="1264" 
d="M581 -242v898h-17q-186 0 -311 111t-126 276v2q0 172 124 285t313 113h215v-1685h-198zM939 -242v1685h197v-1685h-197z" />
    <glyph glyph-name="middledot" unicode="&#xb7;" horiz-adv-x="474" 
d="M237 441q-61 0 -103 42t-42 103t42 102.5t103 41.5t102.5 -41.5t41.5 -102.5t-41.5 -103t-102.5 -42z" />
    <glyph glyph-name="cedilla" unicode="&#xb8;" horiz-adv-x="1024" 
d="M498 -468q-109 0 -161 25v129q41 -16 103 -16q43 0 69.5 14t26.5 43v2q0 66 -112 66h-41v87l88 137h137v-19l-55 -86q84 -8 132 -56t48 -132v-2q0 -88 -66.5 -140t-168.5 -52z" />
    <glyph glyph-name="one.sups" unicode="&#xb9;" horiz-adv-x="527" 
d="M237 813v551h-3l-191 -119v164l194 123h181v-719h-181z" />
    <glyph glyph-name="o.sups" unicode="&#xba;" horiz-adv-x="770" 
d="M385 800q-151 0 -238.5 86.5t-87.5 240.5v1q0 152 88.5 240t236.5 88q149 0 237.5 -87.5t88.5 -240.5v-1q0 -153 -87.5 -240t-237.5 -87zM385 944q66 0 104 48.5t38 134.5v1q0 87 -38.5 135.5t-104.5 48.5q-65 0 -103.5 -48.5t-38.5 -135.5v-1q0 -87 38 -135t105 -48z
" />
    <glyph glyph-name="guillemetright" unicode="&#xbb;" horiz-adv-x="1319" 
d="M848 985l350 -416v-8l-350 -416h-248l351 414v11l-351 415h248zM369 985l351 -416v-8l-351 -416h-248l351 414v11l-351 415h248z" />
    <glyph glyph-name="onequarter" unicode="&#xbc;" horiz-adv-x="1482" 
d="M237 724v551h-3l-191 -119v164l194 123h181v-719h-181zM362 0h-202l918 1443h200zM1182 0v119h-374v157l292 443h254v-450h97v-150h-97v-119h-172zM962 262h224v326h-3l-221 -321v-5z" />
    <glyph glyph-name="onehalf" unicode="&#xbd;" horiz-adv-x="1543" 
d="M237 724v551h-3l-191 -119v164l194 123h181v-719h-181zM362 0h-202l918 1443h200zM934 0v131l267 219q69 57 92 88.5t23 64.5v1q-1 37 -30 60.5t-75 23.5q-53 0 -85.5 -26.5t-34.5 -69.5l-1 -5h-167v5q0 106 80.5 173t206.5 67t203.5 -59.5t77.5 -156.5v-1
q0 -68 -37 -119t-135 -129l-148 -120h331v-147h-568z" />
    <glyph glyph-name="threequarters" unicode="&#xbe;" horiz-adv-x="1660" 
d="M344 711q-132 0 -214 60t-90 159l-1 7h174l1 -6q5 -30 40 -50t89 -20q55 0 88 22.5t33 58.5v1q0 85 -135 85h-84v129h83q56 0 89 21.5t33 58.5v1q0 35 -29 55.5t-79 20.5t-82 -20.5t-37 -54.5v-4h-167l1 7q8 98 85 156t200 58q127 0 202.5 -52.5t75.5 -139.5v-1
q0 -65 -44 -107.5t-112 -55.5v-4q85 -8 135 -51.5t50 -112.5v-1q0 -100 -83 -160t-222 -60zM530 0h-202l917 1443h201zM1360 0v119h-373v157l292 443h253v-450h97v-150h-97v-119h-172zM1140 262h225v326h-4l-221 -321v-5z" />
    <glyph glyph-name="questionmarkinverted" unicode="&#xbf;" horiz-adv-x="1060" 
d="M574 1072q61 0 103 -41t42 -101q0 -59 -42 -100t-103 -41t-103 41t-42 100q0 60 42 101t103 41zM693 601l1 -70q4 -104 -40 -176.5t-147 -134.5q-94 -56 -130 -105t-36 -122v-1q0 -80 58.5 -131t151.5 -51q94 0 153 53.5t66 139.5l1 9h234v-11q-9 -175 -130.5 -285.5
t-336.5 -110.5q-204 0 -330.5 105.5t-126.5 272.5v1q0 215 212 340q98 57 133 105t35 122v50h232z" />
    <glyph glyph-name="Agrave" unicode="&#xc0;" horiz-adv-x="1375" 
d="M631 1561l-227 315h228l171 -315h-172zM27 0l516 1443h290l516 -1443h-271l-122 373h-537l-122 -373h-270zM685 1186l-201 -614h407l-200 614h-6z" />
    <glyph glyph-name="Aacute" unicode="&#xc1;" horiz-adv-x="1375" 
d="M753 1561h-171l170 315h228zM27 0l516 1443h290l516 -1443h-271l-122 373h-537l-122 -373h-270zM685 1186l-201 -614h407l-200 614h-6z" />
    <glyph glyph-name="Acircumflex" unicode="&#xc2;" horiz-adv-x="1375" 
d="M360 1561l224 315h206l226 -315h-186l-144 201l-140 -201h-186zM27 0l516 1443h290l516 -1443h-271l-122 373h-537l-122 -373h-270zM685 1186l-201 -614h407l-200 614h-6z" />
    <glyph glyph-name="Atilde" unicode="&#xc3;" horiz-adv-x="1375" 
d="M831 1558q-74 0 -137 49l-39 28q-55 42 -84 42q-58 0 -58 -113v-6h-143v13q0 135 46 204t128 69q69 0 134 -49l39 -28q56 -42 87 -42q57 0 57 113v6h144v-13q0 -135 -45.5 -204t-128.5 -69zM27 0l516 1443h290l516 -1443h-271l-122 373h-537l-122 -373h-270zM685 1186
l-201 -614h407l-200 614h-6z" />
    <glyph glyph-name="Adieresis" unicode="&#xc4;" horiz-adv-x="1375" 
d="M490 1589q-53 0 -90 36t-37 88q0 51 37 87t90 36t89.5 -36t36.5 -87q0 -52 -36.5 -88t-89.5 -36zM886 1589q-53 0 -89.5 36t-36.5 88q0 51 37 87t89 36q54 0 90.5 -36t36.5 -87q0 -52 -36.5 -88t-90.5 -36zM27 0l516 1443h290l516 -1443h-271l-122 373h-537l-122 -373
h-270zM685 1186l-201 -614h407l-200 614h-6z" />
    <glyph glyph-name="Aring" unicode="&#x212b;" horiz-adv-x="1375" 
d="M693 1526q-81 0 -139 55.5t-58 136.5v1q0 80 57.5 135.5t139.5 55.5q81 0 138.5 -55.5t57.5 -135.5v-1q0 -80 -57.5 -136t-138.5 -56zM693 1639q33 0 57 23t24 56v1q0 33 -23.5 56t-57.5 23t-57.5 -23t-23.5 -56v-1q0 -34 23.5 -56.5t57.5 -22.5zM27 0l516 1443h290
l516 -1443h-271l-122 373h-537l-122 -373h-270zM685 1186l-201 -614h407l-200 614h-6z" />
    <glyph glyph-name="Aring" unicode="&#xc5;" horiz-adv-x="1375" 
d="M693 1526q-81 0 -139 55.5t-58 136.5v1q0 80 57.5 135.5t139.5 55.5q81 0 138.5 -55.5t57.5 -135.5v-1q0 -80 -57.5 -136t-138.5 -56zM693 1639q33 0 57 23t24 56v1q0 33 -23.5 56t-57.5 23t-57.5 -23t-23.5 -56v-1q0 -34 23.5 -56.5t57.5 -22.5zM27 0l516 1443h290
l516 -1443h-271l-122 373h-537l-122 -373h-270zM685 1186l-201 -614h407l-200 614h-6z" />
    <glyph glyph-name="AE" unicode="&#xc6;" horiz-adv-x="1981" 
d="M19 0l670 1443h1194v-217h-677v-397h640v-206h-640v-406h677v-217h-918v404h-501l-186 -404h-259zM849 1240l-293 -636h409v636h-116z" />
    <glyph glyph-name="Ccedilla" unicode="&#xc7;" horiz-adv-x="1439" 
d="M741 -468q-108 0 -161 25v129q48 -16 103 -16q43 0 69.5 14t26.5 43v2q0 66 -112 66h-40v87l61 96q-283 22 -446.5 220t-163.5 524v1q0 345 183 545t494 200q247 0 416 -139.5t198 -361.5l1 -10h-253l-5 19q-32 126 -125 197t-232 71q-189 0 -301 -140.5t-112 -380.5v-1
q0 -240 112 -381.5t301 -141.5q138 0 231.5 72t128.5 205l3 10h253l-2 -10q-26 -203 -169.5 -338t-360.5 -158l-43 -66q84 -8 132.5 -56t48.5 -132v-2q0 -89 -66.5 -140.5t-169.5 -51.5z" />
    <glyph glyph-name="Egrave" unicode="&#xc8;" horiz-adv-x="1158" 
d="M537 1561l-227 315h228l171 -315h-172zM127 0v1443h934v-217h-676v-389h639v-209h-639v-411h676v-217h-934z" />
    <glyph glyph-name="Eacute" unicode="&#xc9;" horiz-adv-x="1158" 
d="M660 1561h-172l170 315h228zM127 0v1443h934v-217h-676v-389h639v-209h-639v-411h676v-217h-934z" />
    <glyph glyph-name="Ecircumflex" unicode="&#xca;" horiz-adv-x="1158" 
d="M266 1561l225 315h205l226 -315h-186l-144 201l-140 -201h-186zM127 0v1443h934v-217h-676v-389h639v-209h-639v-411h676v-217h-934z" />
    <glyph glyph-name="Edieresis" unicode="&#xcb;" horiz-adv-x="1158" 
d="M396 1589q-53 0 -89.5 36t-36.5 88q0 51 36.5 87t89.5 36t89.5 -36t36.5 -87q0 -52 -36.5 -88t-89.5 -36zM792 1589q-53 0 -89.5 36t-36.5 88q0 51 37 87t89 36q54 0 90.5 -36t36.5 -87q0 -52 -36.5 -88t-90.5 -36zM127 0v1443h934v-217h-676v-389h639v-209h-639v-411
h676v-217h-934z" />
    <glyph glyph-name="Igrave" unicode="&#xcc;" horiz-adv-x="512" 
d="M199 1561l-226 315h227l171 -315h-172zM127 0v1443h258v-1443h-258z" />
    <glyph glyph-name="Iacute" unicode="&#xcd;" horiz-adv-x="512" 
d="M322 1561h-172l171 315h228zM127 0v1443h258v-1443h-258z" />
    <glyph glyph-name="Icircumflex" unicode="&#xce;" horiz-adv-x="512" 
d="M-72 1561l225 315h205l226 -315h-186l-144 201l-140 -201h-186zM127 0v1443h258v-1443h-258z" />
    <glyph glyph-name="Idieresis" unicode="&#xcf;" horiz-adv-x="512" 
d="M58 1589q-53 0 -89.5 36t-36.5 88q0 51 36.5 87t89.5 36t89.5 -36t36.5 -87q0 -52 -36.5 -88t-89.5 -36zM454 1589q-53 0 -89.5 36t-36.5 88q0 51 37 87t89 36q54 0 90.5 -36t36.5 -87q0 -52 -36.5 -88t-90.5 -36zM127 0v1443h258v-1443h-258z" />
    <glyph glyph-name="Dstroke" unicode="&#x110;" horiz-adv-x="1460" 
d="M169 0v632h-127v179h127v632h527q324 0 505 -187.5t181 -528.5v-2q0 -343 -181 -534t-505 -191h-527zM427 218h242q218 0 334 130t116 376v2q0 241 -117 370t-333 129h-242v-414h233v-179h-233v-414z" />
    <glyph glyph-name="Dstroke" unicode="&#xd0;" horiz-adv-x="1460" 
d="M169 0v632h-127v179h127v632h527q324 0 505 -187.5t181 -528.5v-2q0 -343 -181 -534t-505 -191h-527zM427 218h242q218 0 334 130t116 376v2q0 241 -117 370t-333 129h-242v-414h233v-179h-233v-414z" />
    <glyph glyph-name="Ntilde" unicode="&#xd1;" horiz-adv-x="1452" 
d="M869 1558q-74 0 -137 49l-39 28q-57 42 -85 42q-57 0 -57 -113v-6h-143v13q0 135 46 204t128 69q69 0 134 -49l39 -28q54 -42 87 -42q57 0 57 113v6h144v-13q0 -135 -45.5 -204t-128.5 -69zM127 0v1443h232l703 -1011h6v1011h256v-1443h-230l-705 1015h-5v-1015h-257z
" />
    <glyph glyph-name="Ograve" unicode="&#xd2;" horiz-adv-x="1525" 
d="M706 1561l-227 315h228l170 -315h-171zM763 -25q-316 0 -500.5 201t-184.5 545v2q0 343 185 544t500 201q316 0 500 -200.5t184 -544.5v-2q0 -344 -184 -545t-500 -201zM763 199q195 0 308.5 141.5t113.5 380.5v2q0 240 -114 380.5t-308 140.5q-193 0 -307.5 -140.5
t-114.5 -380.5v-2q0 -240 114 -381t308 -141z" />
    <glyph glyph-name="Oacute" unicode="&#xd3;" horiz-adv-x="1525" 
d="M828 1561h-171l170 315h228zM763 -25q-316 0 -500.5 201t-184.5 545v2q0 343 185 544t500 201q316 0 500 -200.5t184 -544.5v-2q0 -344 -184 -545t-500 -201zM763 199q195 0 308.5 141.5t113.5 380.5v2q0 240 -114 380.5t-308 140.5q-193 0 -307.5 -140.5t-114.5 -380.5
v-2q0 -240 114 -381t308 -141z" />
    <glyph glyph-name="Ocircumflex" unicode="&#xd4;" horiz-adv-x="1525" 
d="M435 1561l224 315h206l226 -315h-186l-144 201l-140 -201h-186zM763 -25q-316 0 -500.5 201t-184.5 545v2q0 343 185 544t500 201q316 0 500 -200.5t184 -544.5v-2q0 -344 -184 -545t-500 -201zM763 199q195 0 308.5 141.5t113.5 380.5v2q0 240 -114 380.5t-308 140.5
q-193 0 -307.5 -140.5t-114.5 -380.5v-2q0 -240 114 -381t308 -141z" />
    <glyph glyph-name="Otilde" unicode="&#xd5;" horiz-adv-x="1525" 
d="M906 1558q-74 0 -137 49l-40 28q-55 42 -84 42q-57 0 -57 -113v-6h-144v13q0 135 46.5 204t127.5 69q70 0 134 -49l40 -28q54 -42 87 -42q57 0 57 113v6h144v-13q0 -135 -45.5 -204t-128.5 -69zM763 -25q-316 0 -500.5 201t-184.5 545v2q0 343 185 544t500 201
q316 0 500 -200.5t184 -544.5v-2q0 -344 -184 -545t-500 -201zM763 199q195 0 308.5 141.5t113.5 380.5v2q0 240 -114 380.5t-308 140.5q-193 0 -307.5 -140.5t-114.5 -380.5v-2q0 -240 114 -381t308 -141z" />
    <glyph glyph-name="Odieresis" unicode="&#xd6;" horiz-adv-x="1525" 
d="M565 1589q-53 0 -90 36t-37 88q0 51 37 87t90 36t89.5 -36t36.5 -87q0 -52 -36.5 -88t-89.5 -36zM961 1589q-53 0 -89.5 36t-36.5 88q0 51 37 87t89 36q54 0 90 -36t36 -87q0 -52 -36 -88t-90 -36zM763 -25q-316 0 -500.5 201t-184.5 545v2q0 343 185 544t500 201
q316 0 500 -200.5t184 -544.5v-2q0 -344 -184 -545t-500 -201zM763 199q195 0 308.5 141.5t113.5 380.5v2q0 240 -114 380.5t-308 140.5q-193 0 -307.5 -140.5t-114.5 -380.5v-2q0 -240 114 -381t308 -141z" />
    <glyph glyph-name="multiply" unicode="&#xd7;" horiz-adv-x="1293" 
d="M150 966l145 149l352 -377l352 377l145 -149l-355 -380l355 -381l-145 -148l-352 377l-352 -377l-145 148l355 381z" />
    <glyph glyph-name="Ostroke" unicode="&#xd8;" horiz-adv-x="1518" 
d="M759 -25q-256 0 -430 138l-147 -169l-113 98l155 179q-146 196 -146 500v2q0 343 183.5 544t497.5 201q255 0 429 -138l147 169l113 -98l-155 -179q146 -196 146 -499v-2q0 -344 -183 -545t-497 -201zM325 721q0 -181 66 -307l641 737q-110 98 -273 98
q-199 0 -316.5 -142t-117.5 -384v-2zM759 194q200 0 316.5 142.5t116.5 384.5v2q0 180 -66 307l-641 -738q110 -98 274 -98z" />
    <glyph glyph-name="Ugrave" unicode="&#xd9;" horiz-adv-x="1441" 
d="M664 1561l-227 315h228l170 -315h-171zM721 -25q-273 0 -433.5 146.5t-160.5 387.5v934h258v-913q0 -152 88.5 -241.5t247.5 -89.5q158 0 246.5 89.5t88.5 241.5v913h257v-934q0 -241 -159.5 -387.5t-432.5 -146.5z" />
    <glyph glyph-name="Uacute" unicode="&#xda;" horiz-adv-x="1441" 
d="M786 1561h-172l171 315h228zM721 -25q-273 0 -433.5 146.5t-160.5 387.5v934h258v-913q0 -152 88.5 -241.5t247.5 -89.5q158 0 246.5 89.5t88.5 241.5v913h257v-934q0 -241 -159.5 -387.5t-432.5 -146.5z" />
    <glyph glyph-name="Ucircumflex" unicode="&#xdb;" horiz-adv-x="1441" 
d="M392 1561l225 315h205l226 -315h-186l-143 201l-141 -201h-186zM721 -25q-273 0 -433.5 146.5t-160.5 387.5v934h258v-913q0 -152 88.5 -241.5t247.5 -89.5q158 0 246.5 89.5t88.5 241.5v913h257v-934q0 -241 -159.5 -387.5t-432.5 -146.5z" />
    <glyph glyph-name="Udieresis" unicode="&#xdc;" horiz-adv-x="1441" 
d="M522 1589q-53 0 -89.5 36t-36.5 88q0 51 36.5 87t89.5 36t89.5 -36t36.5 -87q0 -52 -36.5 -88t-89.5 -36zM919 1589q-53 0 -89.5 36t-36.5 88q0 51 36.5 87t89.5 36t89.5 -36t36.5 -87q0 -52 -36.5 -88t-89.5 -36zM721 -25q-273 0 -433.5 146.5t-160.5 387.5v934h258
v-913q0 -152 88.5 -241.5t247.5 -89.5q158 0 246.5 89.5t88.5 241.5v913h257v-934q0 -241 -159.5 -387.5t-432.5 -146.5z" />
    <glyph glyph-name="Yacute" unicode="&#xdd;" horiz-adv-x="1323" 
d="M727 1561h-172l171 315h228zM533 0v569l-506 874h282l349 -628h7l349 628h282l-506 -874v-569h-257z" />
    <glyph glyph-name="Thorn" unicode="&#xde;" horiz-adv-x="1294" 
d="M154 0v1443h259v-246h331q196 0 326 -119.5t130 -321.5v-2q0 -134 -63 -236t-168 -154t-235 -52h-322v-312h-258zM672 986h-259l-1 -465h259q122 0 194 59.5t72 172.5v2q0 112 -72 171.5t-193 59.5z" />
    <glyph glyph-name="germandbls" unicode="&#xdf;" horiz-adv-x="1217" 
d="M685 -19q-100 0 -164 16v202q60 -16 128 -16q114 0 179.5 59.5t65.5 159.5v1q0 110 -74 174.5t-207 64.5h-69v194h49q93 0 146.5 60.5t53.5 159.5v1q0 92 -56 147.5t-151 55.5q-105 0 -162 -61t-57 -170v-1029h-249v1067q0 183 125 290t336 107q203 0 331 -106t128 -278
v-1q0 -113 -60.5 -199.5t-158.5 -114.5v-5q149 -17 239 -116.5t90 -250.5v-1q0 -187 -125.5 -299t-337.5 -112z" />
    <glyph glyph-name="agrave" unicode="&#xe0;" horiz-adv-x="1087" 
d="M488 1180l-236 326h231l179 -326h-174zM415 -18q-159 0 -257 89t-98 231v2q0 141 105 223t298 94l277 17v73q0 81 -51 126.5t-145 45.5q-86 0 -140 -36.5t-66 -96.5l-2 -9h-231l1 12q12 145 131 237t316 92q198 0 317 -96.5t119 -256.5v-729h-249v163h-6
q-46 -84 -130.5 -132.5t-188.5 -48.5zM308 312q0 -65 49.5 -102.5t131.5 -37.5q107 0 179 63.5t72 157.5v80l-242 -15q-92 -6 -141 -44t-49 -101v-1z" />
    <glyph glyph-name="aacute" unicode="&#xe1;" horiz-adv-x="1087" 
d="M613 1180h-174l179 326h231zM415 -18q-159 0 -257 89t-98 231v2q0 141 105 223t298 94l277 17v73q0 81 -51 126.5t-145 45.5q-86 0 -140 -36.5t-66 -96.5l-2 -9h-231l1 12q12 145 131 237t316 92q198 0 317 -96.5t119 -256.5v-729h-249v163h-6q-46 -84 -130.5 -132.5
t-188.5 -48.5zM308 312q0 -65 49.5 -102.5t131.5 -37.5q107 0 179 63.5t72 157.5v80l-242 -15q-92 -6 -141 -44t-49 -101v-1z" />
    <glyph glyph-name="acircumflex" unicode="&#xe2;" horiz-adv-x="1087" 
d="M211 1180l232 326h213l234 -326h-189l-152 209l-149 -209h-189zM415 -18q-159 0 -257 89t-98 231v2q0 141 105 223t298 94l277 17v73q0 81 -51 126.5t-145 45.5q-86 0 -140 -36.5t-66 -96.5l-2 -9h-231l1 12q12 145 131 237t316 92q198 0 317 -96.5t119 -256.5v-729h-249
v163h-6q-46 -84 -130.5 -132.5t-188.5 -48.5zM308 312q0 -65 49.5 -102.5t131.5 -37.5q107 0 179 63.5t72 157.5v80l-242 -15q-92 -6 -141 -44t-49 -101v-1z" />
    <glyph glyph-name="atilde" unicode="&#xe3;" horiz-adv-x="1087" 
d="M701 1178q-76 0 -144 52l-41 30q-58 45 -89 45q-59 0 -59 -119v-8h-147v14q0 139 48 210.5t131 71.5q73 0 141 -52l41 -31q58 -44 92 -44q59 0 59 119v7h147v-13q0 -139 -47 -210.5t-132 -71.5zM415 -18q-159 0 -257 89t-98 231v2q0 141 105 223t298 94l277 17v73
q0 81 -51 126.5t-145 45.5q-86 0 -140 -36.5t-66 -96.5l-2 -9h-231l1 12q12 145 131 237t316 92q198 0 317 -96.5t119 -256.5v-729h-249v163h-6q-46 -84 -130.5 -132.5t-188.5 -48.5zM308 312q0 -65 49.5 -102.5t131.5 -37.5q107 0 179 63.5t72 157.5v80l-242 -15
q-92 -6 -141 -44t-49 -101v-1z" />
    <glyph glyph-name="adieresis" unicode="&#xe4;" horiz-adv-x="1087" 
d="M345 1213q-53 0 -90.5 37t-37.5 89t37.5 88.5t90.5 36.5q54 0 91 -36.5t37 -88.5t-37 -89t-91 -37zM756 1213q-54 0 -91 37t-37 89t37 88.5t91 36.5t91 -36.5t37 -88.5t-37 -89t-91 -37zM415 -18q-159 0 -257 89t-98 231v2q0 141 105 223t298 94l277 17v73
q0 81 -51 126.5t-145 45.5q-86 0 -140 -36.5t-66 -96.5l-2 -9h-231l1 12q12 145 131 237t316 92q198 0 317 -96.5t119 -256.5v-729h-249v163h-6q-46 -84 -130.5 -132.5t-188.5 -48.5zM308 312q0 -65 49.5 -102.5t131.5 -37.5q107 0 179 63.5t72 157.5v80l-242 -15
q-92 -6 -141 -44t-49 -101v-1z" />
    <glyph glyph-name="aring" unicode="&#xe5;" horiz-adv-x="1087" 
d="M551 1159q-88 0 -151 60.5t-63 147.5v1q0 87 63 147t151 60t150.5 -60t62.5 -147v-1q0 -87 -62.5 -147.5t-150.5 -60.5zM551 1278q37 0 63.5 26t26.5 63v1q0 37 -26 63t-64 26t-64.5 -26t-26.5 -63v-1q0 -37 26.5 -63t64.5 -26zM415 -18q-159 0 -257 89t-98 231v2
q0 141 105 223t298 94l277 17v73q0 81 -51 126.5t-145 45.5q-86 0 -140 -36.5t-66 -96.5l-2 -9h-231l1 12q12 145 131 237t316 92q198 0 317 -96.5t119 -256.5v-729h-249v163h-6q-46 -84 -130.5 -132.5t-188.5 -48.5zM308 312q0 -65 49.5 -102.5t131.5 -37.5q107 0 179 63.5
t72 157.5v80l-242 -15q-92 -6 -141 -44t-49 -101v-1z" />
    <glyph glyph-name="ae" unicode="&#xe6;" horiz-adv-x="1768" 
d="M456 -21q-181 0 -288.5 88t-107.5 234v2q0 141 106 221.5t305 91.5l275 15v65q0 83 -58.5 136t-152.5 53q-80 0 -133.5 -36t-66.5 -97l-2 -10h-231l1 12q12 147 131 237.5t302 90.5q124 0 216.5 -48t134.5 -131h8q111 179 353 179q210 0 336 -144t126 -387v-80h-729v-16
q0 -127 73.5 -205t192.5 -78q84 0 142 40.5t77 97.5l2 7h233l-3 -13q-16 -84 -71 -156t-156.5 -120.5t-228.5 -48.5q-129 0 -231 56t-155 154h-9q-60 -101 -160.5 -155.5t-230.5 -54.5zM982 634h485v1q0 109 -66.5 181t-173.5 72q-103 0 -171 -72.5t-74 -179.5v-2zM485 166
q110 0 185.5 65.5t75.5 159.5v79l-246 -15q-95 -6 -146.5 -42.5t-51.5 -99.5v-2q0 -65 51 -105t132 -40z" />
    <glyph glyph-name="ccedilla" unicode="&#xe7;" horiz-adv-x="1083" 
d="M555 -468q-108 0 -161 25v129q48 -16 103 -16q43 0 69.5 14t26.5 43v2q0 66 -112 66h-41v87l65 100q-208 20 -327.5 166.5t-119.5 382.5v1q0 253 138.5 401.5t370.5 148.5q203 0 329.5 -112t138.5 -277l1 -8h-235l-2 9q-17 82 -76 134t-153 52q-118 0 -188 -94t-70 -256
v-1q0 -164 70 -256.5t189 -92.5q92 0 151.5 50t77.5 136l2 9h235l-1 -7q-13 -149 -115 -254t-265 -129l-46 -71q84 -8 132.5 -56t48.5 -132v-2q0 -89 -66.5 -140.5t-169.5 -51.5z" />
    <glyph glyph-name="egrave" unicode="&#xe8;" horiz-adv-x="1105" 
d="M500 1180l-235 326h231l178 -326h-174zM568 -21q-238 0 -374 147t-136 401v1q0 251 135.5 402.5t362.5 151.5q226 0 358.5 -145.5t132.5 -387.5v-80h-742q3 -139 74.5 -217.5t193.5 -78.5q88 0 149 40t80 97l2 7h233l-3 -11q-13 -63 -48.5 -120t-92 -104t-141 -75
t-184.5 -28zM559 887q-101 0 -168.5 -66t-82.5 -186h497q-13 123 -78.5 187.5t-167.5 64.5z" />
    <glyph glyph-name="eacute" unicode="&#xe9;" horiz-adv-x="1105" 
d="M625 1180h-173l178 326h231zM568 -21q-238 0 -374 147t-136 401v1q0 251 135.5 402.5t362.5 151.5q226 0 358.5 -145.5t132.5 -387.5v-80h-742q3 -139 74.5 -217.5t193.5 -78.5q88 0 149 40t80 97l2 7h233l-3 -11q-13 -63 -48.5 -120t-92 -104t-141 -75t-184.5 -28z
M559 887q-101 0 -168.5 -66t-82.5 -186h497q-13 123 -78.5 187.5t-167.5 64.5z" />
    <glyph glyph-name="ecircumflex" unicode="&#xea;" horiz-adv-x="1105" 
d="M223 1180l233 326h213l233 -326h-188l-153 209l-149 -209h-189zM568 -21q-238 0 -374 147t-136 401v1q0 251 135.5 402.5t362.5 151.5q226 0 358.5 -145.5t132.5 -387.5v-80h-742q3 -139 74.5 -217.5t193.5 -78.5q88 0 149 40t80 97l2 7h233l-3 -11q-13 -63 -48.5 -120
t-92 -104t-141 -75t-184.5 -28zM559 887q-101 0 -168.5 -66t-82.5 -186h497q-13 123 -78.5 187.5t-167.5 64.5z" />
    <glyph glyph-name="edieresis" unicode="&#xeb;" horiz-adv-x="1105" 
d="M358 1213q-54 0 -91.5 37t-37.5 89t37.5 88.5t91.5 36.5t90.5 -36.5t36.5 -88.5t-36.5 -89t-90.5 -37zM768 1213q-53 0 -90.5 37t-37.5 89t37.5 88.5t90.5 36.5q54 0 91 -36.5t37 -88.5t-37 -89t-91 -37zM568 -21q-238 0 -374 147t-136 401v1q0 251 135.5 402.5
t362.5 151.5q226 0 358.5 -145.5t132.5 -387.5v-80h-742q3 -139 74.5 -217.5t193.5 -78.5q88 0 149 40t80 97l2 7h233l-3 -11q-13 -63 -48.5 -120t-92 -104t-141 -75t-184.5 -28zM559 887q-101 0 -168.5 -66t-82.5 -186h497q-13 123 -78.5 187.5t-167.5 64.5z" />
    <glyph glyph-name="igrave" unicode="&#xec;" horiz-adv-x="467" 
d="M171 1180l-236 326h231l179 -326h-174zM109 0v1060h249v-1060h-249z" />
    <glyph glyph-name="iacute" unicode="&#xed;" horiz-adv-x="467" 
d="M296 1180h-174l179 326h231zM109 0v1060h249v-1060h-249z" />
    <glyph glyph-name="icircumflex" unicode="&#xee;" horiz-adv-x="467" 
d="M-106 1180l232 326h213l234 -326h-189l-152 209l-149 -209h-189zM109 0v1060h249v-1060h-249z" />
    <glyph glyph-name="idieresis" unicode="&#xef;" horiz-adv-x="467" 
d="M28 1213q-53 0 -90.5 37t-37.5 89t37.5 88.5t90.5 36.5q54 0 91 -36.5t37 -88.5t-37 -89t-91 -37zM439 1213q-54 0 -91 37t-37 89t37 88.5t91 36.5t91 -36.5t37 -88.5t-37 -89t-91 -37zM109 0v1060h249v-1060h-249z" />
    <glyph glyph-name="eth" unicode="&#xf0;" horiz-adv-x="1157" 
d="M582 -21q-243 0 -377.5 145t-134.5 383v2q0 117 37 213.5t100 157.5t144 94t170 33q86 0 155.5 -34.5t108.5 -93.5h11l-9 20q-65 155 -232 278l-235 -144l-68 99l191 118q-96 56 -214 102l52 125q180 -53 321 -129l213 131l68 -99l-168 -103q371 -264 371 -719v-2
q0 -257 -135 -417t-369 -160zM586 180q121 0 186.5 93t65.5 238v2q0 150 -67 233t-186 83q-117 0 -189 -85t-72 -232v-2q0 -154 69.5 -242t192.5 -88z" />
    <glyph glyph-name="ntilde" unicode="&#xf1;" horiz-adv-x="1143" 
d="M724 1178q-76 0 -144 52l-41 30q-58 45 -89 45q-59 0 -59 -119v-8h-146v14q0 139 47.5 210.5t131.5 71.5q73 0 141 -52l40 -31q58 -44 92 -44q59 0 59 119v7h147v-13q0 -139 -47 -210.5t-132 -71.5zM102 0v1060h249v-166h5q43 89 125 138.5t199 49.5q174 0 270 -105
t96 -291v-686h-249v636q0 115 -53.5 175.5t-158.5 60.5q-107 0 -170.5 -71t-63.5 -186v-615h-249z" />
    <glyph glyph-name="ograve" unicode="&#xf2;" horiz-adv-x="1142" 
d="M509 1180l-236 326h231l178 -326h-173zM571 -21q-235 0 -374 147.5t-139 403.5v2q0 253 139.5 401.5t372.5 148.5q234 0 374 -148t140 -402v-2q0 -256 -139 -403.5t-374 -147.5zM572 180q119 0 188.5 92.5t69.5 257.5v2q0 164 -70 256t-190 92q-118 0 -188 -92.5
t-70 -255.5v-2q0 -166 70 -258t190 -92z" />
    <glyph glyph-name="oacute" unicode="&#xf3;" horiz-adv-x="1142" 
d="M634 1180h-174l179 326h231zM571 -21q-235 0 -374 147.5t-139 403.5v2q0 253 139.5 401.5t372.5 148.5q234 0 374 -148t140 -402v-2q0 -256 -139 -403.5t-374 -147.5zM572 180q119 0 188.5 92.5t69.5 257.5v2q0 164 -70 256t-190 92q-118 0 -188 -92.5t-70 -255.5v-2
q0 -166 70 -258t190 -92z" />
    <glyph glyph-name="ocircumflex" unicode="&#xf4;" horiz-adv-x="1142" 
d="M232 1180l232 326h213l234 -326h-189l-152 209l-149 -209h-189zM571 -21q-235 0 -374 147.5t-139 403.5v2q0 253 139.5 401.5t372.5 148.5q234 0 374 -148t140 -402v-2q0 -256 -139 -403.5t-374 -147.5zM572 180q119 0 188.5 92.5t69.5 257.5v2q0 164 -70 256t-190 92
q-118 0 -188 -92.5t-70 -255.5v-2q0 -166 70 -258t190 -92z" />
    <glyph glyph-name="otilde" unicode="&#xf5;" horiz-adv-x="1142" 
d="M722 1178q-76 0 -144 52l-41 30q-58 45 -89 45q-59 0 -59 -119v-8h-147v14q0 139 48 210.5t131 71.5q73 0 141 -52l41 -31q58 -44 92 -44q59 0 59 119v7h147v-13q0 -139 -47 -210.5t-132 -71.5zM571 -21q-235 0 -374 147.5t-139 403.5v2q0 253 139.5 401.5t372.5 148.5
q234 0 374 -148t140 -402v-2q0 -256 -139 -403.5t-374 -147.5zM572 180q119 0 188.5 92.5t69.5 257.5v2q0 164 -70 256t-190 92q-118 0 -188 -92.5t-70 -255.5v-2q0 -166 70 -258t190 -92z" />
    <glyph glyph-name="odieresis" unicode="&#xf6;" horiz-adv-x="1142" 
d="M366 1213q-54 0 -91 37t-37 89t37 88.5t91 36.5t91 -36.5t37 -88.5t-37 -89t-91 -37zM776 1213q-53 0 -90 37t-37 89t37 88.5t90 36.5q54 0 91.5 -36.5t37.5 -88.5t-37.5 -89t-91.5 -37zM571 -21q-235 0 -374 147.5t-139 403.5v2q0 253 139.5 401.5t372.5 148.5
q234 0 374 -148t140 -402v-2q0 -256 -139 -403.5t-374 -147.5zM572 180q119 0 188.5 92.5t69.5 257.5v2q0 164 -70 256t-190 92q-118 0 -188 -92.5t-70 -255.5v-2q0 -166 70 -258t190 -92z" />
    <glyph glyph-name="divide" unicode="&#xf7;" horiz-adv-x="1293" 
d="M646 842q-54 0 -92 38t-38 92q0 55 38 92.5t92 37.5q55 0 92.5 -37.5t37.5 -92.5q0 -54 -37.5 -92t-92.5 -38zM97 475v222h1099v-222h-1099zM646 70q-54 0 -92 37.5t-38 92.5q0 54 38 92t92 38q55 0 92.5 -38t37.5 -92q0 -55 -37.5 -92.5t-92.5 -37.5z" />
    <glyph glyph-name="ostroke" unicode="&#xf8;" horiz-adv-x="1142" 
d="M571 -21q-185 0 -311 95l-116 -131l-104 93l122 138q-100 142 -100 356v2q0 253 139 401t369 148q183 0 311 -94l115 130l104 -92l-122 -138q102 -143 102 -355v-2q0 -256 -138 -403.5t-371 -147.5zM306 530q0 -96 24 -167l405 458q-67 61 -165 61q-120 0 -192 -93
t-72 -257v-2zM572 177q121 0 192.5 93.5t71.5 259.5v2q0 93 -25 166l-405 -459q67 -62 166 -62z" />
    <glyph glyph-name="ugrave" unicode="&#xf9;" horiz-adv-x="1143" 
d="M506 1180l-235 326h231l178 -326h-174zM463 -21q-174 0 -270 105t-96 291v685h249v-636q0 -114 53.5 -174.5t158.5 -60.5q107 0 170.5 70.5t63.5 186.5v614h249v-1060h-249v166h-5q-43 -88 -125 -137.5t-199 -49.5z" />
    <glyph glyph-name="uacute" unicode="&#xfa;" horiz-adv-x="1143" 
d="M631 1180h-173l178 326h231zM463 -21q-174 0 -270 105t-96 291v685h249v-636q0 -114 53.5 -174.5t158.5 -60.5q107 0 170.5 70.5t63.5 186.5v614h249v-1060h-249v166h-5q-43 -88 -125 -137.5t-199 -49.5z" />
    <glyph glyph-name="ucircumflex" unicode="&#xfb;" horiz-adv-x="1143" 
d="M229 1180l233 326h213l233 -326h-188l-153 209l-149 -209h-189zM463 -21q-174 0 -270 105t-96 291v685h249v-636q0 -114 53.5 -174.5t158.5 -60.5q107 0 170.5 70.5t63.5 186.5v614h249v-1060h-249v166h-5q-43 -88 -125 -137.5t-199 -49.5z" />
    <glyph glyph-name="udieresis" unicode="&#xfc;" horiz-adv-x="1143" 
d="M364 1213q-54 0 -91.5 37t-37.5 89t37.5 88.5t91.5 36.5t90.5 -36.5t36.5 -88.5t-36.5 -89t-90.5 -37zM774 1213q-53 0 -90.5 37t-37.5 89t37.5 88.5t90.5 36.5q54 0 91 -36.5t37 -88.5t-37 -89t-91 -37zM463 -21q-174 0 -270 105t-96 291v685h249v-636
q0 -114 53.5 -174.5t158.5 -60.5q107 0 170.5 70.5t63.5 186.5v614h249v-1060h-249v166h-5q-43 -88 -125 -137.5t-199 -49.5z" />
    <glyph glyph-name="yacute" unicode="&#xfd;" horiz-adv-x="1064" 
d="M599 1180h-174l178 326h231zM244 -352q-62 0 -128 11v190q43 -9 83 -9q74 0 115.5 25.5t64.5 90.5l15 43l-381 1061h272l248 -848h7l249 848h262l-381 -1096q-60 -172 -159 -244t-267 -72z" />
    <glyph glyph-name="thorn" unicode="&#xfe;" horiz-adv-x="1182" 
d="M102 -350v1793h249v-566h5q46 97 131.5 151t197.5 54q202 0 320.5 -148t118.5 -404v-1q0 -254 -118 -402t-318 -148q-112 0 -199.5 53t-132.5 147h-5v-529h-249zM611 189q119 0 189 91.5t70 248.5v1q0 159 -69.5 250.5t-189.5 91.5q-116 0 -189 -93.5t-73 -248.5v-1
q0 -154 73 -247t189 -93z" />
    <glyph glyph-name="ydieresis" unicode="&#xff;" horiz-adv-x="1064" 
d="M331 1213q-54 0 -91 37t-37 89t37 88.5t91 36.5t91 -36.5t37 -88.5t-37 -89t-91 -37zM741 1213q-53 0 -90 37t-37 89t37 88.5t90 36.5q54 0 91.5 -36.5t37.5 -88.5t-37.5 -89t-91.5 -37zM244 -352q-62 0 -128 11v190q43 -9 83 -9q74 0 115.5 25.5t64.5 90.5l15 43
l-381 1061h272l248 -848h7l249 848h262l-381 -1096q-60 -172 -159 -244t-267 -72z" />
    <glyph glyph-name="Amacron" unicode="&#x100;" horiz-adv-x="1375" 
d="M394 1633v159h587v-159h-587zM27 0l516 1443h290l516 -1443h-271l-122 373h-537l-122 -373h-270zM685 1186l-201 -614h407l-200 614h-6z" />
    <glyph glyph-name="amacron" unicode="&#x101;" horiz-adv-x="1087" 
d="M247 1258v161h608v-161h-608zM415 -18q-159 0 -257 89t-98 231v2q0 141 105 223t298 94l277 17v73q0 81 -51 126.5t-145 45.5q-86 0 -140 -36.5t-66 -96.5l-2 -9h-231l1 12q12 145 131 237t316 92q198 0 317 -96.5t119 -256.5v-729h-249v163h-6q-46 -84 -130.5 -132.5
t-188.5 -48.5zM308 312q0 -65 49.5 -102.5t131.5 -37.5q107 0 179 63.5t72 157.5v80l-242 -15q-92 -6 -141 -44t-49 -101v-1z" />
    <glyph glyph-name="Abreve" unicode="&#x102;" horiz-adv-x="1375" 
d="M688 1557q-141 0 -227 83.5t-86 218.5v9h158v-4q0 -67 42.5 -112t112.5 -45t112.5 45t42.5 112v4h158v-9q0 -135 -86 -218.5t-227 -83.5zM27 0l516 1443h290l516 -1443h-271l-122 373h-537l-122 -373h-270zM685 1186l-201 -614h407l-200 614h-6z" />
    <glyph glyph-name="abreve" unicode="&#x103;" horiz-adv-x="1087" 
d="M551 1177q-151 0 -243 86.5t-92 225.5v10h161v-4q0 -71 47.5 -119t126.5 -48q78 0 125.5 48t47.5 119v4h162v-10q0 -139 -92 -225.5t-243 -86.5zM415 -18q-159 0 -257 89t-98 231v2q0 141 105 223t298 94l277 17v73q0 81 -51 126.5t-145 45.5q-86 0 -140 -36.5t-66 -96.5
l-2 -9h-231l1 12q12 145 131 237t316 92q198 0 317 -96.5t119 -256.5v-729h-249v163h-6q-46 -84 -130.5 -132.5t-188.5 -48.5zM308 312q0 -65 49.5 -102.5t131.5 -37.5q107 0 179 63.5t72 157.5v80l-242 -15q-92 -6 -141 -44t-49 -101v-1z" />
    <glyph glyph-name="Aogonek" unicode="&#x104;" horiz-adv-x="1375" 
d="M27 0l516 1443h290l516 -1443q-137 -100 -137 -222v-2q0 -53 28 -81t71 -28q33 0 53 9v-133q-44 -22 -131 -22q-104 0 -171.5 57t-67.5 159v2q0 74 39 142.5t110 118.5h-65l-122 373h-537l-122 -373h-270zM685 1186l-201 -614h407l-200 614h-6z" />
    <glyph glyph-name="aogonek" unicode="&#x105;" horiz-adv-x="1087" 
d="M415 -18q-159 0 -257 89t-98 231v2q0 141 105 223t298 94l277 17v73q0 81 -51 126.5t-145 45.5q-86 0 -140 -36.5t-66 -96.5l-2 -9h-231l1 12q12 145 131 237t316 92q198 0 317 -96.5t119 -256.5v-729q-137 -100 -137 -222v-2q0 -53 28 -81t71 -28q33 0 54 9v-133
q-45 -22 -132 -22q-104 0 -171.5 57t-67.5 159v2q0 74 39 142.5t110 118.5h-43v163h-6q-46 -84 -130.5 -132.5t-188.5 -48.5zM308 312q0 -65 49.5 -102.5t131.5 -37.5q107 0 179 63.5t72 157.5v80l-242 -15q-92 -6 -141 -44t-49 -101v-1z" />
    <glyph glyph-name="Cacute" unicode="&#x106;" horiz-adv-x="1439" 
d="M821 1561h-171l170 315h228zM755 -25q-312 0 -494.5 201t-182.5 546v1q0 345 183 545t494 200q247 0 416 -139.5t198 -361.5l1 -10h-253l-5 19q-32 126 -125 197t-232 71q-189 0 -301 -140.5t-112 -380.5v-1q0 -240 112 -381.5t301 -141.5q138 0 231.5 72t128.5 205l3 10
h253l-2 -10q-28 -223 -197 -362t-417 -139z" />
    <glyph glyph-name="cacute" unicode="&#x107;" horiz-adv-x="1083" 
d="M632 1180h-174l179 326h231zM570 -21q-236 0 -374 148.5t-138 403.5v1q0 253 138.5 401.5t370.5 148.5q203 0 329.5 -112t138.5 -277l1 -8h-235l-2 9q-17 82 -76 134t-153 52q-118 0 -188 -94t-70 -256v-1q0 -164 70 -256.5t189 -92.5q92 0 151.5 50t77.5 136l2 9h235
l-1 -7q-15 -169 -142 -279t-324 -110z" />
    <glyph glyph-name="Ccircumflex" unicode="&#x108;" horiz-adv-x="1439" 
d="M428 1561l224 315h206l225 -315h-185l-144 201l-141 -201h-185zM755 -25q-312 0 -494.5 201t-182.5 546v1q0 345 183 545t494 200q247 0 416 -139.5t198 -361.5l1 -10h-253l-5 19q-32 126 -125 197t-232 71q-189 0 -301 -140.5t-112 -380.5v-1q0 -240 112 -381.5
t301 -141.5q138 0 231.5 72t128.5 205l3 10h253l-2 -10q-28 -223 -197 -362t-417 -139z" />
    <glyph glyph-name="ccircumflex" unicode="&#x109;" horiz-adv-x="1083" 
d="M230 1180l232 326h213l234 -326h-189l-152 209l-149 -209h-189zM570 -21q-236 0 -374 148.5t-138 403.5v1q0 253 138.5 401.5t370.5 148.5q203 0 329.5 -112t138.5 -277l1 -8h-235l-2 9q-17 82 -76 134t-153 52q-118 0 -188 -94t-70 -256v-1q0 -164 70 -256.5t189 -92.5
q92 0 151.5 50t77.5 136l2 9h235l-1 -7q-15 -169 -142 -279t-324 -110z" />
    <glyph glyph-name="Cdotabove" unicode="&#x10a;" horiz-adv-x="1439" 
d="M755 1587q-55 0 -93.5 38.5t-38.5 91.5t38.5 91t93.5 38t93.5 -38t38.5 -91q0 -54 -38.5 -92t-93.5 -38zM755 -25q-312 0 -494.5 201t-182.5 546v1q0 345 183 545t494 200q247 0 416 -139.5t198 -361.5l1 -10h-253l-5 19q-32 126 -125 197t-232 71q-189 0 -301 -140.5
t-112 -380.5v-1q0 -240 112 -381.5t301 -141.5q138 0 231.5 72t128.5 205l3 10h253l-2 -10q-28 -223 -197 -362t-417 -139z" />
    <glyph glyph-name="cdotabove" unicode="&#x10b;" horiz-adv-x="1083" 
d="M569 1212q-57 0 -97.5 40t-40.5 96q0 57 40 97t98 40q59 0 99 -40t40 -97q0 -56 -40 -96t-99 -40zM570 -21q-236 0 -374 148.5t-138 403.5v1q0 253 138.5 401.5t370.5 148.5q203 0 329.5 -112t138.5 -277l1 -8h-235l-2 9q-17 82 -76 134t-153 52q-118 0 -188 -94
t-70 -256v-1q0 -164 70 -256.5t189 -92.5q92 0 151.5 50t77.5 136l2 9h235l-1 -7q-15 -169 -142 -279t-324 -110z" />
    <glyph glyph-name="Ccaron" unicode="&#x10c;" horiz-adv-x="1439" 
d="M1083 1876l-224 -315h-206l-225 315h185l144 -201l141 201h185zM755 -25q-312 0 -494.5 201t-182.5 546v1q0 345 183 545t494 200q247 0 416 -139.5t198 -361.5l1 -10h-253l-5 19q-32 126 -125 197t-232 71q-189 0 -301 -140.5t-112 -380.5v-1q0 -240 112 -381.5
t301 -141.5q138 0 231.5 72t128.5 205l3 10h253l-2 -10q-28 -223 -197 -362t-417 -139z" />
    <glyph glyph-name="ccaron" unicode="&#x10d;" horiz-adv-x="1083" 
d="M909 1506l-235 -326h-208l-236 326h189l152 -212l149 212h189zM570 -21q-236 0 -374 148.5t-138 403.5v1q0 253 138.5 401.5t370.5 148.5q203 0 329.5 -112t138.5 -277l1 -8h-235l-2 9q-17 82 -76 134t-153 52q-118 0 -188 -94t-70 -256v-1q0 -164 70 -256.5t189 -92.5
q92 0 151.5 50t77.5 136l2 9h235l-1 -7q-15 -169 -142 -279t-324 -110z" />
    <glyph glyph-name="Dcaron" unicode="&#x10e;" horiz-adv-x="1418" 
d="M967 1876l-224 -315h-206l-226 315h186l144 -201l140 201h186zM127 0v1443h527q324 0 505 -187.5t181 -528.5v-2q0 -343 -181 -534t-505 -191h-527zM385 218h242q218 0 334 130t116 376v2q0 241 -117 370t-333 129h-242v-1007z" />
    <glyph glyph-name="dcaron" unicode="&#x10f;" horiz-adv-x="1430" 
d="M1150 1180l72 326h208l-131 -326h-149zM496 -21q-202 0 -320 148t-118 403v1q0 255 118.5 403t318.5 148q112 0 199 -54t132 -150h6v565h249v-1443h-249v180h-6q-46 -95 -131.5 -148t-198.5 -53zM571 189q116 0 188.5 93t72.5 248v1q0 154 -72.5 247.5t-188.5 93.5
q-119 0 -189 -91.5t-70 -249.5v-1q0 -158 69.5 -249.5t189.5 -91.5z" />
    <glyph glyph-name="dstroke" unicode="&#x111;" horiz-adv-x="1224" 
d="M496 -21q-202 0 -320 148t-118 403v1q0 255 118.5 403t318.5 148q112 0 199 -54t132 -150h6v290h-188v144h188v131h249v-131h107v-144h-107v-1168h-249v180h-6q-46 -95 -131.5 -148t-198.5 -53zM571 189q116 0 188.5 93t72.5 248v1q0 154 -72.5 247.5t-188.5 93.5
q-119 0 -189 -91.5t-70 -249.5v-1q0 -158 69.5 -249.5t189.5 -91.5z" />
    <glyph glyph-name="Emacron" unicode="&#x112;" horiz-adv-x="1158" 
d="M300 1633v159h587v-159h-587zM127 0v1443h934v-217h-676v-389h639v-209h-639v-411h676v-217h-934z" />
    <glyph glyph-name="emacron" unicode="&#x113;" horiz-adv-x="1105" 
d="M259 1258v161h608v-161h-608zM568 -21q-238 0 -374 147t-136 401v1q0 251 135.5 402.5t362.5 151.5q226 0 358.5 -145.5t132.5 -387.5v-80h-742q3 -139 74.5 -217.5t193.5 -78.5q88 0 149 40t80 97l2 7h233l-3 -11q-13 -63 -48.5 -120t-92 -104t-141 -75t-184.5 -28z
M559 887q-101 0 -168.5 -66t-82.5 -186h497q-13 123 -78.5 187.5t-167.5 64.5z" />
    <glyph glyph-name="Ebreve" unicode="&#x114;" horiz-adv-x="1158" 
d="M594 1557q-141 0 -227 83.5t-86 218.5v9h158v-4q0 -67 42.5 -112t112.5 -45t112.5 45t42.5 112v4h158v-9q0 -135 -86 -218.5t-227 -83.5zM127 0v1443h934v-217h-676v-389h639v-209h-639v-411h676v-217h-934z" />
    <glyph glyph-name="ebreve" unicode="&#x115;" horiz-adv-x="1105" 
d="M563 1177q-151 0 -243 86.5t-92 225.5v10h161v-4q0 -71 47.5 -119t126.5 -48q78 0 126 48t48 119v4h161v-10q0 -139 -92 -225.5t-243 -86.5zM568 -21q-238 0 -374 147t-136 401v1q0 251 135.5 402.5t362.5 151.5q226 0 358.5 -145.5t132.5 -387.5v-80h-742
q3 -139 74.5 -217.5t193.5 -78.5q88 0 149 40t80 97l2 7h233l-3 -11q-13 -63 -48.5 -120t-92 -104t-141 -75t-184.5 -28zM559 887q-101 0 -168.5 -66t-82.5 -186h497q-13 123 -78.5 187.5t-167.5 64.5z" />
    <glyph glyph-name="Edotabove" unicode="&#x116;" horiz-adv-x="1158" 
d="M593 1587q-55 0 -93 38.5t-38 91.5t38 91t93 38q56 0 94.5 -37.5t38.5 -91.5t-38.5 -92t-94.5 -38zM127 0v1443h934v-217h-676v-389h639v-209h-639v-411h676v-217h-934z" />
    <glyph glyph-name="edotabove" unicode="&#x117;" horiz-adv-x="1105" 
d="M563 1212q-58 0 -98.5 40t-40.5 96q0 57 40.5 97t98.5 40t98.5 -40t40.5 -97q0 -56 -40.5 -96t-98.5 -40zM568 -21q-238 0 -374 147t-136 401v1q0 251 135.5 402.5t362.5 151.5q226 0 358.5 -145.5t132.5 -387.5v-80h-742q3 -139 74.5 -217.5t193.5 -78.5q88 0 149 40
t80 97l2 7h233l-3 -11q-13 -63 -48.5 -120t-92 -104t-141 -75t-184.5 -28zM559 887q-101 0 -168.5 -66t-82.5 -186h497q-13 123 -78.5 187.5t-167.5 64.5z" />
    <glyph glyph-name="Eogonek" unicode="&#x118;" horiz-adv-x="1158" 
d="M127 0v1443h934v-217h-676v-389h639v-209h-639v-411h676v-217q-137 -100 -137 -222v-2q0 -53 28 -81t71 -28q33 0 54 9v-133q-45 -22 -132 -22q-104 0 -171.5 57t-67.5 159v2q0 74 39 142.5t110 118.5h-728z" />
    <glyph glyph-name="eogonek" unicode="&#x119;" horiz-adv-x="1105" 
d="M568 -21q-238 0 -374 146.5t-136 400.5v1q0 251 135.5 403t363.5 152q226 0 358 -144.5t132 -386.5v-81h-740v-15q0 -128 72 -206t193 -78q92 0 152.5 40.5t79.5 98.5l3 7h227l-2 -11q-13 -65 -55.5 -139t-84 -128.5t-75 -125.5t-33.5 -135v-2q0 -53 28 -81t71 -28
q33 0 53 9v-133q-44 -22 -132 -22q-103 0 -170.5 57t-67.5 159v2q0 135 131 253q-58 -13 -129 -13zM558 889q-105 0 -173.5 -73t-74.5 -180v-2h493v1q0 109 -68 181.5t-177 72.5z" />
    <glyph glyph-name="Ecaron" unicode="&#x11a;" horiz-adv-x="1158" 
d="M922 1876l-225 -315h-205l-226 315h186l144 -201l140 201h186zM127 0v1443h934v-217h-676v-389h639v-209h-639v-411h676v-217h-934z" />
    <glyph glyph-name="ecaron" unicode="&#x11b;" horiz-adv-x="1105" 
d="M902 1506l-235 -326h-207l-237 326h189l152 -212l150 212h188zM568 -21q-238 0 -374 147t-136 401v1q0 251 135.5 402.5t362.5 151.5q226 0 358.5 -145.5t132.5 -387.5v-80h-742q3 -139 74.5 -217.5t193.5 -78.5q88 0 149 40t80 97l2 7h233l-3 -11q-13 -63 -48.5 -120
t-92 -104t-141 -75t-184.5 -28zM559 887q-101 0 -168.5 -66t-82.5 -186h497q-13 123 -78.5 187.5t-167.5 64.5z" />
    <glyph glyph-name="Gcircumflex" unicode="&#x11c;" horiz-adv-x="1473" 
d="M428 1561l225 315h205l226 -315h-186l-144 201l-140 -201h-186zM761 -25q-316 0 -499.5 201.5t-183.5 550.5v1q0 343 182.5 541.5t495.5 198.5q249 0 412.5 -129t206.5 -335l4 -16h-262l-3 11q-42 117 -133.5 181t-223.5 64q-195 0 -305.5 -136t-110.5 -378v-1
q0 -247 113.5 -388.5t309.5 -141.5q164 0 266.5 92.5t106.5 243.5l1 22h-358v201h610v-156q0 -294 -166.5 -460.5t-462.5 -166.5z" />
    <glyph glyph-name="gcircumflex" unicode="&#x11d;" horiz-adv-x="1182" 
d="M233 1180l232 326h213l234 -326h-189l-152 209l-150 -209h-188zM580 -371q-205 0 -335 82.5t-153 211.5l-2 9h245l3 -8q21 -48 84.5 -77.5t157.5 -29.5q120 0 185.5 59t65.5 162v153h-5q-45 -86 -132 -135.5t-199 -49.5q-200 0 -318.5 143.5t-118.5 390.5v1
q0 250 119.5 395.5t321.5 145.5q110 0 195 -54t131 -148h6v180h249v-1030q0 -181 -135.5 -291t-364.5 -110zM573 198q117 0 188 91.5t71 245.5v1q0 153 -71.5 244.5t-187.5 91.5q-120 0 -190.5 -90.5t-70.5 -244.5v-1q0 -156 70.5 -247t190.5 -91z" />
    <glyph glyph-name="Gbreve" unicode="&#x11e;" horiz-adv-x="1473" 
d="M756 1557q-141 0 -227 83.5t-86 218.5v9h158v-4q0 -67 42.5 -112t112.5 -45t113 45t43 112v4h158v-9q0 -135 -86.5 -218.5t-227.5 -83.5zM761 -25q-316 0 -499.5 201.5t-183.5 550.5v1q0 343 182.5 541.5t495.5 198.5q249 0 412.5 -129t206.5 -335l4 -16h-262l-3 11
q-42 117 -133.5 181t-223.5 64q-195 0 -305.5 -136t-110.5 -378v-1q0 -247 113.5 -388.5t309.5 -141.5q164 0 266.5 92.5t106.5 243.5l1 22h-358v201h610v-156q0 -294 -166.5 -460.5t-462.5 -166.5z" />
    <glyph glyph-name="gbreve" unicode="&#x11f;" horiz-adv-x="1182" 
d="M572 1177q-151 0 -243 86.5t-92 225.5v10h161v-4q0 -71 48 -119t126 -48q79 0 126.5 48t47.5 119v4h161v-10q0 -139 -92 -225.5t-243 -86.5zM580 -371q-205 0 -335 82.5t-153 211.5l-2 9h245l3 -8q21 -48 84.5 -77.5t157.5 -29.5q120 0 185.5 59t65.5 162v153h-5
q-45 -86 -132 -135.5t-199 -49.5q-200 0 -318.5 143.5t-118.5 390.5v1q0 250 119.5 395.5t321.5 145.5q110 0 195 -54t131 -148h6v180h249v-1030q0 -181 -135.5 -291t-364.5 -110zM573 198q117 0 188 91.5t71 245.5v1q0 153 -71.5 244.5t-187.5 91.5q-120 0 -190.5 -90.5
t-70.5 -244.5v-1q0 -156 70.5 -247t190.5 -91z" />
    <glyph glyph-name="Gdotabove" unicode="&#x120;" horiz-adv-x="1473" 
d="M755 1587q-54 0 -92.5 38.5t-38.5 91.5t38.5 91t92.5 38q56 0 94.5 -37.5t38.5 -91.5t-38.5 -92t-94.5 -38zM761 -25q-316 0 -499.5 201.5t-183.5 550.5v1q0 343 182.5 541.5t495.5 198.5q249 0 412.5 -129t206.5 -335l4 -16h-262l-3 11q-42 117 -133.5 181t-223.5 64
q-195 0 -305.5 -136t-110.5 -378v-1q0 -247 113.5 -388.5t309.5 -141.5q164 0 266.5 92.5t106.5 243.5l1 22h-358v201h610v-156q0 -294 -166.5 -460.5t-462.5 -166.5z" />
    <glyph glyph-name="gdotabove" unicode="&#x121;" horiz-adv-x="1182" 
d="M572 1212q-58 0 -98.5 40t-40.5 96q0 57 40.5 97t98.5 40t98.5 -40t40.5 -97q0 -56 -40.5 -96t-98.5 -40zM580 -371q-205 0 -335 82.5t-153 211.5l-2 9h245l3 -8q21 -48 84.5 -77.5t157.5 -29.5q120 0 185.5 59t65.5 162v153h-5q-45 -86 -132 -135.5t-199 -49.5
q-200 0 -318.5 143.5t-118.5 390.5v1q0 250 119.5 395.5t321.5 145.5q110 0 195 -54t131 -148h6v180h249v-1030q0 -181 -135.5 -291t-364.5 -110zM573 198q117 0 188 91.5t71 245.5v1q0 153 -71.5 244.5t-187.5 91.5q-120 0 -190.5 -90.5t-70.5 -244.5v-1q0 -156 70.5 -247
t190.5 -91z" />
    <glyph glyph-name="Gcommaaccent" unicode="&#x122;" horiz-adv-x="1473" 
d="M761 -25q-316 0 -499.5 201.5t-183.5 550.5v1q0 343 182.5 541.5t495.5 198.5q249 0 412.5 -129t206.5 -335l4 -16h-262l-3 11q-42 117 -133.5 181t-223.5 64q-195 0 -305.5 -136t-110.5 -378v-1q0 -247 113.5 -388.5t309.5 -141.5q164 0 266.5 92.5t106.5 243.5l1 22
h-358v201h610v-156q0 -294 -166.5 -460.5t-462.5 -166.5zM563 -468l81 348h222l-146 -348h-157z" />
    <glyph glyph-name="gcommaaccent" unicode="&#x123;" horiz-adv-x="1182" 
d="M769 1528l-81 -348h-222l146 348h157zM580 -371q-205 0 -335 82.5t-153 211.5l-2 9h245l3 -8q21 -48 84.5 -77.5t157.5 -29.5q120 0 185.5 59t65.5 162v153h-5q-45 -86 -132 -135.5t-199 -49.5q-200 0 -318.5 143.5t-118.5 390.5v1q0 250 119.5 395.5t321.5 145.5
q110 0 195 -54t131 -148h6v180h249v-1030q0 -181 -135.5 -291t-364.5 -110zM573 198q117 0 188 91.5t71 245.5v1q0 153 -71.5 244.5t-187.5 91.5q-120 0 -190.5 -90.5t-70.5 -244.5v-1q0 -156 70.5 -247t190.5 -91z" />
    <glyph glyph-name="Hcircumflex" unicode="&#x124;" horiz-adv-x="1471" 
d="M408 1561l224 315h206l226 -315h-186l-144 201l-140 -201h-186zM127 0v1443h258v-600h702v600h257v-1443h-257v626h-702v-626h-258z" />
    <glyph glyph-name="hcircumflex" unicode="&#x125;" horiz-adv-x="1163" 
d="M-95 1561l224 315h206l226 -315h-186l-144 201l-140 -201h-186zM109 0v1443h249v-561h6q42 96 125.5 148t201.5 52q171 0 272.5 -115t101.5 -307v-660h-249v611q0 123 -59 192t-166 69q-105 0 -169 -72.5t-64 -188.5v-611h-249z" />
    <glyph glyph-name="Hstroke" unicode="&#x126;" horiz-adv-x="1555" 
d="M170 0v1060h-127v179h127v204h257v-204h702v204h258v-204h127v-179h-127v-1060h-258v626h-702v-626h-257zM427 843h702v217h-702v-217z" />
    <glyph glyph-name="hstroke" unicode="&#x127;" horiz-adv-x="1199" 
d="M145 0v1168h-109v144h109v131h249v-131h184v-144h-184v-286h5q42 96 126 148t202 52q171 0 272.5 -115t101.5 -307v-660h-249v611q0 123 -59 192t-166 69q-105 0 -169 -72.5t-64 -188.5v-611h-249z" />
    <glyph glyph-name="Itilde" unicode="&#x128;" horiz-adv-x="512" 
d="M399 1558q-75 0 -136 49l-40 28q-55 42 -84 42q-57 0 -57 -113v-6h-144v13q0 135 46 204t128 69q69 0 134 -49l40 -28q54 -42 86 -42q58 0 58 113v6h143v-13q0 -135 -45.5 -204t-128.5 -69zM127 0v1443h258v-1443h-258z" />
    <glyph glyph-name="itilde" unicode="&#x129;" horiz-adv-x="467" 
d="M384 1178q-76 0 -144 52l-41 30q-58 45 -89 45q-59 0 -59 -119v-8h-147v14q0 139 48 210.5t131 71.5q73 0 141 -52l41 -31q58 -44 92 -44q59 0 59 119v7h147v-13q0 -139 -47 -210.5t-132 -71.5zM109 0v1060h249v-1060h-249z" />
    <glyph glyph-name="Imacron" unicode="&#x12a;" horiz-adv-x="512" 
d="M-38 1633v159h587v-159h-587zM127 0v1443h258v-1443h-258z" />
    <glyph glyph-name="imacron" unicode="&#x12b;" horiz-adv-x="467" 
d="M5 1258v161h457v-161h-457zM109 0v1060h249v-1060h-249z" />
    <glyph glyph-name="Ibreve" unicode="&#x12c;" horiz-adv-x="512" 
d="M256 1557q-141 0 -227 83.5t-86 218.5v9h158v-4q0 -67 42.5 -112t112.5 -45t112.5 45t42.5 112v4h159v-9q0 -135 -86.5 -218.5t-227.5 -83.5zM127 0v1443h258v-1443h-258z" />
    <glyph glyph-name="ibreve" unicode="&#x12d;" horiz-adv-x="467" 
d="M234 1177q-151 0 -243 86.5t-92 225.5v10h161v-4q0 -71 47.5 -119t126.5 -48q78 0 126 48t48 119v4h161v-10q0 -139 -92 -225.5t-243 -86.5zM109 0v1060h249v-1060h-249z" />
    <glyph glyph-name="Iogonek" unicode="&#x12e;" horiz-adv-x="512" 
d="M127 0v1443h258v-1443q-137 -100 -137 -222v-2q0 -53 28 -81t71 -28q33 0 54 9v-133q-44 -22 -132 -22q-104 0 -171.5 57t-67.5 159v2q0 74 39 142.5t110 118.5h-52z" />
    <glyph glyph-name="iogonek" unicode="&#x12f;" horiz-adv-x="467" 
d="M234 1212q-58 0 -98.5 40t-40.5 96q0 57 40.5 97t98.5 40t98 -40t40 -97q0 -56 -40 -96t-98 -40zM109 0v1060h249v-1060q-136 -100 -136 -222v-2q0 -53 28 -81t71 -28q32 0 53 9v-133q-44 -22 -132 -22q-103 0 -170.5 57t-67.5 159v2q0 74 39 142.5t109 118.5h-43z" />
    <glyph glyph-name="Idotabove" unicode="&#x130;" horiz-adv-x="512" 
d="M255 1587q-54 0 -92.5 38.5t-38.5 91.5t38.5 91t92.5 38q56 0 94.5 -37.5t38.5 -91.5t-38.5 -92t-94.5 -38zM127 0v1443h258v-1443h-258z" />
    <glyph glyph-name="dotlessi" unicode="&#x131;" horiz-adv-x="467" 
d="M109 0v1060h249v-1060h-249z" />
    <glyph glyph-name="IJdigraph" unicode="&#x132;" horiz-adv-x="1608" 
d="M127 0v1443h258v-1443h-258zM1005 -25q-207 0 -328 114t-129 303l-1 11h252l1 -8q5 -87 57.5 -140.5t144.5 -53.5q105 0 159.5 61.5t54.5 179.5v1001h258v-1003q0 -220 -123.5 -342.5t-345.5 -122.5z" />
    <glyph glyph-name="ijdigraph" unicode="&#x133;" horiz-adv-x="933" 
d="M234 1212q-58 0 -98.5 40t-40.5 96q0 57 40.5 97t98.5 40t98 -40t40 -97q0 -56 -40 -96t-98 -40zM699 1212q-58 0 -98.5 40t-40.5 96q0 57 40.5 97t98.5 40q59 0 99 -40t40 -97q0 -56 -40 -96t-99 -40zM109 0v1060h249v-1060h-249zM462 -353q-40 0 -62 3v195q5 0 16 -0.5
t17 -0.5q78 0 110 28.5t32 101.5v1086h249v-1090q0 -323 -362 -323z" />
    <glyph glyph-name="Jcircumflex" unicode="&#x134;" horiz-adv-x="1096" 
d="M505 1561l225 315h205l226 -315h-186l-144 201l-140 -201h-186zM493 -25q-207 0 -328 114t-129 303l-1 11h252l1 -8q5 -87 57.5 -140.5t144.5 -53.5q105 0 159.5 61.5t54.5 179.5v1001h257v-1003q0 -220 -123 -342.5t-345 -122.5z" />
    <glyph glyph-name="jcircumflex" unicode="&#x135;" horiz-adv-x="466" 
d="M-107 1180l232 326h213l234 -326h-189l-152 209l-150 -209h-188zM-5 -353q-39 0 -62 3v195q5 0 16 -0.5t17 -0.5q78 0 110 28.5t32 101.5v1086h249v-1090q0 -323 -362 -323z" />
    <glyph glyph-name="Kcommaaccent" unicode="&#x136;" horiz-adv-x="1298" 
d="M127 0v1443h258v-677h7l559 677h295l-533 -637l577 -806h-314l-449 634l-142 -169v-465h-258zM446 -468l81 348h222l-146 -348h-157z" />
    <glyph glyph-name="kcommaaccent" unicode="&#x137;" horiz-adv-x="1062" 
d="M113 0v1443h249v-823h5l396 440h288l-420 -456l437 -604h-287l-335 456l-84 -88v-368h-249zM370 -468l81 348h222l-146 -348h-157z" />
    <glyph glyph-name="ka.cyrl" unicode="&#x43a;" horiz-adv-x="1088" 
d="M397 461h-37v-461h-249v1060h249v-428h37l359 428h287l-427 -495l448 -565h-303z" />
    <glyph glyph-name="ka.cyrl" unicode="&#x138;" horiz-adv-x="1088" 
d="M397 461h-37v-461h-249v1060h249v-428h37l359 428h287l-427 -495l448 -565h-303z" />
    <glyph glyph-name="Lacute" unicode="&#x139;" horiz-adv-x="1098" 
d="M322 1561h-172l171 315h228zM127 0v1443h258v-1226h655v-217h-913z" />
    <glyph glyph-name="lacute" unicode="&#x13a;" horiz-adv-x="468" 
d="M299 1561h-171l170 315h228zM109 0v1443h249v-1443h-249z" />
    <glyph glyph-name="Lcommaaccent" unicode="&#x13b;" horiz-adv-x="1098" 
d="M127 0v1443h258v-1226h655v-217h-913zM387 -468l81 348h222l-146 -348h-157z" />
    <glyph glyph-name="lcommaaccent" unicode="&#x13c;" horiz-adv-x="468" 
d="M109 0v1443h249v-1443h-249zM37 -468l82 348h222l-147 -348h-157z" />
    <glyph glyph-name="Lcaron" unicode="&#x13d;" horiz-adv-x="1098" 
d="M612 1025l64 418h218l-129 -418h-153zM127 0v1443h258v-1226h655v-217h-913z" />
    <glyph glyph-name="lcaron" unicode="&#x13e;" horiz-adv-x="708" 
d="M428 1180l71 326h209l-132 -326h-148zM109 0v1443h249v-1443h-249z" />
    <glyph glyph-name="Ldot.CAT" unicode="&#x13f;" horiz-adv-x="1098" 
d="M127 0v1443h258v-1226h655v-217h-913zM950 770v-2q0 -60 -42 -102t-102 -42h-2q-60 0 -101.5 42t-41.5 102v2q0 60 41.5 101.5t101.5 41.5h2q60 0 102 -41.5t42 -101.5z" />
    <glyph glyph-name="ldot.CAT" unicode="&#x140;" horiz-adv-x="728" 
d="M109 0v1443h249v-1443h-249zM728 690v-2q0 -54 -37.5 -91.5t-92.5 -37.5h-1q-54 0 -91.5 37.5t-37.5 91.5v2q0 54 37.5 91.5t91.5 37.5h1q55 0 92.5 -37.5t37.5 -91.5z" />
    <glyph glyph-name="Lstroke" unicode="&#x141;" horiz-adv-x="1122" 
d="M151 0v531l-109 -55v192l109 54v721h257v-592l382 191v-192l-382 -191v-442h655v-217h-912z" />
    <glyph glyph-name="lstroke" unicode="&#x142;" horiz-adv-x="559" 
d="M156 0v579l-119 -60v166l119 60v698h249v-574l118 59v-166l-118 -59v-703h-249z" />
    <glyph glyph-name="Nacute" unicode="&#x143;" horiz-adv-x="1452" 
d="M791 1561h-171l170 315h228zM127 0v1443h232l703 -1011h6v1011h256v-1443h-230l-705 1015h-5v-1015h-257z" />
    <glyph glyph-name="nacute" unicode="&#x144;" horiz-adv-x="1143" 
d="M636 1180h-173l178 326h231zM102 0v1060h249v-166h5q43 89 125 138.5t199 49.5q174 0 270 -105t96 -291v-686h-249v636q0 115 -53.5 175.5t-158.5 60.5q-107 0 -170.5 -71t-63.5 -186v-615h-249z" />
    <glyph glyph-name="Ncommaaccent" unicode="&#x145;" horiz-adv-x="1452" 
d="M127 0v1443h232l703 -1011h6v1011h256v-1443h-230l-705 1015h-5v-1015h-257zM529 -468l82 348h222l-147 -348h-157z" />
    <glyph glyph-name="ncommaaccent" unicode="&#x146;" horiz-adv-x="1143" 
d="M102 0v1060h249v-166h5q43 89 125 138.5t199 49.5q174 0 270 -105t96 -291v-686h-249v636q0 115 -53.5 175.5t-158.5 60.5q-107 0 -170.5 -71t-63.5 -186v-615h-249zM377 -468l81 348h223l-147 -348h-157z" />
    <glyph glyph-name="Ncaron" unicode="&#x147;" horiz-adv-x="1452" 
d="M1054 1876l-225 -315h-205l-226 315h186l144 -201l140 201h186zM127 0v1443h232l703 -1011h6v1011h256v-1443h-230l-705 1015h-5v-1015h-257z" />
    <glyph glyph-name="ncaron" unicode="&#x148;" horiz-adv-x="1143" 
d="M913 1506l-235 -326h-207l-237 326h189l153 -212l149 212h188zM102 0v1060h249v-166h5q43 89 125 138.5t199 49.5q174 0 270 -105t96 -291v-686h-249v636q0 115 -53.5 175.5t-158.5 60.5q-107 0 -170.5 -71t-63.5 -186v-615h-249z" />
    <glyph glyph-name="Eng" unicode="&#x14a;" horiz-adv-x="1452" 
d="M384 0h-257v1443h232l703 -1011h6v1011h256v-1477q0 -318 -338 -318q-70 0 -119 7v187q36 -4 69 -4q131 0 131 129v74l-677 974h-6v-1015z" />
    <glyph glyph-name="eng" unicode="&#x14b;" horiz-adv-x="1143" 
d="M102 0v1060h249v-166h5q43 89 125 138.5t199 49.5q174 0 270 -105t96 -291v-720q0 -318 -338 -318q-70 0 -119 7v187q38 -4 73 -4q135 0 135 129v669q0 115 -53.5 175.5t-158.5 60.5q-107 0 -170.5 -71t-63.5 -186v-615h-249z" />
    <glyph glyph-name="Omacron" unicode="&#x14c;" horiz-adv-x="1525" 
d="M469 1633v159h587v-159h-587zM763 -25q-316 0 -500.5 201t-184.5 545v2q0 343 185 544t500 201q316 0 500 -200.5t184 -544.5v-2q0 -344 -184 -545t-500 -201zM763 199q195 0 308.5 141.5t113.5 380.5v2q0 240 -114 380.5t-308 140.5q-193 0 -307.5 -140.5t-114.5 -380.5
v-2q0 -240 114 -381t308 -141z" />
    <glyph glyph-name="omacron" unicode="&#x14d;" horiz-adv-x="1142" 
d="M267 1258v161h608v-161h-608zM571 -21q-235 0 -374 147.5t-139 403.5v2q0 253 139.5 401.5t372.5 148.5q234 0 374 -148t140 -402v-2q0 -256 -139 -403.5t-374 -147.5zM572 180q119 0 188.5 92.5t69.5 257.5v2q0 164 -70 256t-190 92q-118 0 -188 -92.5t-70 -255.5v-2
q0 -166 70 -258t190 -92z" />
    <glyph glyph-name="Obreve" unicode="&#x14e;" horiz-adv-x="1525" 
d="M763 1557q-141 0 -227 83.5t-86 218.5v9h158v-4q0 -67 42.5 -112t112.5 -45t112.5 45t42.5 112v4h158v-9q0 -135 -86 -218.5t-227 -83.5zM763 -25q-316 0 -500.5 201t-184.5 545v2q0 343 185 544t500 201q316 0 500 -200.5t184 -544.5v-2q0 -344 -184 -545t-500 -201z
M763 199q195 0 308.5 141.5t113.5 380.5v2q0 240 -114 380.5t-308 140.5q-193 0 -307.5 -140.5t-114.5 -380.5v-2q0 -240 114 -381t308 -141z" />
    </font>
</defs>
</svg>
