<?xml version="1.0" standalone="no"?>
<!DOCTYPE svg PUBLIC "-//W3C//DTD SVG 1.1//EN" "http://www.w3.org/Graphics/SVG/1.1/DTD/svg11.dtd" >
<svg xmlns="http://www.w3.org/2000/svg" xmlns:xlink="http://www.w3.org/1999/xlink" version="1.1">
<metadata>
Created by FontForge 20170731 at Tue Nov  3 19:01:32 2020
 By Aleksey,,,
(c) 2015-2020 Apple Inc. All rights reserved.
</metadata>
<defs>
<font id="SFProDisplay-Bold" horiz-adv-x="2477" >
  <font-face 
    font-family="SF Pro Display"
    font-weight="600"
    font-stretch="normal"
    units-per-em="2048"
    panose-1="0 0 0 0 0 0 0 0 0 0"
    ascent="1638"
    descent="-410"
    x-height="1072"
    cap-height="1443"
    bbox="-885 -1232.21 5740 2607"
    underline-thickness="190"
    underline-position="-470"
    unicode-range="U+0020-100D86"
  />
<missing-glyph horiz-adv-x="2048" 
d="M100 1751v199h1848v-199h-1848zM100 1302v199h1848v-199h-1848zM100 853v199h1848v-199h-1848zM100 404v199h1848v-199h-1848zM100 -45v199h1848v-199h-1848zM100 -494v199h1848v-199h-1848z" />
    <glyph glyph-name="uni10004C.small" unicode="&#x2b;&#x20dd;" horiz-adv-x="1947" 
d="M974 -112q-169 0 -323 66.5t-266 178.5t-178.5 266t-66.5 323q0 168 66.5 322.5t178 266t266 178t322.5 66.5q169 0 323 -66.5t266 -178t178.5 -266t66.5 -322.5q0 -169 -66.5 -323t-178 -266t-266 -178.5t-322.5 -66.5zM974 109q125 0 238.5 48.5t195 130.5t130 195.5
t48.5 238.5t-48.5 238.5t-130.5 195t-195.5 130t-238.5 48.5t-238 -48.5t-195 -130t-130 -195t-48 -238.5t48 -238.5t130 -195.5t195.5 -130.5t238.5 -48.5zM703 628q-40 0 -66 26.5t-26 66.5t26 66.5t66 26.5h177v178q0 40 26.5 66t66.5 26t66.5 -26t26.5 -66v-178h178
q40 0 65.5 -26t25.5 -67t-25.5 -67t-65.5 -26h-178v-177q0 -40 -26.5 -66t-66.5 -26t-66.5 26t-26.5 66v177h-177z" />
    <glyph glyph-name="uni10004E.small" unicode="&#x2212;&#x20dd;" horiz-adv-x="1947" 
d="M974 -112q-169 0 -323 66.5t-266 178.5t-178.5 266t-66.5 323q0 168 66.5 322.5t178 266t266 178t322.5 66.5q169 0 323 -66.5t266 -178t178.5 -266t66.5 -322.5q0 -169 -66.5 -323t-178 -266t-266 -178.5t-322.5 -66.5zM974 109q125 0 238.5 48.5t195 130.5t130 195.5
t48.5 238.5t-48.5 238.5t-130.5 195t-195.5 130t-238.5 48.5t-238 -48.5t-195 -130t-130 -195t-48 -238.5t48 -238.5t130 -195.5t195.5 -130.5t238.5 -48.5zM702 627q-42 0 -69.5 25.5t-27.5 66.5q0 42 27 68t70 26h543q43 0 69.5 -26t26.5 -68q0 -41 -27 -66.5t-69 -25.5
h-543z" />
    <glyph glyph-name="uni100050.small" unicode="&#xd7;&#x20dd;" horiz-adv-x="1947" 
d="M974 -112q-169 0 -323 66.5t-266 178.5t-178.5 266t-66.5 323q0 168 66.5 322.5t178 266t266 178t322.5 66.5q169 0 323 -66.5t266 -178t178.5 -266t66.5 -322.5q0 -169 -66.5 -323t-178 -266t-266 -178.5t-322.5 -66.5zM974 109q125 0 238.5 48.5t195 130.5t130 195.5
t48.5 238.5t-48.5 238.5t-130.5 195t-195.5 130t-238.5 48.5t-238 -48.5t-195 -130t-130 -195t-48 -238.5t48 -238.5t130 -195.5t195.5 -130.5t238.5 -48.5zM737 394q-38 0 -64.5 26.5t-26.5 64.5q0 37 28 62l172 173l-172 172q-28 26 -28 63q0 38 26.5 64t64.5 26
q37 0 65 -26l171 -171l173 171q27 27 65 27t64 -26.5t26 -64.5q0 -35 -27 -62l-172 -173l172 -172q27 -27 27 -63q0 -38 -26 -64.5t-64 -26.5q-39 0 -66 27l-172 170l-170 -170q-27 -27 -66 -27z" />
    <glyph glyph-name="uni100054.small" unicode="&#x3d;&#x20dd;" horiz-adv-x="1947" 
d="M974 -112q-169 0 -323 66.5t-266 178.5t-178.5 266t-66.5 323q0 168 66.5 322.5t178 266t266 178t322.5 66.5q169 0 323 -66.5t266 -178t178.5 -266t66.5 -322.5q0 -169 -66.5 -323t-178 -266t-266 -178.5t-322.5 -66.5zM974 109q125 0 238.5 48.5t195 130.5t130 195.5
t48.5 238.5t-48.5 238.5t-130.5 195t-195.5 130t-238.5 48.5t-238 -48.5t-195 -130t-130 -195t-48 -238.5t48 -238.5t130 -195.5t195.5 -130.5t238.5 -48.5zM717 782q-45 0 -72 22.5t-27 61.5q0 41 26.5 63.5t72.5 22.5h512q45 0 71.5 -23t26.5 -63q0 -39 -27 -61.5
t-72 -22.5h-511zM717 488q-45 0 -72 22.5t-27 62.5t26.5 62.5t72.5 22.5h512q45 0 71.5 -22.5t26.5 -62.5t-27 -62.5t-72 -22.5h-511z" />
    <glyph glyph-name="uni10003A.small" unicode="&#x31;&#x20dd;" horiz-adv-x="1947" 
d="M974 -112q-169 0 -323 66.5t-266 178.5t-178.5 266t-66.5 323q0 168 66.5 322.5t178 266t266 178t322.5 66.5q169 0 323 -66.5t266 -178t178.5 -266t66.5 -322.5q0 -169 -66.5 -323t-178 -266t-266 -178.5t-322.5 -66.5zM974 109q125 0 238.5 48.5t195 130.5t130 195.5
t48.5 238.5t-48.5 238.5t-130.5 195t-195.5 130t-238.5 48.5t-238 -48.5t-195 -130t-130 -195t-48 -238.5t48 -238.5t130 -195.5t195.5 -130.5t238.5 -48.5zM1024 365q-49 0 -76 27.5t-27 82.5v402h-7l-73 -49q-30 -19 -54 -19q-30 0 -49 21t-19 51q0 44 42 72l123 82
q63 43 127 43q53 0 85 -30t32 -80v-493q0 -55 -27.5 -82.5t-76.5 -27.5z" />
    <glyph glyph-name="uni10003C.small" unicode="&#x32;&#x20dd;" horiz-adv-x="1947" 
d="M974 -112q-169 0 -323 66.5t-266 178.5t-178.5 266t-66.5 323q0 168 66.5 322.5t178 266t266 178t322.5 66.5q169 0 323 -66.5t266 -178t178.5 -266t66.5 -322.5q0 -169 -66.5 -323t-178 -266t-266 -178.5t-322.5 -66.5zM974 109q125 0 238.5 48.5t195 130.5t130 195.5
t48.5 238.5t-48.5 238.5t-130.5 195t-195.5 130t-238.5 48.5t-238 -48.5t-195 -130t-130 -195t-48 -238.5t48 -238.5t130 -195.5t195.5 -130.5t238.5 -48.5zM797 375q-38 0 -61.5 21.5t-23.5 56.5q0 48 40 83l212 202q43 39 63.5 67.5t20.5 56.5q0 31 -21 49t-56 18
q-23 0 -42.5 -11t-29.5 -22.5t-24 -31.5q-11 -15 -19.5 -23.5t-24.5 -15.5t-36 -7q-40 0 -63 20t-23 56q0 22 7 42q23 67 95 109.5t165 42.5q120 0 193.5 -57.5t73.5 -151.5q0 -56 -31 -106t-97 -110l-122 -119v-7h192q41 0 65 -21.5t24 -59.5q0 -37 -24 -59t-65 -22h-388z
" />
    <glyph glyph-name="uni10003E.small" unicode="&#x33;&#x20dd;" horiz-adv-x="1947" 
d="M974 -113q-169 0 -323 66.5t-266 178.5t-178.5 266t-66.5 323q0 168 66.5 322.5t178 266t266 178t322.5 66.5q169 0 323 -66.5t266 -178t178.5 -266t66.5 -322.5q0 -169 -66.5 -323t-178 -266t-266 -178.5t-322.5 -66.5zM974 108q125 0 238.5 48.5t195 130.5t130 195.5
t48.5 238.5t-48.5 238.5t-130.5 195t-195.5 130t-238.5 48.5t-238 -48.5t-195 -130t-130 -195t-48 -238.5t48 -238.5t130 -195.5t195.5 -130.5t238.5 -48.5zM973 354q-100 0 -175 40t-95 104q-6 20 -6 39q0 36 23.5 57.5t63.5 21.5q51 0 79 -46q35 -63 114 -63
q44 0 70.5 19.5t26.5 51.5q0 34 -27 54t-73 20h-26q-38 0 -61 20.5t-23 54.5t23 54.5t61 20.5h24q39 0 63 20.5t24 52.5q0 29 -22.5 46t-61.5 17q-72 0 -103 -64q-28 -45 -79 -45q-40 0 -63.5 21t-23.5 57q0 19 6 40q20 65 91 102.5t174 37.5q123 0 198 -52.5t75 -138.5
q0 -55 -39 -99.5t-95 -52.5v-10q67 -5 110.5 -52.5t43.5 -114.5q0 -97 -80 -155t-217 -58z" />
    <glyph glyph-name="uni100040.small" unicode="&#x34;&#x20dd;" horiz-adv-x="1947" 
d="M974 -112q-169 0 -323 66.5t-266 178.5t-178.5 266t-66.5 323q0 168 66.5 322.5t178 266t266 178t322.5 66.5q169 0 323 -66.5t266 -178t178.5 -266t66.5 -322.5q0 -169 -66.5 -323t-178 -266t-266 -178.5t-322.5 -66.5zM974 109q125 0 238.5 48.5t195 130.5t130 195.5
t48.5 238.5t-48.5 238.5t-130.5 195t-195.5 130t-238.5 48.5t-238 -48.5t-195 -130t-130 -195t-48 -238.5t48 -238.5t130 -195.5t195.5 -130.5t238.5 -48.5zM1077 365q-40 0 -62.5 24t-22.5 68v33h-232q-56 0 -88.5 30t-32.5 81q0 47 26 99q42 76 170 280q35 59 76.5 83.5
t106.5 24.5q63 0 104.5 -36t41.5 -91v-316h29q40 0 62.5 -21t22.5 -56q0 -36 -23 -57t-62 -21h-29v-33q0 -45 -23 -68.5t-64 -23.5zM992 645v301h-7q-127 -213 -170 -296v-5h177z" />
    <glyph glyph-name="uni100042.small" unicode="&#x35;&#x20dd;" horiz-adv-x="1947" 
d="M974 -112q-169 0 -323 66.5t-266 178.5t-178.5 266t-66.5 323q0 168 66.5 322.5t178 266t266 178t322.5 66.5q169 0 323 -66.5t266 -178t178.5 -266t66.5 -322.5q0 -169 -66.5 -323t-178 -266t-266 -178.5t-322.5 -66.5zM974 109q125 0 238.5 48.5t195 130.5t130 195.5
t48.5 238.5t-48.5 238.5t-130.5 195t-195.5 130t-238.5 48.5t-238 -48.5t-195 -130t-130 -195t-48 -238.5t48 -238.5t130 -195.5t195.5 -130.5t238.5 -48.5zM970 355q-103 0 -172.5 32t-93.5 88q-9 20 -9 44q0 34 22.5 54.5t61.5 20.5q48 0 79 -34q41 -52 106 -52
q44 0 73.5 28.5t29.5 71.5t-25.5 69.5t-67.5 26.5q-37 0 -77 -26q-44 -26 -90 -26q-53 0 -80.5 27.5t-23.5 78.5l15 210q3 45 33 72.5t78 27.5h322q38 0 59.5 -19t21.5 -53q0 -33 -22 -52.5t-59 -19.5h-276l-12 -149h9q18 30 61 48.5t93 18.5q107 0 171.5 -63t64.5 -166
q0 -118 -79.5 -188t-212.5 -70z" />
    <glyph glyph-name="uni100044.small" unicode="&#x36;&#x20dd;" horiz-adv-x="1947" 
d="M974 -112q-169 0 -323 66.5t-266 178.5t-178.5 266t-66.5 323q0 168 66.5 322.5t178 266t266 178t322.5 66.5q169 0 323 -66.5t266 -178t178.5 -266t66.5 -322.5q0 -169 -66.5 -323t-178 -266t-266 -178.5t-322.5 -66.5zM974 109q125 0 238.5 48.5t195 130.5t130 195.5
t48.5 238.5t-48.5 238.5t-130.5 195t-195.5 130t-238.5 48.5t-238 -48.5t-195 -130t-130 -195t-48 -238.5t48 -238.5t130 -195.5t195.5 -130.5t238.5 -48.5zM981 355q-175 0 -255 127q-56 89 -56 236q0 180 87 275t243 95q76 0 136 -26.5t83 -68.5q16 -27 16 -52
q0 -31 -21 -49.5t-54 -18.5q-38 0 -81 34q-42 32 -82 32q-60 0 -96 -49.5t-36 -128.5q0 -14 1 -22h8q21 38 66 63.5t106 25.5q97 0 161 -59t64 -159q0 -118 -79.5 -186.5t-210.5 -68.5zM971 502q46 0 73.5 28t27.5 75q0 44 -28 72t-73 28t-73.5 -28t-28.5 -72q0 -45 29 -74
t73 -29z" />
    <glyph glyph-name="uni100046.small" unicode="&#x37;&#x20dd;" horiz-adv-x="1947" 
d="M974 -112q-169 0 -323 66.5t-266 178.5t-178.5 266t-66.5 323q0 168 66.5 322.5t178 266t266 178t322.5 66.5q169 0 323 -66.5t266 -178t178.5 -266t66.5 -322.5q0 -169 -66.5 -323t-178 -266t-266 -178.5t-322.5 -66.5zM974 109q125 0 238.5 48.5t195 130.5t130 195.5
t48.5 238.5t-48.5 238.5t-130.5 195t-195.5 130t-238.5 48.5t-238 -48.5t-195 -130t-130 -195t-48 -238.5t48 -238.5t130 -195.5t195.5 -130.5t238.5 -48.5zM891 355q-44 0 -71.5 24t-27.5 63q0 34 18 62l241 398v8h-272q-39 0 -62.5 21.5t-23.5 57.5t23 57.5t63 21.5h364
q58 0 92.5 -30.5t34.5 -80.5q0 -47 -31 -100l-251 -434q-22 -38 -43.5 -53t-53.5 -15z" />
    <glyph glyph-name="uni100048.small" unicode="&#x38;&#x20dd;" horiz-adv-x="1947" 
d="M974 -112q-169 0 -323 66.5t-266 178.5t-178.5 266t-66.5 323q0 168 66.5 322.5t178 266t266 178t322.5 66.5q169 0 323 -66.5t266 -178t178.5 -266t66.5 -322.5q0 -169 -66.5 -323t-178 -266t-266 -178.5t-322.5 -66.5zM974 109q125 0 238.5 48.5t195 130.5t130 195.5
t48.5 238.5t-48.5 238.5t-130.5 195t-195.5 130t-238.5 48.5t-238 -48.5t-195 -130t-130 -195t-48 -238.5t48 -238.5t130 -195.5t195.5 -130.5t238.5 -48.5zM972 355q-142 0 -226 57.5t-84 154.5q0 67 44 113.5t117 56.5v8q-131 38 -131 153q0 86 77 138t204 52t204 -52
t77 -138q0 -116 -130 -153v-8q73 -10 116.5 -56.5t43.5 -113.5q0 -97 -85 -154.5t-227 -57.5zM973 797q37 0 61.5 22.5t24.5 56.5t-24.5 56t-61.5 22t-61.5 -22t-24.5 -56t24.5 -56.5t61.5 -22.5zM974 488q45 0 74.5 26.5t29.5 66.5q0 41 -29 67.5t-75 26.5q-45 0 -75 -27
t-30 -67q0 -41 29.5 -67t75.5 -26z" />
    <glyph glyph-name="uni10004A.small" unicode="&#x39;&#x20dd;" horiz-adv-x="1947" 
d="M974 -112q-169 0 -323 66.5t-266 178.5t-178.5 266t-66.5 323q0 168 66.5 322.5t178 266t266 178t322.5 66.5q169 0 323 -66.5t266 -178t178.5 -266t66.5 -322.5q0 -169 -66.5 -323t-178 -266t-266 -178.5t-322.5 -66.5zM974 109q125 0 238.5 48.5t195 130.5t130 195.5
t48.5 238.5t-48.5 238.5t-130.5 195t-195.5 130t-238.5 48.5t-238 -48.5t-195 -130t-130 -195t-48 -238.5t48 -238.5t130 -195.5t195.5 -130.5t238.5 -48.5zM963 355q-96 0 -156.5 30.5t-81.5 76.5q-9 18 -9 39q0 31 22.5 52t56.5 21q41 0 75 -28q43 -41 92 -41q59 0 94 56
t29 144h-8q-19 -42 -61.5 -67.5t-104.5 -25.5q-101 0 -166 59.5t-65 162.5q0 113 80.5 183.5t210.5 70.5q146 0 226.5 -93t80.5 -263q0 -181 -82 -279t-233 -98zM979 738q45 0 73.5 28t28.5 72q0 46 -29 75.5t-73 29.5q-46 0 -74.5 -28.5t-28.5 -75.5q0 -44 29 -72.5
t74 -28.5z" />
    <glyph glyph-name="uni100004.small" unicode="A&#x20dd;" horiz-adv-x="1947" 
d="M974 -112q-169 0 -323 66.5t-266 178.5t-178.5 266t-66.5 323q0 168 66.5 322.5t178 266t266 178t322.5 66.5q169 0 323 -66.5t266 -178t178.5 -266t66.5 -322.5q0 -169 -66.5 -323t-178 -266t-266 -178.5t-322.5 -66.5zM974 109q125 0 238.5 48.5t195 130.5t130 195.5
t48.5 238.5t-48.5 238.5t-130.5 195t-195.5 130t-238.5 48.5t-238 -48.5t-195 -130t-130 -195t-48 -238.5t48 -238.5t130 -195.5t195.5 -130.5t238.5 -48.5zM739 357q-44 0 -69.5 24.5t-25.5 66.5q0 25 14 66l160 458q40 120 153 120q118 0 158 -120l160 -458q13 -42 13 -66
q0 -42 -25.5 -66.5t-69.5 -24.5q-76 0 -96 87l-28 89h-219l-29 -89q-20 -87 -96 -87zM901 675h145l-68 238h-9z" />
    <glyph glyph-name="uni100006.small" unicode="B&#x20dd;" horiz-adv-x="1947" 
d="M974 -112q-169 0 -323 66.5t-266 178.5t-178.5 266t-66.5 323q0 168 66.5 322.5t178 266t266 178t322.5 66.5q169 0 323 -66.5t266 -178t178.5 -266t66.5 -322.5q0 -169 -66.5 -323t-178 -266t-266 -178.5t-322.5 -66.5zM974 109q125 0 238.5 48.5t195 130.5t130 195.5
t48.5 238.5t-48.5 238.5t-130.5 195t-195.5 130t-238.5 48.5t-238 -48.5t-195 -130t-130 -195t-48 -238.5t48 -238.5t130 -195.5t195.5 -130.5t238.5 -48.5zM798 374q-56 0 -85.5 30t-29.5 87v468q0 116 115 116h236q103 0 163 -46t60 -126q0 -59 -36.5 -100.5t-97.5 -52.5
v-6q79 -10 123.5 -56t44.5 -119q0 -87 -69 -141t-181 -54h-243zM873 793h81q115 0 115 79q0 35 -25.5 55.5t-68.5 20.5h-102v-155zM872 509h90q129 0 129 84q0 40 -29 63t-81 23h-109v-170z" />
    <glyph glyph-name="uni100008.small" unicode="C&#x20dd;" horiz-adv-x="1947" 
d="M974 -112q-169 0 -323 66.5t-266 178.5t-178.5 266t-66.5 323q0 168 66.5 322.5t178 266t266 178t322.5 66.5q169 0 323 -66.5t266 -178t178.5 -266t66.5 -322.5q0 -169 -66.5 -323t-178 -266t-266 -178.5t-322.5 -66.5zM974 109q125 0 238.5 48.5t195 130.5t130 195.5
t48.5 238.5t-48.5 238.5t-130.5 195t-195.5 130t-238.5 48.5t-238 -48.5t-195 -130t-130 -195t-48 -238.5t48 -238.5t130 -195.5t195.5 -130.5t238.5 -48.5zM970 357q-158 0 -251.5 100t-93.5 268q0 167 94 267.5t251 100.5q105 0 184.5 -44.5t111.5 -121.5q10 -20 10 -50
q0 -37 -24 -58.5t-65 -21.5q-56 0 -85 53q-41 77 -128 77q-67 0 -106.5 -54.5t-39.5 -147.5q0 -94 39 -148t106 -54q89 0 128 75q30 53 86 53q41 0 65 -21.5t24 -58.5q0 -30 -10 -50q-32 -76 -111 -120t-185 -44z" />
    <glyph glyph-name="uni10000A.small" unicode="D&#x20dd;" horiz-adv-x="1947" 
d="M974 -112q-169 0 -323 66.5t-266 178.5t-178.5 266t-66.5 323q0 168 66.5 322.5t178 266t266 178t322.5 66.5q169 0 323 -66.5t266 -178t178.5 -266t66.5 -322.5q0 -169 -66.5 -323t-178 -266t-266 -178.5t-322.5 -66.5zM974 109q125 0 238.5 48.5t195 130.5t130 195.5
t48.5 238.5t-48.5 238.5t-130.5 195t-195.5 130t-238.5 48.5t-238 -48.5t-195 -130t-130 -195t-48 -238.5t48 -238.5t130 -195.5t195.5 -130.5t238.5 -48.5zM785 375q-111 0 -111 116v467q0 57 28.5 87t82.5 30h193q165 0 253.5 -90.5t88.5 -259.5t-89 -259.5t-253 -90.5
h-193zM870 527h77q85 0 125.5 48t40.5 149q0 199 -166 199h-77v-396z" />
    <glyph glyph-name="uni10000C.small" unicode="E&#x20dd;" horiz-adv-x="1947" 
d="M974 -112q-169 0 -323 66.5t-266 178.5t-178.5 266t-66.5 323q0 168 66.5 322.5t178 266t266 178t322.5 66.5q169 0 323 -66.5t266 -178t178.5 -266t66.5 -322.5q0 -169 -66.5 -323t-178 -266t-266 -178.5t-322.5 -66.5zM974 109q125 0 238.5 48.5t195 130.5t130 195.5
t48.5 238.5t-48.5 238.5t-130.5 195t-195.5 130t-238.5 48.5t-238 -48.5t-195 -130t-130 -195t-48 -238.5t48 -238.5t130 -195.5t195.5 -130.5t238.5 -48.5zM810 375q-111 0 -111 116v467q0 117 111 117h328q40 0 62.5 -20.5t22.5 -57.5t-22.5 -57.5t-62.5 -20.5h-243v-122
h234q34 0 54 -18t20 -51q0 -32 -20 -49.5t-54 -17.5h-234v-131h243q40 0 62.5 -20t22.5 -57t-22.5 -57.5t-62.5 -20.5h-328z" />
    <glyph glyph-name="uni10000E.small" unicode="F&#x20dd;" horiz-adv-x="1947" 
d="M974 -112q-169 0 -323 66.5t-266 178.5t-178.5 266t-66.5 323q0 168 66.5 322.5t178 266t266 178t322.5 66.5q169 0 323 -66.5t266 -178t178.5 -266t66.5 -322.5q0 -169 -66.5 -323t-178 -266t-266 -178.5t-322.5 -66.5zM974 109q125 0 238.5 48.5t195 130.5t130 195.5
t48.5 238.5t-48.5 238.5t-130.5 195t-195.5 130t-238.5 48.5t-238 -48.5t-195 -130t-130 -195t-48 -238.5t48 -238.5t130 -195.5t195.5 -130.5t238.5 -48.5zM814 362q-49 0 -75.5 30.5t-26.5 83.5v482q0 117 111 117h333q39 0 62 -20.5t23 -57.5t-23 -57.5t-62 -20.5h-241
v-135h226q35 0 55 -19t20 -52t-20 -51.5t-55 -18.5h-224v-167q0 -53 -27 -83.5t-76 -30.5z" />
    <glyph glyph-name="uni100010.small" unicode="G&#x20dd;" horiz-adv-x="1947" 
d="M974 -112q-169 0 -323 66.5t-266 178.5t-178.5 266t-66.5 323q0 168 66.5 322.5t178 266t266 178t322.5 66.5q169 0 323 -66.5t266 -178t178.5 -266t66.5 -322.5q0 -169 -66.5 -323t-178 -266t-266 -178.5t-322.5 -66.5zM974 109q125 0 238.5 48.5t195 130.5t130 195.5
t48.5 238.5t-48.5 238.5t-130.5 195t-195.5 130t-238.5 48.5t-238 -48.5t-195 -130t-130 -195t-48 -238.5t48 -238.5t130 -195.5t195.5 -130.5t238.5 -48.5zM972 357q-158 0 -252.5 100t-94.5 268q0 167 94 267.5t251 100.5q106 0 184 -41t107 -112q10 -21 10 -47
q0 -35 -22.5 -55t-61.5 -20q-55 0 -87 46q-41 73 -123 73q-68 0 -108.5 -58t-40.5 -154q0 -98 41 -157.5t109 -59.5q60 0 93 28.5t33 74.5v29h-73q-32 0 -50 17t-18 45q0 29 18 46t50 17h171q93 0 93 -95v-33q0 -122 -88 -201t-235 -79z" />
    <glyph glyph-name="uni100012.small" unicode="H&#x20dd;" horiz-adv-x="1947" 
d="M974 -112q-169 0 -323 66.5t-266 178.5t-178.5 266t-66.5 323q0 168 66.5 322.5t178 266t266 178t322.5 66.5q169 0 323 -66.5t266 -178t178.5 -266t66.5 -322.5q0 -169 -66.5 -323t-178 -266t-266 -178.5t-322.5 -66.5zM974 109q125 0 238.5 48.5t195 130.5t130 195.5
t48.5 238.5t-48.5 238.5t-130.5 195t-195.5 130t-238.5 48.5t-238 -48.5t-195 -130t-130 -195t-48 -238.5t48 -238.5t130 -195.5t195.5 -130.5t238.5 -48.5zM746 362q-50 0 -78 31t-28 87v490q0 56 28 87t78 31t78 -31t28 -87v-162h242v162q0 56 28 87t77 31
q50 0 78.5 -31.5t28.5 -86.5v-490q0 -55 -28.5 -86.5t-78.5 -31.5q-49 0 -77 31t-28 87v169h-242v-169q0 -56 -28 -87t-78 -31z" />
    <glyph glyph-name="uni100014.small" unicode="I&#x20dd;" horiz-adv-x="1947" 
d="M974 -112q-169 0 -323 66.5t-266 178.5t-178.5 266t-66.5 323q0 168 66.5 322.5t178 266t266 178t322.5 66.5q169 0 323 -66.5t266 -178t178.5 -266t66.5 -322.5q0 -169 -66.5 -323t-178 -266t-266 -178.5t-322.5 -66.5zM974 109q125 0 238.5 48.5t195 130.5t130 195.5
t48.5 238.5t-48.5 238.5t-130.5 195t-195.5 130t-238.5 48.5t-238 -48.5t-195 -130t-130 -195t-48 -238.5t48 -238.5t130 -195.5t195.5 -130.5t238.5 -48.5zM973 362q-52 0 -80.5 32.5t-28.5 89.5v482q0 57 28.5 89.5t80.5 32.5t81 -32.5t29 -89.5v-482q0 -57 -29 -89.5
t-81 -32.5z" />
    <glyph glyph-name="uni100016.small" unicode="J&#x20dd;" horiz-adv-x="1947" 
d="M974 -112q-169 0 -323 66.5t-266 178.5t-178.5 266t-66.5 323q0 168 66.5 322.5t178 266t266 178t322.5 66.5q169 0 323 -66.5t266 -178t178.5 -266t66.5 -322.5q0 -169 -66.5 -323t-178 -266t-266 -178.5t-322.5 -66.5zM974 109q125 0 238.5 48.5t195 130.5t130 195.5
t48.5 238.5t-48.5 238.5t-130.5 195t-195.5 130t-238.5 48.5t-238 -48.5t-195 -130t-130 -195t-48 -238.5t48 -238.5t130 -195.5t195.5 -130.5t238.5 -48.5zM940 357q-98 0 -168 41.5t-93 111.5q-7 21 -7 48q0 41 26 67t68 27q73 0 97 -67q20 -52 74 -52q70 0 70 93v344
q0 55 27 86.5t77 31.5t78 -31.5t28 -86.5v-350q0 -126 -72.5 -194.5t-204.5 -68.5z" />
    <glyph glyph-name="uni100018.small" unicode="&#x212a;&#x20dd;" horiz-adv-x="1947" 
d="M974 -112q-169 0 -323 66.5t-266 178.5t-178.5 266t-66.5 323q0 168 66.5 322.5t178 266t266 178t322.5 66.5q169 0 323 -66.5t266 -178t178.5 -266t66.5 -322.5q0 -169 -66.5 -323t-178 -266t-266 -178.5t-322.5 -66.5zM974 109q125 0 238.5 48.5t195 130.5t130 195.5
t48.5 238.5t-48.5 238.5t-130.5 195t-195.5 130t-238.5 48.5t-238 -48.5t-195 -130t-130 -195t-48 -238.5t48 -238.5t130 -195.5t195.5 -130.5t238.5 -48.5zM768 370q-47 0 -73 29t-26 81v490q0 52 26 81t73 29t73 -29t26 -81v-189h7l223 254q35 45 81 45q38 0 65 -23.5
t27 -57.5q0 -35 -29 -70l-156 -172l170 -227q25 -36 25 -70q0 -39 -27 -64.5t-69 -25.5q-49 0 -85 49l-160 218l-72 -79v-82q0 -50 -26.5 -78t-72.5 -28z" />
    <glyph glyph-name="uni10001A.small" unicode="L&#x20dd;" horiz-adv-x="1947" 
d="M974 -112q-169 0 -323 66.5t-266 178.5t-178.5 266t-66.5 323q0 168 66.5 322.5t178 266t266 178t322.5 66.5q169 0 323 -66.5t266 -178t178.5 -266t66.5 -322.5q0 -169 -66.5 -323t-178 -266t-266 -178.5t-322.5 -66.5zM974 109q125 0 238.5 48.5t195 130.5t130 195.5
t48.5 238.5t-48.5 238.5t-130.5 195t-195.5 130t-238.5 48.5t-238 -48.5t-195 -130t-130 -195t-48 -238.5t48 -238.5t130 -195.5t195.5 -130.5t238.5 -48.5zM839 375q-52 0 -81 32t-29 89v470q0 57 28.5 89.5t81.5 32.5q52 0 81 -32.5t29 -89.5v-420h214q42 0 66.5 -23
t24.5 -62q0 -41 -24.5 -63.5t-66.5 -22.5h-324z" />
    <glyph glyph-name="uni10001C.small" unicode="M&#x20dd;" horiz-adv-x="1947" 
d="M974 -112q-169 0 -323 66.5t-266 178.5t-178.5 266t-66.5 323q0 168 66.5 322.5t178 266t266 178t322.5 66.5q169 0 323 -66.5t266 -178t178.5 -266t66.5 -322.5q0 -169 -66.5 -323t-178 -266t-266 -178.5t-322.5 -66.5zM974 109q125 0 238.5 48.5t195 130.5t130 195.5
t48.5 238.5t-48.5 238.5t-130.5 195t-195.5 130t-238.5 48.5t-238 -48.5t-195 -130t-130 -195t-48 -238.5t48 -238.5t130 -195.5t195.5 -130.5t238.5 -48.5zM687 359q-37 0 -57.5 23t-20.5 64v536q0 47 29.5 76.5t78.5 29.5q87 0 115 -86l139 -386h5l139 386q27 86 114 86
q49 0 79 -29.5t30 -76.5v-536q0 -41 -21 -64t-59 -23q-37 0 -57.5 23t-20.5 64v353h-7l-127 -341q-19 -55 -75 -55q-55 0 -73 56l-124 340h-8v-353q0 -41 -21 -64t-58 -23z" />
    <glyph glyph-name="uni10001E.small" unicode="N&#x20dd;" horiz-adv-x="1947" 
d="M974 -112q-169 0 -323 66.5t-266 178.5t-178.5 266t-66.5 323q0 168 66.5 322.5t178 266t266 178t322.5 66.5q169 0 323 -66.5t266 -178t178.5 -266t66.5 -322.5q0 -169 -66.5 -323t-178 -266t-266 -178.5t-322.5 -66.5zM974 109q125 0 238.5 48.5t195 130.5t130 195.5
t48.5 238.5t-48.5 238.5t-130.5 195t-195.5 130t-238.5 48.5t-238 -48.5t-195 -130t-130 -195t-48 -238.5t48 -238.5t130 -195.5t195.5 -130.5t238.5 -48.5zM752 362q-42 0 -65.5 26t-23.5 71v539q0 41 23 65.5t61 24.5q29 0 48 -11.5t44 -44.5l259 -350h6v309q0 45 23.5 71
t65.5 26q43 0 66.5 -25.5t23.5 -71.5v-542q0 -41 -22 -64t-60 -23q-28 0 -47.5 11.5t-42.5 41.5l-263 355h-6v-311q0 -46 -23.5 -71.5t-66.5 -25.5z" />
    <glyph glyph-name="uni100020.small" unicode="O&#x20dd;" horiz-adv-x="1947" 
d="M974 -112q-169 0 -323 66.5t-266 178.5t-178.5 266t-66.5 323q0 168 66.5 322.5t178 266t266 178t322.5 66.5q169 0 323 -66.5t266 -178t178.5 -266t66.5 -322.5q0 -169 -66.5 -323t-178 -266t-266 -178.5t-322.5 -66.5zM974 109q125 0 238.5 48.5t195 130.5t130 195.5
t48.5 238.5t-48.5 238.5t-130.5 195t-195.5 130t-238.5 48.5t-238 -48.5t-195 -130t-130 -195t-48 -238.5t48 -238.5t130 -195.5t195.5 -130.5t238.5 -48.5zM973 357q-153 0 -250.5 100.5t-97.5 267.5t97.5 267.5t250.5 100.5q154 0 251.5 -100.5t97.5 -267.5t-97.5 -267.5
t-251.5 -100.5zM973 520q66 0 106 54t40 151q0 96 -40 150.5t-106 54.5q-65 0 -105 -54.5t-40 -150.5q0 -97 40 -151t105 -54z" />
    <glyph glyph-name="uni100022.small" unicode="P&#x20dd;" horiz-adv-x="1947" 
d="M974 -112q-169 0 -323 66.5t-266 178.5t-178.5 266t-66.5 323q0 168 66.5 322.5t178 266t266 178t322.5 66.5q169 0 323 -66.5t266 -178t178.5 -266t66.5 -322.5q0 -169 -66.5 -323t-178 -266t-266 -178.5t-322.5 -66.5zM974 109q125 0 238.5 48.5t195 130.5t130 195.5
t48.5 238.5t-48.5 238.5t-130.5 195t-195.5 130t-238.5 48.5t-238 -48.5t-195 -130t-130 -195t-48 -238.5t48 -238.5t130 -195.5t195.5 -130.5t238.5 -48.5zM801 362q-48 0 -75 30.5t-27 83.5v482q0 57 28.5 87t82.5 30h208q122 0 195 -70t73 -187q0 -118 -73.5 -188
t-197.5 -70h-111v-84q0 -54 -27 -84t-76 -30zM904 709h83q51 0 78.5 28t27.5 80q0 54 -27.5 82t-78.5 28h-83v-218z" />
    <glyph glyph-name="uni100024.small" unicode="Q&#x20dd;" horiz-adv-x="1947" 
d="M974 -112q-169 0 -323 66.5t-266 178.5t-178.5 266t-66.5 323q0 168 66.5 322.5t178 266t266 178t322.5 66.5q169 0 323 -66.5t266 -178t178.5 -266t66.5 -322.5q0 -169 -66.5 -323t-178 -266t-266 -178.5t-322.5 -66.5zM974 109q125 0 238.5 48.5t195 130.5t130 195.5
t48.5 238.5t-48.5 238.5t-130.5 195t-195.5 130t-238.5 48.5t-238 -48.5t-195 -130t-130 -195t-48 -238.5t48 -238.5t130 -195.5t195.5 -130.5t238.5 -48.5zM973 357q-153 0 -250.5 100.5t-97.5 267.5t97.5 267.5t250.5 100.5q154 0 251.5 -100.5t97.5 -267.5
q0 -180 -114 -283l22 -30q23 -32 23 -59q0 -32 -21 -52t-54 -20q-47 0 -77 48l-30 42q-47 -14 -98 -14zM973 520q20 0 32 4l-16 22q-13 20 -13 37q0 22 16 37t39 15q21 0 34 -15l21 -25q33 49 33 130q0 96 -40 150.5t-106 54.5q-65 0 -105 -54.5t-40 -150.5q0 -97 40 -151
t105 -54z" />
    <glyph glyph-name="uni100026.small" unicode="R&#x20dd;" horiz-adv-x="1947" 
d="M974 -112q-169 0 -323 66.5t-266 178.5t-178.5 266t-66.5 323q0 168 66.5 322.5t178 266t266 178t322.5 66.5q169 0 323 -66.5t266 -178t178.5 -266t66.5 -322.5q0 -169 -66.5 -323t-178 -266t-266 -178.5t-322.5 -66.5zM974 109q125 0 238.5 48.5t195 130.5t130 195.5
t48.5 238.5t-48.5 238.5t-130.5 195t-195.5 130t-238.5 48.5t-238 -48.5t-195 -130t-130 -195t-48 -238.5t48 -238.5t130 -195.5t195.5 -130.5t238.5 -48.5zM767 362q-45 0 -69.5 28t-24.5 78v490q0 117 111 117h210q134 0 208 -61t74 -172q0 -71 -38.5 -125.5t-103.5 -76.5
l93 -133q21 -31 21 -62q0 -37 -25 -60t-64 -23q-31 0 -52.5 15t-44.5 53l-109 175h-91v-137q0 -50 -25 -78t-70 -28zM862 744h106q50 0 79 25t29 69q0 45 -28.5 70.5t-77.5 25.5h-108v-190z" />
    <glyph glyph-name="uni100028.small" unicode="S&#x20dd;" horiz-adv-x="1947" 
d="M974 -112q-169 0 -323 66.5t-266 178.5t-178.5 266t-66.5 323q0 168 66.5 322.5t178 266t266 178t322.5 66.5q169 0 323 -66.5t266 -178t178.5 -266t66.5 -322.5q0 -169 -66.5 -323t-178 -266t-266 -178.5t-322.5 -66.5zM974 109q125 0 238.5 48.5t195 130.5t130 195.5
t48.5 238.5t-48.5 238.5t-130.5 195t-195.5 130t-238.5 48.5t-238 -48.5t-195 -130t-130 -195t-48 -238.5t48 -238.5t130 -195.5t195.5 -130.5t238.5 -48.5zM961 357q-100 0 -171.5 34t-98.5 86q-14 25 -14 50q0 35 22.5 56t59.5 21q41 0 77 -36q31 -33 62.5 -47t74.5 -14
q48 0 76.5 17t28.5 50q0 28 -22.5 42t-87.5 28l-89 20q-204 40 -204 200q0 102 81 165t213 63q93 0 164 -34t98 -89q14 -24 14 -52q0 -33 -21 -51.5t-56 -18.5q-44 0 -84 40q-46 59 -117 59q-43 0 -67 -17t-24 -49q0 -26 22 -41t76 -25l91 -19q211 -40 211 -203
q0 -107 -85.5 -171t-229.5 -64z" />
    <glyph glyph-name="uni10002A.small" unicode="T&#x20dd;" horiz-adv-x="1947" 
d="M974 -112q-169 0 -323 66.5t-266 178.5t-178.5 266t-66.5 323q0 168 66.5 322.5t178 266t266 178t322.5 66.5q169 0 323 -66.5t266 -178t178.5 -266t66.5 -322.5q0 -169 -66.5 -323t-178 -266t-266 -178.5t-322.5 -66.5zM974 109q125 0 238.5 48.5t195 130.5t130 195.5
t48.5 238.5t-48.5 238.5t-130.5 195t-195.5 130t-238.5 48.5t-238 -48.5t-195 -130t-130 -195t-48 -238.5t48 -238.5t130 -195.5t195.5 -130.5t238.5 -48.5zM972 360q-52 0 -80.5 32.5t-28.5 89.5v432h-128q-42 0 -66 22t-24 61t24 61.5t66 22.5h476q42 0 66 -22.5t24 -61.5
t-24 -61t-66 -22h-129v-432q0 -57 -29 -89.5t-81 -32.5z" />
    <glyph glyph-name="uni10002C.small" unicode="U&#x20dd;" horiz-adv-x="1947" 
d="M974 -112q-169 0 -323 66.5t-266 178.5t-178.5 266t-66.5 323q0 168 66.5 322.5t178 266t266 178t322.5 66.5q169 0 323 -66.5t266 -178t178.5 -266t66.5 -322.5q0 -169 -66.5 -323t-178 -266t-266 -178.5t-322.5 -66.5zM974 109q125 0 238.5 48.5t195 130.5t130 195.5
t48.5 238.5t-48.5 238.5t-130.5 195t-195.5 130t-238.5 48.5t-238 -48.5t-195 -130t-130 -195t-48 -238.5t48 -238.5t130 -195.5t195.5 -130.5t238.5 -48.5zM973 357q-143 0 -231.5 73t-88.5 192v355q0 53 26 82t74 29q49 0 75 -29t26 -82v-335q0 -54 32.5 -87t86.5 -33
t86.5 33t32.5 87v335q0 53 26 82t74 29q49 0 75.5 -29t26.5 -82v-355q0 -118 -89 -191.5t-232 -73.5z" />
    <glyph glyph-name="uni10002E.small" unicode="V&#x20dd;" horiz-adv-x="1947" 
d="M974 -112q-169 0 -323 66.5t-266 178.5t-178.5 266t-66.5 323q0 168 66.5 322.5t178 266t266 178t322.5 66.5q169 0 323 -66.5t266 -178t178.5 -266t66.5 -322.5q0 -169 -66.5 -323t-178 -266t-266 -178.5t-322.5 -66.5zM974 109q125 0 238.5 48.5t195 130.5t130 195.5
t48.5 238.5t-48.5 238.5t-130.5 195t-195.5 130t-238.5 48.5t-238 -48.5t-195 -130t-130 -195t-48 -238.5t48 -238.5t130 -195.5t195.5 -130.5t238.5 -48.5zM972 357q-66 0 -103.5 28.5t-58.5 93.5l-161 457q-9 27 -9 53q0 44 29 71t76 27q43 0 67.5 -21.5t36.5 -71.5
l120 -432h7l120 432q12 50 36 71.5t68 21.5q47 0 76.5 -27t29.5 -70q0 -26 -9 -54l-160 -453q-22 -66 -60.5 -96t-104.5 -30z" />
    <glyph glyph-name="uni100030.small" unicode="W&#x20dd;" horiz-adv-x="1947" 
d="M974 -112q-169 0 -323 66.5t-266 178.5t-178.5 266t-66.5 323q0 168 66.5 322.5t178 266t266 178t322.5 66.5q169 0 323 -66.5t266 -178t178.5 -266t66.5 -322.5q0 -169 -66.5 -323t-178 -266t-266 -178.5t-322.5 -66.5zM974 109q125 0 238.5 48.5t195 130.5t130 195.5
t48.5 238.5t-48.5 238.5t-130.5 195t-195.5 130t-238.5 48.5t-238 -48.5t-195 -130t-130 -195t-48 -238.5t48 -238.5t130 -195.5t195.5 -130.5t238.5 -48.5zM776 357q-90 0 -109 93l-119 527q-3 13 -3 26q0 37 23.5 60.5t60.5 23.5q76 0 89 -87l71 -403h7l90 412
q15 71 87 71q73 0 88 -72l89 -411h7l72 403q13 87 88 87q38 0 61 -23.5t23 -60.5q0 -17 -3 -26l-119 -527q-19 -93 -109 -93q-44 0 -72.5 24t-37.5 70l-84 359h-6l-84 -359q-9 -46 -37.5 -70t-72.5 -24z" />
    <glyph glyph-name="uni100032.small" unicode="X&#x20dd;" horiz-adv-x="1947" 
d="M974 -112q-169 0 -323 66.5t-266 178.5t-178.5 266t-66.5 323q0 168 66.5 322.5t178 266t266 178t322.5 66.5q169 0 323 -66.5t266 -178t178.5 -266t66.5 -322.5q0 -169 -66.5 -323t-178 -266t-266 -178.5t-322.5 -66.5zM974 109q125 0 238.5 48.5t195 130.5t130 195.5
t48.5 238.5t-48.5 238.5t-130.5 195t-195.5 130t-238.5 48.5t-238 -48.5t-195 -130t-130 -195t-48 -238.5t48 -238.5t130 -195.5t195.5 -130.5t238.5 -48.5zM754 362q-39 0 -64.5 24.5t-25.5 61.5q0 31 26 69l158 210l-151 201q-28 38 -28 72q0 38 26.5 63t66.5 25
q30 0 50.5 -13.5t42.5 -47.5l121 -180h6l115 179q21 34 41.5 48t51.5 14q40 0 65.5 -24t25.5 -62q0 -34 -27 -70l-157 -207l156 -206q27 -36 27 -70q0 -38 -26 -62.5t-67 -24.5q-30 0 -50 13.5t-43 48.5l-119 179h-5l-122 -179q-23 -35 -43 -48.5t-51 -13.5z" />
    <glyph glyph-name="uni100034.small" unicode="Y&#x20dd;" horiz-adv-x="1947" 
d="M974 -112q-169 0 -323 66.5t-266 178.5t-178.5 266t-66.5 323q0 168 66.5 322.5t178 266t266 178t322.5 66.5q169 0 323 -66.5t266 -178t178.5 -266t66.5 -322.5q0 -169 -66.5 -323t-178 -266t-266 -178.5t-322.5 -66.5zM974 109q125 0 238.5 48.5t195 130.5t130 195.5
t48.5 238.5t-48.5 238.5t-130.5 195t-195.5 130t-238.5 48.5t-238 -48.5t-195 -130t-130 -195t-48 -238.5t48 -238.5t130 -195.5t195.5 -130.5t238.5 -48.5zM973 362q-51 0 -79 32t-28 89v114l-193 342q-16 29 -16 57q0 39 28 65.5t70 26.5q37 0 58 -16t40 -58l118 -231h6
l118 231q19 41 40 57.5t57 16.5q43 0 70 -26t27 -67q0 -28 -16 -56l-192 -341v-115q0 -57 -28 -89t-80 -32z" />
    <glyph glyph-name="uni100036.small" unicode="Z&#x20dd;" horiz-adv-x="1947" 
d="M974 -112q-169 0 -323 66.5t-266 178.5t-178.5 266t-66.5 323q0 168 66.5 322.5t178 266t266 178t322.5 66.5q169 0 323 -66.5t266 -178t178.5 -266t66.5 -322.5q0 -169 -66.5 -323t-178 -266t-266 -178.5t-322.5 -66.5zM974 109q125 0 238.5 48.5t195 130.5t130 195.5
t48.5 238.5t-48.5 238.5t-130.5 195t-195.5 130t-238.5 48.5t-238 -48.5t-195 -130t-130 -195t-48 -238.5t48 -238.5t130 -195.5t195.5 -130.5t238.5 -48.5zM774 375q-40 0 -65 24t-25 62q0 42 37 89l277 355v8h-236q-41 0 -65.5 22t-24.5 59q0 38 24 59.5t66 21.5h398
q41 0 66 -24t25 -63q0 -27 -7 -45t-29 -43l-277 -356v-8h247q42 0 66.5 -21t24.5 -59q0 -37 -25 -59t-66 -22h-411z" />
    <glyph glyph-name="uni100038.small" unicode="&#x30;&#x20dd;" horiz-adv-x="1947" 
d="M974 -112q-169 0 -323 66.5t-266 178.5t-178.5 266t-66.5 323q0 168 66.5 322.5t178 266t266 178t322.5 66.5q169 0 323 -66.5t266 -178t178.5 -266t66.5 -322.5q0 -169 -66.5 -323t-178 -266t-266 -178.5t-322.5 -66.5zM974 109q125 0 238.5 48.5t195 130.5t130 195.5
t48.5 238.5t-48.5 238.5t-130.5 195t-195.5 130t-238.5 48.5t-238 -48.5t-195 -130t-130 -195t-48 -238.5t48 -238.5t130 -195.5t195.5 -130.5t238.5 -48.5zM971 355q-136 0 -217 99.5t-81 266.5q0 168 81 267.5t217 99.5t219.5 -100t83.5 -267q0 -166 -83.5 -266
t-219.5 -100zM973 512q49 0 77 53.5t28 155.5q0 103 -28 156.5t-77 53.5q-48 0 -76 -54t-28 -156t28 -155.5t76 -53.5z" />
    <glyph glyph-name="uni100039.small" unicode="&#x30;&#x20dd;&#x25cf;" horiz-adv-x="1947" 
d="M974 -112q-169 0 -323 66.5t-266 178.5t-178.5 266t-66.5 323q0 168 66.5 322.5t178 266t266 178t322.5 66.5q169 0 323 -66.5t266 -178t178.5 -266t66.5 -322.5q0 -169 -66.5 -323t-178 -266t-266 -178.5t-322.5 -66.5zM971 349q139 0 223.5 101.5t84.5 271.5t-84.5 272
t-223.5 102q-138 0 -220.5 -102t-82.5 -272t82.5 -271.5t220.5 -101.5zM973 508q-49 0 -78 54.5t-29 159.5t29 159.5t78 54.5t78 -54.5t29 -159.5t-29 -159.5t-78 -54.5z" />
    <glyph glyph-name="uni1000F2.small" unicode="&#x2713;&#x20de;" horiz-adv-x="1910" 
d="M484 -34q-137 0 -210.5 73t-73.5 209v946q0 136 73.5 209t210.5 73h942q138 0 211 -72.5t73 -209.5v-946q0 -137 -73 -209.5t-211 -72.5h-942zM508 183h894q91 0 91 92v892q0 92 -91 92h-894q-91 0 -91 -92v-892q0 -92 91 -92zM873 349q-49 0 -89 46l-168 203
q-25 29 -25 64q0 37 25.5 62.5t62.5 25.5q41 0 71 -37l121 -151l279 446q33 50 78 50q36 0 63.5 -23.5t27.5 -59.5q0 -28 -22 -62l-339 -516q-31 -48 -85 -48z" />
    <glyph glyph-name="uni1000F0.small" unicode="&#x2717;&#x20de;" horiz-adv-x="1910" 
d="M484 -34q-137 0 -210.5 73t-73.5 209v946q0 136 73.5 209t210.5 73h942q138 0 211 -72.5t73 -209.5v-946q0 -137 -73 -209.5t-211 -72.5h-942zM508 183h894q91 0 91 92v892q0 92 -91 92h-894q-91 0 -91 -92v-892q0 -92 91 -92zM718 395q-38 0 -64 26.5t-26 64.5
q0 35 27 62l172 173l-172 172q-27 27 -27 62q0 38 26 64t64 26q40 0 65 -26l172 -171l173 172q26 26 65 26q38 0 64 -26t26 -64q0 -36 -27 -63l-172 -172l171 -173q28 -26 28 -62q0 -38 -26.5 -64.5t-64.5 -26.5t-66 26l-171 171l-171 -171q-26 -26 -66 -26z" />
    <glyph glyph-name="uni10003B.small" unicode="&#x31;&#x20dd;&#x25cf;" horiz-adv-x="1947" 
d="M974 -112q-169 0 -323 66.5t-266 178.5t-178.5 266t-66.5 323q0 168 66.5 322.5t178 266t266 178t322.5 66.5q169 0 323 -66.5t266 -178t178.5 -266t66.5 -322.5q0 -169 -66.5 -323t-178 -266t-266 -178.5t-322.5 -66.5zM1027 344q52 0 81.5 29.5t29.5 87.5v522
q0 53 -34 85t-90 32q-68 0 -136 -46l-130 -87q-46 -30 -46 -77q0 -32 21 -54t52 -22q27 0 57 21l78 51h7v-425q0 -58 29 -87.5t81 -29.5z" />
    <glyph glyph-name="uni10003D.small" unicode="&#x32;&#x20dd;&#x25cf;" horiz-adv-x="1947" 
d="M974 -112q-169 0 -323 66.5t-266 178.5t-178.5 266t-66.5 323q0 168 66.5 322.5t178 266t266 178t322.5 66.5q169 0 323 -66.5t266 -178t178.5 -266t66.5 -322.5q0 -169 -66.5 -323t-178 -266t-266 -178.5t-322.5 -66.5zM787 355h410q44 0 70 23.5t26 63.5t-26 63t-70 23
h-201v6l127 126q70 63 103 116t33 113q0 99 -78 160t-205 61q-99 0 -175 -44.5t-101 -116.5q-8 -24 -8 -45q0 -38 25.5 -59.5t67.5 -21.5q48 0 85 50q15 21 25 33t30.5 23.5t44.5 11.5q37 0 59 -19t22 -51q0 -31 -22 -61t-67 -70l-224 -213q-43 -38 -43 -88q0 -38 25.5 -61
t66.5 -23z" />
    <glyph glyph-name="uni10003F.small" unicode="&#x33;&#x20dd;&#x25cf;" horiz-adv-x="1947" 
d="M974 -112q-169 0 -323 66.5t-266 178.5t-178.5 266t-66.5 323q0 168 66.5 322.5t178 266t266 178t322.5 66.5q169 0 323 -66.5t266 -178t178.5 -266t66.5 -322.5q0 -169 -66.5 -323t-178 -266t-266 -178.5t-322.5 -66.5zM974 334q145 0 230 61t85 164q0 71 -46 121.5
t-117 56.5v10q58 7 99.5 54t41.5 106q0 92 -79.5 147.5t-209.5 55.5q-110 0 -184.5 -39.5t-97.5 -108.5q-6 -21 -6 -42q0 -38 25 -60.5t68 -22.5q55 0 84 48q33 67 109 67q41 0 64.5 -18t23.5 -49q0 -34 -25.5 -55t-66.5 -21h-25q-41 0 -65 -21.5t-24 -58.5q0 -36 24.5 -58
t64.5 -22h27q49 0 77.5 -21t28.5 -57q0 -34 -28 -54t-74 -20q-83 0 -120 67q-32 48 -85 48q-42 0 -67.5 -23t-25.5 -61q0 -16 7 -42q22 -68 101.5 -110t185.5 -42z" />
    <glyph glyph-name="uni100041.small" unicode="&#x34;&#x20dd;&#x25cf;" horiz-adv-x="1947" 
d="M974 -112q-169 0 -323 66.5t-266 178.5t-178.5 266t-66.5 323q0 168 66.5 322.5t178 266t266 178t322.5 66.5q169 0 323 -66.5t266 -178t178.5 -266t66.5 -322.5q0 -169 -66.5 -323t-178 -266t-266 -178.5t-322.5 -66.5zM1083 344q44 0 68 25t24 73v34h31q41 0 65.5 22.5
t24.5 60.5t-24 60.5t-66 22.5h-31v333q0 59 -44 97t-111 38q-70 0 -113.5 -26t-81.5 -89q-123 -194 -179 -295q-27 -55 -27 -106q0 -54 34.5 -86t93.5 -32h245v-34q0 -47 24.5 -72.5t66.5 -25.5zM992 642h-186v5q51 96 179 311h7v-316z" />
    <glyph glyph-name="uni100043.small" unicode="&#x35;&#x20dd;&#x25cf;" horiz-adv-x="1947" 
d="M974 -112q-169 0 -323 66.5t-266 178.5t-178.5 266t-66.5 323q0 168 66.5 322.5t178 266t266 178t322.5 66.5q169 0 323 -66.5t266 -178t178.5 -266t66.5 -322.5q0 -169 -66.5 -323t-178 -266t-266 -178.5t-322.5 -66.5zM970 334q141 0 225.5 74t84.5 200
q0 109 -68.5 175.5t-181.5 66.5q-53 0 -98.5 -20t-64.5 -51h-10l13 156h292q39 0 62.5 20.5t23.5 56.5q0 37 -22.5 57t-63.5 20h-342q-51 0 -82.5 -29.5t-34.5 -77.5l-16 -221q-4 -54 25 -83.5t86 -29.5q49 0 95 28q44 27 82 27q44 0 70.5 -27.5t26.5 -73.5q0 -45 -31 -75
t-77 -30q-69 0 -112 54q-31 36 -84 36q-42 0 -66 -22t-24 -58q0 -22 10 -47q25 -59 99 -92.5t183 -33.5z" />
    <glyph glyph-name="uni100045.small" unicode="&#x36;&#x20dd;&#x25cf;" horiz-adv-x="1947" 
d="M974 -112q-169 0 -323 66.5t-266 178.5t-178.5 266t-66.5 323q0 168 66.5 322.5t178 266t266 178t322.5 66.5q169 0 323 -66.5t266 -178t178.5 -266t66.5 -322.5q0 -169 -66.5 -323t-178 -266t-266 -178.5t-322.5 -66.5zM981 334q139 0 223.5 72.5t84.5 197.5
q0 106 -68 168.5t-170 62.5q-64 0 -112 -26.5t-70 -67.5h-8q-1 8 -1 23q0 84 38 136t101 52q43 0 86 -35q46 -35 86 -35q35 0 57.5 20t22.5 52q0 28 -16 55q-26 45 -89.5 73t-143.5 28q-166 0 -258 -100.5t-92 -290.5q0 -157 60 -251q83 -134 269 -134zM971 491
q-47 0 -77 30t-30 78q0 46 30 75.5t77 29.5t77 -29.5t30 -75.5q0 -49 -29.5 -78.5t-77.5 -29.5z" />
    <glyph glyph-name="uni100047.small" unicode="&#x37;&#x20dd;&#x25cf;" horiz-adv-x="1947" 
d="M974 -112q-169 0 -323 66.5t-266 178.5t-178.5 266t-66.5 323q0 168 66.5 322.5t178 266t266 178t322.5 66.5q169 0 323 -66.5t266 -178t178.5 -266t66.5 -322.5q0 -169 -66.5 -323t-178 -266t-266 -178.5t-322.5 -66.5zM886 334q34 0 57 16t47 56l265 458q33 58 33 107
q0 54 -36 86t-98 32h-387q-42 0 -66.5 -22.5t-24.5 -61.5t24.5 -62t66.5 -23h288v-8l-255 -420q-19 -32 -19 -65q0 -42 29.5 -67.5t75.5 -25.5z" />
    <glyph glyph-name="uni100049.small" unicode="&#x38;&#x20dd;&#x25cf;" horiz-adv-x="1947" 
d="M974 -112q-169 0 -323 66.5t-266 178.5t-178.5 266t-66.5 323q0 168 66.5 322.5t178 266t266 178t322.5 66.5q169 0 323 -66.5t266 -178t178.5 -266t66.5 -322.5q0 -169 -66.5 -323t-178 -266t-266 -178.5t-322.5 -66.5zM972 334q152 0 241.5 60.5t89.5 163.5
q0 71 -46 120t-124 61v8q138 38 138 162q0 91 -81.5 146t-216.5 55t-216.5 -55t-81.5 -146q0 -123 138 -162v-8q-77 -12 -123.5 -61.5t-46.5 -119.5q0 -103 89 -163.5t240 -60.5zM973 802q-39 0 -64.5 24t-25.5 59t26 59t64 24q39 0 65 -24t26 -59t-26 -59t-65 -24zM974 476
q-48 0 -79.5 27.5t-31.5 70.5q0 42 31.5 70t79.5 28t78.5 -27.5t30.5 -70.5t-31 -70.5t-78 -27.5z" />
    <glyph glyph-name="uni10004B.small" unicode="&#x39;&#x20dd;&#x25cf;" horiz-adv-x="1947" 
d="M974 -112q-169 0 -323 66.5t-266 178.5t-178.5 266t-66.5 323q0 168 66.5 322.5t178 266t266 178t322.5 66.5q169 0 323 -66.5t266 -178t178.5 -266t66.5 -322.5q0 -169 -66.5 -323t-178 -266t-266 -178.5t-322.5 -66.5zM962 334q161 0 247.5 103.5t86.5 295.5
q0 180 -85 278.5t-240 98.5q-138 0 -223.5 -74.5t-85.5 -195.5q0 -108 69 -171t175 -63q66 0 111 27t66 72h7q7 -94 -29.5 -153t-99.5 -59q-52 0 -96 44q-38 30 -81 30q-35 0 -59 -22.5t-24 -56.5q0 -22 9 -41q23 -49 87 -81t165 -32zM980 740q-48 0 -78.5 29.5t-30.5 76.5
q0 49 30 79t79 30q46 0 76.5 -31t30.5 -78q0 -46 -30 -76t-77 -30z" />
    <glyph glyph-name="dblemdash" unicode="&#x2014;&#x2014;" horiz-adv-x="3527" 
d="M48 459v255h3432v-255h-3432z" />
    <glyph glyph-name="trplemdash" unicode="&#x2014;&#x2014;&#x2014;" horiz-adv-x="5291" 
d="M48 459v255h5196v-255h-5196z" />
    <glyph glyph-name="uni10009D.small" unicode="E&#x20de;&#x25a0;" horiz-adv-x="1910" 
d="M484 -34q-137 0 -210.5 73t-73.5 209v946q0 136 73.5 209t210.5 73h942q138 0 211 -72.5t73 -209.5v-946q0 -137 -73 -209.5t-211 -72.5h-942zM787 355h347q42 0 66.5 21.5t24.5 60.5t-24.5 61t-66.5 22h-256v137h247q36 0 57.5 19t21.5 53q0 35 -21 54t-58 19h-247v129
h256q42 0 66.5 22t24.5 61t-24.5 60.5t-66.5 21.5h-347q-58 0 -88.5 -32t-30.5 -92v-493q0 -124 119 -124z" />
    <glyph glyph-name="uni100094.small" unicode="A&#x20de;" horiz-adv-x="1910" 
d="M484 -34q-137 0 -210.5 73t-73.5 209v946q0 136 73.5 209t210.5 73h942q138 0 211 -72.5t73 -209.5v-946q0 -137 -73 -209.5t-211 -72.5h-942zM508 183h894q91 0 91 92v892q0 92 -91 92h-894q-91 0 -91 -92v-892q0 -92 91 -92zM721 358q-45 0 -70 24t-25 67q0 25 13 65
l160 459q40 120 154 120q118 0 157 -120l160 -459q13 -40 13 -65q0 -43 -25 -67t-69 -24q-75 0 -97 87l-28 89h-219l-28 -89q-20 -87 -96 -87zM882 676h145l-68 237h-9z" />
    <glyph glyph-name="uni100096.small" unicode="B&#x20de;" horiz-adv-x="1910" 
d="M484 -34q-137 0 -210.5 73t-73.5 209v946q0 136 73.5 209t210.5 73h942q138 0 211 -72.5t73 -209.5v-946q0 -137 -73 -209.5t-211 -72.5h-942zM508 183h894q91 0 91 92v892q0 92 -91 92h-894q-91 0 -91 -92v-892q0 -92 91 -92zM780 375q-116 0 -116 116v469q0 57 30 86.5
t86 29.5h235q104 0 164 -46.5t60 -125.5q0 -58 -36.5 -100t-98.5 -53v-7q79 -10 123.5 -56t44.5 -119q0 -87 -69 -140.5t-181 -53.5h-242zM855 794h81q114 0 114 79q0 34 -25 54.5t-68 20.5h-102v-154zM854 509h90q129 0 129 85q0 40 -29 63t-81 23h-109v-171z" />
    <glyph glyph-name="uni100098.small" unicode="C&#x20de;" horiz-adv-x="1910" 
d="M484 -34q-137 0 -210.5 73t-73.5 209v946q0 136 73.5 209t210.5 73h942q138 0 211 -72.5t73 -209.5v-946q0 -137 -73 -209.5t-211 -72.5h-942zM508 183h894q91 0 91 92v892q0 92 -91 92h-894q-91 0 -91 -92v-892q0 -92 91 -92zM952 358q-158 0 -252 100t-94 267
q0 168 94 268t252 100q105 0 184.5 -44t111.5 -121q10 -23 10 -50q0 -37 -24 -58.5t-66 -21.5q-30 0 -49.5 12t-35.5 41q-39 77 -127 77q-67 0 -106.5 -54.5t-39.5 -148.5q0 -93 39 -147.5t106 -54.5q88 0 128 76q28 52 85 52q42 0 66 -21.5t24 -58.5q0 -27 -10 -50
q-32 -76 -111 -119.5t-185 -43.5z" />
    <glyph glyph-name="uni10009A.small" unicode="D&#x20de;" horiz-adv-x="1910" 
d="M484 -34q-137 0 -210.5 73t-73.5 209v946q0 136 73.5 209t210.5 73h942q138 0 211 -72.5t73 -209.5v-946q0 -137 -73 -209.5t-211 -72.5h-942zM508 183h894q91 0 91 92v892q0 92 -91 92h-894q-91 0 -91 -92v-892q0 -92 91 -92zM767 375q-111 0 -111 117v467q0 56 28 86.5
t83 30.5h193q165 0 253 -90.5t88 -259.5t-88.5 -260t-252.5 -91h-193zM851 527h77q85 0 126 48t41 150q0 101 -41 149.5t-126 48.5h-77v-396z" />
    <glyph glyph-name="uni10009C.small" unicode="E&#x20de;" horiz-adv-x="1910" 
d="M484 -34q-137 0 -210.5 73t-73.5 209v946q0 136 73.5 209t210.5 73h942q138 0 211 -72.5t73 -209.5v-946q0 -137 -73 -209.5t-211 -72.5h-942zM508 183h894q91 0 91 92v892q0 92 -91 92h-894q-91 0 -91 -92v-892q0 -92 91 -92zM791 375q-111 0 -111 117v467
q0 56 28.5 86.5t82.5 30.5h329q39 0 62 -20.5t23 -57.5t-23 -57.5t-62 -20.5h-243v-123h233q35 0 55 -17.5t20 -50.5q0 -32 -20 -50t-55 -18h-233v-130h243q39 0 62 -20.5t23 -57.5t-23 -57.5t-62 -20.5h-329z" />
    <glyph glyph-name="uni10009E.small" unicode="F&#x20de;" horiz-adv-x="1910" 
d="M484 -34q-137 0 -210.5 73t-73.5 209v946q0 136 73.5 209t210.5 73h942q138 0 211 -72.5t73 -209.5v-946q0 -137 -73 -209.5t-211 -72.5h-942zM508 183h894q91 0 91 92v892q0 92 -91 92h-894q-91 0 -91 -92v-892q0 -92 91 -92zM795 363q-48 0 -75 30t-27 84v482
q0 56 28.5 86.5t82.5 30.5h333q40 0 62.5 -20.5t22.5 -57.5t-22.5 -57.5t-62.5 -20.5h-240v-135h226q34 0 54 -19t20 -52t-20 -51.5t-54 -18.5h-225v-167q0 -54 -27 -84t-76 -30z" />
    <glyph glyph-name="uni1000A0.small" unicode="G&#x20de;" horiz-adv-x="1910" 
d="M484 -34q-137 0 -210.5 73t-73.5 209v946q0 136 73.5 209t210.5 73h942q138 0 211 -72.5t73 -209.5v-946q0 -137 -73 -209.5t-211 -72.5h-942zM508 183h894q91 0 91 92v892q0 92 -91 92h-894q-91 0 -91 -92v-892q0 -92 91 -92zM953 358q-158 0 -252.5 99.5t-94.5 267.5
t94 268t252 100q105 0 183.5 -41t107.5 -111q10 -21 10 -47q0 -35 -22.5 -55t-61.5 -20q-56 0 -87 46q-44 73 -123 73q-68 0 -108.5 -58.5t-40.5 -154.5q0 -97 41 -157t109 -60q59 0 92 28.5t33 74.5v29h-72q-32 0 -50 17.5t-18 45.5q0 29 17.5 45.5t50.5 16.5h170
q94 0 94 -94v-33q0 -122 -88.5 -201t-235.5 -79z" />
    <glyph glyph-name="uni1000A2.small" unicode="H&#x20de;" horiz-adv-x="1910" 
d="M484 -34q-137 0 -210.5 73t-73.5 209v946q0 136 73.5 209t210.5 73h942q138 0 211 -72.5t73 -209.5v-946q0 -137 -73 -209.5t-211 -72.5h-942zM508 183h894q91 0 91 92v892q0 92 -91 92h-894q-91 0 -91 -92v-892q0 -92 91 -92zM727 363q-50 0 -77.5 31t-27.5 86v491
q0 55 27.5 86t77.5 31t78.5 -31t28.5 -86v-162h241v162q0 55 28 86t78 31t78.5 -31t28.5 -86v-491q0 -55 -28.5 -86t-78.5 -31t-78 31t-28 86v169h-241v-169q0 -55 -28.5 -86t-78.5 -31z" />
    <glyph glyph-name="uni1000A4.small" unicode="I&#x20de;" horiz-adv-x="1910" 
d="M484 -34q-137 0 -210.5 73t-73.5 209v946q0 136 73.5 209t210.5 73h942q138 0 211 -72.5t73 -209.5v-946q0 -137 -73 -209.5t-211 -72.5h-942zM508 183h894q91 0 91 92v892q0 92 -91 92h-894q-91 0 -91 -92v-892q0 -92 91 -92zM954 363q-52 0 -80.5 32.5t-28.5 89.5v481
q0 57 28.5 89.5t80.5 32.5t81 -32.5t29 -89.5v-481q0 -57 -29 -89.5t-81 -32.5z" />
    <glyph glyph-name="uni1000A6.small" unicode="J&#x20de;" horiz-adv-x="1910" 
d="M484 -34q-137 0 -210.5 73t-73.5 209v946q0 136 73.5 209t210.5 73h942q138 0 211 -72.5t73 -209.5v-946q0 -137 -73 -209.5t-211 -72.5h-942zM508 183h894q91 0 91 92v892q0 92 -91 92h-894q-91 0 -91 -92v-892q0 -92 91 -92zM921 358q-97 0 -167 41t-93 112
q-8 24 -8 47q0 42 26.5 68t68.5 26q74 0 96 -67q22 -51 75 -51q69 0 69 93v344q0 54 27.5 85.5t77.5 31.5t77.5 -31t27.5 -86v-350q0 -126 -72.5 -194.5t-204.5 -68.5z" />
    <glyph glyph-name="uni1000A8.small" unicode="&#x212a;&#x20de;" horiz-adv-x="1910" 
d="M484 -34q-137 0 -210.5 73t-73.5 209v946q0 136 73.5 209t210.5 73h942q138 0 211 -72.5t73 -209.5v-946q0 -137 -73 -209.5t-211 -72.5h-942zM508 183h894q91 0 91 92v892q0 92 -91 92h-894q-91 0 -91 -92v-892q0 -92 91 -92zM749 370q-46 0 -72 29t-26 82v489
q0 53 26 82t72 29q47 0 73.5 -29.5t26.5 -81.5v-188h6l223 253q38 46 82 46q38 0 64.5 -24t26.5 -58q0 -36 -29 -69l-155 -172l169 -227q26 -36 26 -70q0 -39 -27.5 -65t-68.5 -26q-50 0 -86 49l-160 219l-71 -80v-82q0 -50 -26.5 -78t-73.5 -28z" />
    <glyph glyph-name="uni1000AA.small" unicode="L&#x20de;" horiz-adv-x="1910" 
d="M484 -34q-137 0 -210.5 73t-73.5 209v946q0 136 73.5 209t210.5 73h942q138 0 211 -72.5t73 -209.5v-946q0 -137 -73 -209.5t-211 -72.5h-942zM508 183h894q91 0 91 92v892q0 92 -91 92h-894q-91 0 -91 -92v-892q0 -92 91 -92zM820 375q-52 0 -80.5 32.5t-28.5 89.5v469
q0 57 28.5 89.5t80.5 32.5t81 -32.5t29 -89.5v-419h214q42 0 67 -23t25 -63t-25 -63t-67 -23h-324z" />
    <glyph glyph-name="uni1000AC.small" unicode="M&#x20de;" horiz-adv-x="1910" 
d="M484 -34q-137 0 -210.5 73t-73.5 209v946q0 136 73.5 209t210.5 73h942q138 0 211 -72.5t73 -209.5v-946q0 -137 -73 -209.5t-211 -72.5h-942zM508 183h894q91 0 91 92v892q0 92 -91 92h-894q-91 0 -91 -92v-892q0 -92 91 -92zM669 360q-37 0 -58 22.5t-21 63.5v537
q0 47 30 76t79 29q86 0 114 -85l140 -386h5l138 386q28 85 115 85q49 0 78.5 -29t29.5 -76v-537q0 -41 -20.5 -63.5t-58.5 -22.5q-37 0 -57.5 22.5t-20.5 63.5v354h-8l-126 -341q-19 -55 -75 -55q-55 0 -74 55l-124 341h-7v-354q0 -41 -21 -63.5t-58 -22.5z" />
    <glyph glyph-name="uni1000AE.small" unicode="N&#x20de;" horiz-adv-x="1910" 
d="M484 -34q-137 0 -210.5 73t-73.5 209v946q0 136 73.5 209t210.5 73h942q138 0 211 -72.5t73 -209.5v-946q0 -137 -73 -209.5t-211 -72.5h-942zM508 183h894q91 0 91 92v892q0 92 -91 92h-894q-91 0 -91 -92v-892q0 -92 91 -92zM734 363q-42 0 -65.5 25.5t-23.5 71.5v538
q0 41 22.5 65.5t61.5 24.5q28 0 47 -11.5t45 -43.5l258 -351h7v309q0 46 23.5 71.5t65.5 25.5q43 0 66.5 -25.5t23.5 -71.5v-542q0 -40 -22 -63t-60 -23q-29 0 -48.5 11t-41.5 41l-263 356h-7v-311q0 -46 -23.5 -71.5t-65.5 -25.5z" />
    <glyph glyph-name="uni1000B0.small" unicode="O&#x20de;" horiz-adv-x="1910" 
d="M484 -34q-137 0 -210.5 73t-73.5 209v946q0 136 73.5 209t210.5 73h942q138 0 211 -72.5t73 -209.5v-946q0 -137 -73 -209.5t-211 -72.5h-942zM508 183h894q91 0 91 92v892q0 92 -91 92h-894q-91 0 -91 -92v-892q0 -92 91 -92zM955 358q-154 0 -251.5 100t-97.5 267
t97.5 267.5t251.5 100.5q153 0 250.5 -100.5t97.5 -267.5q0 -166 -97.5 -266.5t-250.5 -100.5zM955 520q65 0 105 54.5t40 150.5q0 97 -40 151.5t-105 54.5q-66 0 -105.5 -54.5t-39.5 -151.5t39.5 -151t105.5 -54z" />
    <glyph glyph-name="uni1000B2.small" unicode="P&#x20de;" horiz-adv-x="1910" 
d="M484 -34q-137 0 -210.5 73t-73.5 209v946q0 136 73.5 209t210.5 73h942q138 0 211 -72.5t73 -209.5v-946q0 -137 -73 -209.5t-211 -72.5h-942zM508 183h894q91 0 91 92v892q0 92 -91 92h-894q-91 0 -91 -92v-892q0 -92 91 -92zM783 363q-49 0 -75.5 30t-26.5 84v482
q0 56 28 86.5t83 30.5h207q122 0 195.5 -70t73.5 -188q0 -117 -74 -187t-197 -70h-111v-84q0 -53 -27 -83.5t-76 -30.5zM886 710h82q52 0 79 27.5t27 80.5q0 109 -106 109h-82v-217z" />
    <glyph glyph-name="uni1000B4.small" unicode="Q&#x20de;" horiz-adv-x="1910" 
d="M484 -34q-137 0 -210.5 73t-73.5 209v946q0 136 73.5 209t210.5 73h942q138 0 211 -72.5t73 -209.5v-946q0 -137 -73 -209.5t-211 -72.5h-942zM508 183h894q91 0 91 92v892q0 92 -91 92h-894q-91 0 -91 -92v-892q0 -92 91 -92zM955 358q-154 0 -251.5 100t-97.5 267
t97.5 267.5t251.5 100.5t251 -100.5t97 -267.5q0 -182 -114 -282l23 -30q23 -32 23 -60q0 -31 -21.5 -51t-54.5 -20q-47 0 -76 47l-30 43q-42 -14 -98 -14zM955 520q12 0 32 4l-16 23q-13 16 -13 36q0 22 16 37t39 15q21 0 34 -14l20 -26q33 48 33 130q0 97 -40 151.5
t-105 54.5q-66 0 -105.5 -54.5t-39.5 -151.5t39.5 -151t105.5 -54z" />
    <glyph glyph-name="uni1000B6.small" unicode="R&#x20de;" horiz-adv-x="1910" 
d="M484 -34q-137 0 -210.5 73t-73.5 209v946q0 136 73.5 209t210.5 73h942q138 0 211 -72.5t73 -209.5v-946q0 -137 -73 -209.5t-211 -72.5h-942zM508 183h894q91 0 91 92v892q0 92 -91 92h-894q-91 0 -91 -92v-892q0 -92 91 -92zM749 363q-46 0 -70.5 27.5t-24.5 77.5v491
q0 56 28.5 86.5t82.5 30.5h211q134 0 207.5 -61t73.5 -172q0 -72 -38 -126.5t-103 -75.5l93 -134q20 -29 20 -62q0 -36 -24.5 -59t-64.5 -23q-31 0 -52 14.5t-45 52.5l-109 176h-90v-138q0 -50 -25 -77.5t-70 -27.5zM844 745h106q50 0 78.5 24.5t28.5 68.5q0 45 -28.5 71
t-76.5 26h-108v-190z" />
    <glyph glyph-name="uni1000B8.small" unicode="S&#x20de;" horiz-adv-x="1910" 
d="M484 -34q-137 0 -210.5 73t-73.5 209v946q0 136 73.5 209t210.5 73h942q138 0 211 -72.5t73 -209.5v-946q0 -137 -73 -209.5t-211 -72.5h-942zM508 183h894q91 0 91 92v892q0 92 -91 92h-894q-91 0 -91 -92v-892q0 -92 91 -92zM942 358q-99 0 -170.5 34t-99.5 86
q-13 23 -13 50q0 34 22.5 55t58.5 21q43 0 78 -36q58 -61 136 -61q48 0 77 17.5t29 49.5q0 28 -22.5 42t-87.5 28l-89 21q-205 40 -205 199q0 102 81.5 165.5t213.5 63.5q93 0 163.5 -34.5t98.5 -89.5q14 -26 14 -51q0 -32 -21.5 -51t-55.5 -19q-45 0 -84 39q-46 60 -118 60
q-43 0 -67 -17.5t-24 -48.5q0 -26 22.5 -41t76.5 -25l91 -19q211 -42 211 -203q0 -108 -86 -171.5t-230 -63.5z" />
    <glyph glyph-name="uni1000BA.small" unicode="T&#x20de;" horiz-adv-x="1910" 
d="M484 -34q-137 0 -210.5 73t-73.5 209v946q0 136 73.5 209t210.5 73h942q138 0 211 -72.5t73 -209.5v-946q0 -137 -73 -209.5t-211 -72.5h-942zM508 183h894q91 0 91 92v892q0 92 -91 92h-894q-91 0 -91 -92v-892q0 -92 91 -92zM954 361q-52 0 -80.5 32.5t-28.5 89.5v432
h-128q-42 0 -66 22t-24 61t24 61t66 22h476q42 0 66 -22t24 -61t-24 -61t-66 -22h-129v-432q0 -57 -29 -89.5t-81 -32.5z" />
    <glyph glyph-name="uni1000BC.small" unicode="U&#x20de;" horiz-adv-x="1910" 
d="M484 -34q-137 0 -210.5 73t-73.5 209v946q0 136 73.5 209t210.5 73h942q138 0 211 -72.5t73 -209.5v-946q0 -137 -73 -209.5t-211 -72.5h-942zM508 183h894q91 0 91 92v892q0 92 -91 92h-894q-91 0 -91 -92v-892q0 -92 91 -92zM955 358q-144 0 -232.5 73t-88.5 192v354
q0 53 26.5 82t74.5 29q49 0 75 -29t26 -82v-334q0 -55 32.5 -88t86.5 -33t86.5 33t32.5 88v334q0 53 26 82t74 29q49 0 75 -29t26 -82v-354q0 -119 -88.5 -192t-231.5 -73z" />
    <glyph glyph-name="uni1000BE.small" unicode="V&#x20de;" horiz-adv-x="1910" 
d="M484 -34q-137 0 -210.5 73t-73.5 209v946q0 136 73.5 209t210.5 73h942q138 0 211 -72.5t73 -209.5v-946q0 -137 -73 -209.5t-211 -72.5h-942zM508 183h894q91 0 91 92v892q0 92 -91 92h-894q-91 0 -91 -92v-892q0 -92 91 -92zM953 358q-66 0 -103 28t-58 93l-162 458
q-9 30 -9 52q0 44 29 71.5t76 27.5q44 0 68.5 -22t35.5 -72l121 -432h7l120 432q12 50 36 72t68 22q47 0 76.5 -27t29.5 -70q0 -27 -9 -54l-161 -454q-21 -65 -60 -95t-105 -30z" />
    <glyph glyph-name="uni1000C0.small" unicode="W&#x20de;" horiz-adv-x="1910" 
d="M484 -34q-137 0 -210.5 73t-73.5 209v946q0 136 73.5 209t210.5 73h942q138 0 211 -72.5t73 -209.5v-946q0 -137 -73 -209.5t-211 -72.5h-942zM508 183h894q91 0 91 92v892q0 92 -91 92h-894q-91 0 -91 -92v-892q0 -92 91 -92zM758 358q-90 0 -110 92l-118 528
q-3 9 -3 26q0 37 23 60.5t61 23.5q74 0 89 -87l71 -403h7l89 411q15 71 88 71q72 0 87 -71l89 -411h7l72 403q13 87 89 87q37 0 60.5 -24t23.5 -60q0 -12 -3 -26l-119 -528q-20 -92 -110 -92t-110 94l-83 359h-7l-83 -359q-20 -94 -110 -94z" />
    <glyph glyph-name="uni1000C2.small" unicode="X&#x20de;" horiz-adv-x="1910" 
d="M484 -34q-137 0 -210.5 73t-73.5 209v946q0 136 73.5 209t210.5 73h942q138 0 211 -72.5t73 -209.5v-946q0 -137 -73 -209.5t-211 -72.5h-942zM508 183h894q91 0 91 92v892q0 92 -91 92h-894q-91 0 -91 -92v-892q0 -92 91 -92zM736 363q-40 0 -65 23.5t-25 61.5
q0 35 26 69l158 211l-151 201q-28 36 -28 72q0 38 26 62.5t66 24.5q31 0 51.5 -13t42.5 -48l120 -180h6l116 180q21 34 41 47.5t51 13.5q40 0 65.5 -24t25.5 -62q0 -35 -27 -69l-157 -208l157 -206q26 -34 26 -69q0 -39 -25.5 -63t-66.5 -24q-31 0 -51 13.5t-42 48.5
l-119 179h-6l-121 -179q-24 -36 -44 -49t-50 -13z" />
    <glyph glyph-name="uni1000C4.small" unicode="Y&#x20de;" horiz-adv-x="1910" 
d="M484 -34q-137 0 -210.5 73t-73.5 209v946q0 136 73.5 209t210.5 73h942q138 0 211 -72.5t73 -209.5v-946q0 -137 -73 -209.5t-211 -72.5h-942zM508 183h894q91 0 91 92v892q0 92 -91 92h-894q-91 0 -91 -92v-892q0 -92 91 -92zM955 363q-51 0 -79 31.5t-28 88.5v115
l-193 341q-16 29 -16 58q0 39 27.5 65t70.5 26q37 0 58 -16t40 -57l117 -231h7l117 231q19 41 40.5 57t57.5 16q42 0 69.5 -26t27.5 -66q0 -29 -16 -57l-192 -341v-115q0 -57 -28.5 -88.5t-79.5 -31.5z" />
    <glyph glyph-name="uni1000C6.small" unicode="Z&#x20de;" horiz-adv-x="1910" 
d="M484 -34q-137 0 -210.5 73t-73.5 209v946q0 136 73.5 209t210.5 73h942q138 0 211 -72.5t73 -209.5v-946q0 -137 -73 -209.5t-211 -72.5h-942zM508 183h894q91 0 91 92v892q0 92 -91 92h-894q-91 0 -91 -92v-892q0 -92 91 -92zM756 375q-40 0 -65.5 24t-25.5 62
q0 44 38 90l276 355v7h-235q-41 0 -65.5 22t-24.5 60t24 59.5t66 21.5h397q41 0 66.5 -24.5t25.5 -63.5q0 -26 -7 -44t-29 -43l-277 -356v-8h247q41 0 65.5 -21.5t24.5 -58.5q0 -38 -24.5 -60t-65.5 -22h-411z" />
    <glyph glyph-name="uni100005.small" unicode="A&#x20dd;&#x25cf;" horiz-adv-x="1947" 
d="M974 -112q-169 0 -323 66.5t-266 178.5t-178.5 266t-66.5 323q0 168 66.5 322.5t178 266t266 178t322.5 66.5q169 0 323 -66.5t266 -178t178.5 -266t66.5 -322.5q0 -169 -66.5 -323t-178 -266t-266 -178.5t-322.5 -66.5zM730 344q78 0 101 90l29 92h226l30 -92
q22 -90 100 -90q46 0 72 25t26 69q0 29 -13 68l-167 476q-40 125 -163 125q-118 0 -159 -125l-167 -476q-13 -39 -13 -68q0 -44 26 -69t72 -25zM896 670l73 255h9l73 -255h-155z" />
    <glyph glyph-name="uni100007.small" unicode="B&#x20dd;&#x25cf;" horiz-adv-x="1947" 
d="M974 -112q-169 0 -323 66.5t-266 178.5t-178.5 266t-66.5 323q0 168 66.5 322.5t178 266t266 178t322.5 66.5q169 0 323 -66.5t266 -178t178.5 -266t66.5 -322.5q0 -169 -66.5 -323t-178 -266t-266 -178.5t-322.5 -66.5zM788 354h257q118 0 191.5 57t73.5 149
q0 77 -47.5 125.5t-131.5 59.5v7q65 12 104 56t39 106q0 85 -63.5 134t-172.5 49h-250q-60 0 -92 -32t-32 -93v-493q0 -125 124 -125zM868 798v162h107q45 0 71.5 -21t26.5 -58q0 -83 -120 -83h-85zM867 498v179h114q55 0 85.5 -23.5t30.5 -66.5q0 -89 -136 -89h-94z" />
    <glyph glyph-name="uni100009.small" unicode="C&#x20dd;&#x25cf;" horiz-adv-x="1947" 
d="M974 -112q-169 0 -323 66.5t-266 178.5t-178.5 266t-66.5 323q0 168 66.5 322.5t178 266t266 178t322.5 66.5q169 0 323 -66.5t266 -178t178.5 -266t66.5 -322.5q0 -169 -66.5 -323t-178 -266t-266 -178.5t-322.5 -66.5zM971 336q112 0 196 46.5t117 126.5q11 23 11 54
q0 40 -25.5 62.5t-70.5 22.5q-59 0 -91 -56q-40 -79 -134 -79q-70 0 -111.5 57t-41.5 155t41 155.5t112 57.5q93 0 134 -80q18 -31 38.5 -44t52.5 -13q45 0 70.5 23t25.5 63q0 30 -11 53q-33 81 -117.5 128t-195.5 47q-167 0 -267 -106.5t-100 -283.5t100 -283t267 -106z
" />
    <glyph glyph-name="uni10000B.small" unicode="D&#x20dd;&#x25cf;" horiz-adv-x="1947" 
d="M974 -112q-169 0 -323 66.5t-266 178.5t-178.5 266t-66.5 323q0 168 66.5 322.5t178 266t266 178t322.5 66.5q169 0 323 -66.5t266 -178t178.5 -266t66.5 -322.5q0 -169 -66.5 -323t-178 -266t-266 -178.5t-322.5 -66.5zM774 355h205q174 0 268 96t94 275t-93.5 274.5
t-268.5 95.5h-205q-118 0 -118 -124v-493q0 -124 118 -124zM864 516v418h82q88 0 131 -51.5t43 -157.5q0 -108 -42.5 -158.5t-131.5 -50.5h-82z" />
    <glyph glyph-name="uni10000D.small" unicode="E&#x20dd;&#x25cf;" horiz-adv-x="1947" 
d="M974 -112q-169 0 -323 66.5t-266 178.5t-178.5 266t-66.5 323q0 168 66.5 322.5t178 266t266 178t322.5 66.5q169 0 323 -66.5t266 -178t178.5 -266t66.5 -322.5q0 -169 -66.5 -323t-178 -266t-266 -178.5t-322.5 -66.5zM801 355h347q42 0 66 21.5t24 60.5t-24 61t-66 22
h-257v137h247q36 0 57.5 19t21.5 53q0 35 -21 54t-58 19h-247v129h257q42 0 66 22t24 61t-24 60.5t-66 21.5h-347q-59 0 -89.5 -32t-30.5 -92v-493q0 -124 120 -124z" />
    <glyph glyph-name="uni10000F.small" unicode="F&#x20dd;&#x25cf;" horiz-adv-x="1947" 
d="M974 -113q-169 0 -323 66.5t-266 178.5t-178.5 266t-66.5 323q0 168 66.5 322.5t178 266t266 178t322.5 66.5q169 0 323 -66.5t266 -178t178.5 -266t66.5 -322.5q0 -169 -66.5 -323t-178 -266t-266 -178.5t-322.5 -66.5zM804 340q52 0 81 32.5t29 89.5v175h237
q36 0 57.5 20t21.5 55q0 36 -21.5 55.5t-57.5 19.5h-238v142h253q42 0 66.5 22t24.5 61t-24.5 61t-66.5 22h-352q-58 0 -88.5 -32t-30.5 -92v-509q0 -57 28.5 -89.5t80.5 -32.5z" />
    <glyph glyph-name="uni100011.small" unicode="G&#x20dd;&#x25cf;" horiz-adv-x="1947" 
d="M974 -112q-169 0 -323 66.5t-266 178.5t-178.5 266t-66.5 323q0 168 66.5 322.5t178 266t266 178t322.5 66.5q169 0 323 -66.5t266 -178t178.5 -266t66.5 -322.5q0 -169 -66.5 -323t-178 -266t-266 -178.5t-322.5 -66.5zM972 336q156 0 249.5 83.5t93.5 213.5v34
q0 101 -99 101h-181q-35 0 -53.5 -18t-18.5 -49q0 -30 19 -48t53 -18h76v-30q0 -49 -34.5 -79t-97.5 -30q-72 0 -115 63t-43 166q0 102 42.5 163t114.5 61q85 0 129 -76q33 -49 93 -49q41 0 65 21.5t24 58.5q0 27 -10 50q-32 74 -114.5 117.5t-194.5 43.5
q-167 0 -266.5 -106t-99.5 -284t100 -283.5t268 -105.5z" />
    <glyph glyph-name="uni100013.small" unicode="H&#x20dd;&#x25cf;" horiz-adv-x="1947" 
d="M974 -112q-169 0 -323 66.5t-266 178.5t-178.5 266t-66.5 323q0 168 66.5 322.5t178 266t266 178t322.5 66.5q169 0 323 -66.5t266 -178t178.5 -266t66.5 -322.5q0 -169 -66.5 -323t-178 -266t-266 -178.5t-322.5 -66.5zM732 341q54 0 84 33.5t30 92.5v177h254v-177
q0 -59 30 -92.5t83 -33.5t83 33.5t30 92.5v517q0 59 -30 92.5t-83 33.5t-83 -33.5t-30 -92.5v-170h-254v170q0 59 -30 92.5t-84 33.5q-53 0 -82.5 -33.5t-29.5 -92.5v-517q0 -59 29.5 -92.5t82.5 -33.5z" />
    <glyph glyph-name="uni100015.small" unicode="I&#x20dd;&#x25cf;" horiz-adv-x="1947" 
d="M974 -112q-169 0 -323 66.5t-266 178.5t-178.5 266t-66.5 323q0 168 66.5 322.5t178 266t266 178t322.5 66.5q169 0 323 -66.5t266 -178t178.5 -266t66.5 -322.5q0 -169 -66.5 -323t-178 -266t-266 -178.5t-322.5 -66.5zM973 341q56 0 86.5 34.5t30.5 95.5v509
q0 61 -30.5 95.5t-86.5 34.5t-86.5 -34.5t-30.5 -95.5v-509q0 -61 30.5 -95.5t86.5 -34.5z" />
    <glyph glyph-name="uni100017.small" unicode="J&#x20dd;&#x25cf;" horiz-adv-x="1947" 
d="M974 -112q-169 0 -323 66.5t-266 178.5t-178.5 266t-66.5 323q0 168 66.5 322.5t178 266t266 178t322.5 66.5q169 0 323 -66.5t266 -178t178.5 -266t66.5 -322.5q0 -169 -66.5 -323t-178 -266t-266 -178.5t-322.5 -66.5zM939 351q135 0 208.5 69.5t73.5 198.5v358
q0 55 -28 86.5t-79 31.5t-78.5 -31.5t-27.5 -86.5v-353q0 -95 -71 -95q-56 0 -77 53q-24 68 -97 68q-43 0 -69.5 -26.5t-26.5 -69.5q0 -27 7 -48q23 -71 94.5 -113t170.5 -42z" />
    <glyph glyph-name="uni100019.small" unicode="&#x212a;&#x20dd;&#x25cf;" horiz-adv-x="1947" 
d="M974 -112q-169 0 -323 66.5t-266 178.5t-178.5 266t-66.5 323q0 168 66.5 322.5t178 266t266 178t322.5 66.5q169 0 323 -66.5t266 -178t178.5 -266t66.5 -322.5q0 -169 -66.5 -323t-178 -266t-266 -178.5t-322.5 -66.5zM755 349q50 0 78.5 30t28.5 83v85l75 85l168 -230
q39 -53 92 -53q44 0 73 27.5t29 68.5q0 37 -27 75l-179 240l164 181q31 35 31 74q0 37 -28.5 62t-69.5 25q-46 0 -87 -49l-235 -267h-6v198q0 56 -28 87t-79 31q-50 0 -77.5 -31t-27.5 -87v-517q0 -56 27.5 -87t77.5 -31z" />
    <glyph glyph-name="uni10001B.small" unicode="L&#x20dd;&#x25cf;" horiz-adv-x="1947" 
d="M974 -112q-169 0 -323 66.5t-266 178.5t-178.5 266t-66.5 323q0 168 66.5 322.5t178 266t266 178t322.5 66.5q169 0 323 -66.5t266 -178t178.5 -266t66.5 -322.5q0 -169 -66.5 -323t-178 -266t-266 -178.5t-322.5 -66.5zM830 355h343q45 0 71.5 24t26.5 67t-26.5 67
t-71.5 24h-225v443q0 60 -31 95t-87 35t-86 -34.5t-30 -95.5v-495q0 -61 30 -95.5t86 -34.5z" />
    <glyph glyph-name="uni10001D.small" unicode="M&#x20dd;&#x25cf;" horiz-adv-x="1947" 
d="M974 -112q-169 0 -323 66.5t-266 178.5t-178.5 266t-66.5 323q0 168 66.5 322.5t178 266t266 178t322.5 66.5q169 0 323 -66.5t266 -178t178.5 -266t66.5 -322.5q0 -169 -66.5 -323t-178 -266t-266 -178.5t-322.5 -66.5zM670 338q40 0 62 24t22 68v373h9l130 -359
q21 -59 78 -59q58 0 80 58l132 360h9v-373q0 -43 22 -67.5t61 -24.5q40 0 62 24t22 68v567q0 51 -31.5 82t-83.5 31q-94 0 -122 -91l-146 -407h-5l-147 407q-30 91 -121 91q-52 0 -84 -31t-32 -82v-567q0 -43 22 -67.5t61 -24.5z" />
    <glyph glyph-name="uni10001F.small" unicode="N&#x20dd;&#x25cf;" horiz-adv-x="1947" 
d="M974 -112q-169 0 -323 66.5t-266 178.5t-178.5 266t-66.5 323q0 168 66.5 322.5t178 266t266 178t322.5 66.5q169 0 323 -66.5t266 -178t178.5 -266t66.5 -322.5q0 -169 -66.5 -323t-178 -266t-266 -178.5t-322.5 -66.5zM739 341q46 0 71 27.5t25 76.5v327h7l277 -375
q24 -32 44.5 -44t50.5 -12q41 0 64.5 24.5t23.5 67.5v573q0 49 -25 76.5t-71 27.5q-45 0 -69.5 -27.5t-24.5 -76.5v-324h-8l-272 368q-26 35 -47 47.5t-51 12.5q-41 0 -65 -26t-24 -70v-569q0 -49 24.5 -76.5t69.5 -27.5z" />
    <glyph glyph-name="uni100021.small" unicode="O&#x20dd;&#x25cf;" horiz-adv-x="1947" 
d="M974 -112q-169 0 -323 66.5t-266 178.5t-178.5 266t-66.5 323q0 168 66.5 322.5t178 266t266 178t322.5 66.5q169 0 323 -66.5t266 -178t178.5 -266t66.5 -322.5q0 -169 -66.5 -323t-178 -266t-266 -178.5t-322.5 -66.5zM973 336q163 0 266.5 106t103.5 283t-103.5 283.5
t-266.5 106.5q-162 0 -265.5 -106.5t-103.5 -283.5t103.5 -283t265.5 -106zM973 509q-69 0 -110.5 57t-41.5 159t41.5 159.5t110.5 57.5t111 -57.5t42 -159.5t-42 -159t-111 -57z" />
    <glyph glyph-name="uni100023.small" unicode="P&#x20dd;&#x25cf;" horiz-adv-x="1947" 
d="M974 -112q-169 0 -323 66.5t-266 178.5t-178.5 266t-66.5 323q0 168 66.5 322.5t178 266t266 178t322.5 66.5q169 0 323 -66.5t266 -178t178.5 -266t66.5 -322.5q0 -169 -66.5 -323t-178 -266t-266 -178.5t-322.5 -66.5zM791 341q52 0 81 32.5t29 89.5v88h117
q131 0 209 74t78 199q0 124 -77.5 198t-207.5 74h-219q-59 0 -89 -32t-30 -92v-509q0 -57 28.5 -89.5t80.5 -32.5zM901 709v229h87q54 0 82.5 -29.5t28.5 -85.5q0 -55 -28.5 -84.5t-82.5 -29.5h-87z" />
    <glyph glyph-name="uni100025.small" unicode="Q&#x20dd;&#x25cf;" horiz-adv-x="1947" 
d="M974 -112q-169 0 -323 66.5t-266 178.5t-178.5 266t-66.5 323q0 168 66.5 322.5t178 266t266 178t322.5 66.5q169 0 323 -66.5t266 -178t178.5 -266t66.5 -322.5q0 -169 -66.5 -323t-178 -266t-266 -178.5t-322.5 -66.5zM973 336q53 0 103 14l32 -43q32 -51 81 -51
q35 0 58 21t23 55q0 28 -24 63l-24 31q121 108 121 300q0 177 -103.5 283t-266.5 106q-162 0 -265.5 -106t-103.5 -283t103.5 -283.5t265.5 -106.5zM973 510q-69 0 -110.5 57t-41.5 159t41.5 159t110.5 57t111 -57t42 -159q0 -86 -34 -137l-22 27q-14 15 -36 15
q-24 0 -41 -15.5t-17 -39.5q0 -20 14 -39l17 -23q-13 -4 -34 -4z" />
    <glyph glyph-name="uni100027.small" unicode="R&#x20dd;&#x25cf;" horiz-adv-x="1947" 
d="M974 -112q-169 0 -323 66.5t-266 178.5t-178.5 266t-66.5 323q0 168 66.5 322.5t178 266t266 178t322.5 66.5q169 0 323 -66.5t266 -178t178.5 -266t66.5 -322.5q0 -169 -66.5 -323t-178 -266t-266 -178.5t-322.5 -66.5zM754 341q49 0 75.5 29.5t26.5 82.5v145h95
l114 -185q25 -40 48 -56t56 -16q42 0 68.5 24.5t26.5 63.5q0 34 -22 66l-98 141q69 22 109 80t40 134q0 117 -78 181.5t-220 64.5h-223q-58 0 -88 -32t-30 -92v-519q0 -53 26 -82.5t74 -29.5zM856 746v200h114q51 0 80.5 -26.5t29.5 -74.5q0 -46 -30 -72.5t-82 -26.5h-112z
" />
    <glyph glyph-name="uni100029.small" unicode="S&#x20dd;&#x25cf;" horiz-adv-x="1947" 
d="M974 -112q-169 0 -323 66.5t-266 178.5t-178.5 266t-66.5 323q0 168 66.5 322.5t178 266t266 178t322.5 66.5q169 0 323 -66.5t266 -178t178.5 -266t66.5 -322.5q0 -169 -66.5 -323t-178 -266t-266 -178.5t-322.5 -66.5zM960 336q153 0 244 67.5t91 181.5q0 173 -224 215
l-96 20q-57 11 -80.5 27t-23.5 43q0 32 25 50.5t70 18.5q41 0 69.5 -14t55.5 -48q23 -23 42 -32.5t46 -9.5q38 0 60.5 20t22.5 55q0 27 -15 54q-30 58 -105 94t-173 36q-140 0 -226.5 -66.5t-86.5 -175.5q0 -169 217 -211l94 -22q69 -14 92.5 -29t23.5 -45q0 -34 -30 -51.5
t-80 -17.5q-46 0 -79 14.5t-65 49.5q-38 37 -83 37q-39 0 -63 -22.5t-24 -58.5q0 -29 15 -53q28 -55 104 -91t182 -36z" />
    <glyph glyph-name="uni10002B.small" unicode="T&#x20dd;&#x25cf;" horiz-adv-x="1947" 
d="M974 -112q-169 0 -323 66.5t-266 178.5t-178.5 266t-66.5 323q0 168 66.5 322.5t178 266t266 178t322.5 66.5q169 0 323 -66.5t266 -178t178.5 -266t66.5 -322.5q0 -169 -66.5 -323t-178 -266t-266 -178.5t-322.5 -66.5zM972 339q56 0 87 35t31 96v455h135
q45 0 70.5 23.5t25.5 65.5t-25.5 65.5t-70.5 23.5h-504q-45 0 -70.5 -23.5t-25.5 -65.5t25.5 -65.5t70.5 -23.5h135v-455q0 -61 30 -96t86 -35z" />
    <glyph glyph-name="uni10002D.small" unicode="U&#x20dd;&#x25cf;" horiz-adv-x="1947" 
d="M974 -112q-169 0 -323 66.5t-266 178.5t-178.5 266t-66.5 323q0 168 66.5 322.5t178 266t266 178t322.5 66.5q169 0 323 -66.5t266 -178t178.5 -266t66.5 -322.5q0 -169 -66.5 -323t-178 -266t-266 -178.5t-322.5 -66.5zM973 336q152 0 246 77.5t94 203.5v375
q0 56 -28 87t-80 31q-51 0 -79 -31t-28 -87v-354q0 -57 -34 -91.5t-91 -34.5q-56 0 -90 34.5t-34 91.5v354q0 56 -28 87t-80 31t-80 -31t-28 -87v-375q0 -126 94 -203.5t246 -77.5z" />
    <glyph glyph-name="uni10002F.small" unicode="V&#x20dd;&#x25cf;" horiz-adv-x="1947" 
d="M974 -112q-169 0 -323 66.5t-266 178.5t-178.5 266t-66.5 323q0 168 66.5 322.5t178 266t266 178t322.5 66.5q169 0 323 -66.5t266 -178t178.5 -266t66.5 -322.5q0 -169 -66.5 -323t-178 -266t-266 -178.5t-322.5 -66.5zM972 336q70 0 111 32t65 102l169 478q10 33 10 58
q0 46 -31.5 74.5t-82.5 28.5q-47 0 -72.5 -23t-37.5 -76l-127 -457h-7l-126 457q-13 53 -39 76t-72 23q-50 0 -81 -29t-31 -76q0 -28 9 -56l170 -482q23 -69 62.5 -99.5t110.5 -30.5z" />
    <glyph glyph-name="uni100031.small" unicode="W&#x20dd;&#x25cf;" horiz-adv-x="1947" 
d="M974 -112q-169 0 -323 66.5t-266 178.5t-178.5 266t-66.5 323q0 168 66.5 322.5t178 266t266 178t322.5 66.5q169 0 323 -66.5t266 -178t178.5 -266t66.5 -322.5q0 -169 -66.5 -323t-178 -266t-266 -178.5t-322.5 -66.5zM765 336q97 0 117 101l88 377h6l88 -377
q20 -101 117 -101q96 0 117 99l125 557q3 10 3 28q0 39 -24.5 64t-64.5 25q-81 0 -94 -92l-76 -426h-7l-94 434q-15 76 -93 76q-77 0 -93 -75l-94 -435h-7l-75 426q-13 92 -94 92q-40 0 -65 -25t-25 -64q0 -15 4 -28l124 -557q21 -99 117 -99z" />
    <glyph glyph-name="uni100033.small" unicode="X&#x20dd;&#x25cf;" horiz-adv-x="1947" 
d="M974 -112q-169 0 -323 66.5t-266 178.5t-178.5 266t-66.5 323q0 168 66.5 322.5t178 266t266 178t322.5 66.5q169 0 323 -66.5t266 -178t178.5 -266t66.5 -322.5q0 -169 -66.5 -323t-178 -266t-266 -178.5t-322.5 -66.5zM742 341q32 0 53 14.5t46 52.5l129 188h6
l124 -188q24 -38 45.5 -52.5t54.5 -14.5q44 0 71.5 26t27.5 67q0 36 -29 74l-165 217l165 219q30 39 30 74q0 40 -27.5 66t-70.5 26q-32 0 -54 -14.5t-44 -51.5l-122 -189h-6l-127 190q-24 37 -45.5 51t-54.5 14q-43 0 -71 -26.5t-28 -66.5q0 -37 30 -77l160 -212l-166 -222
q-29 -37 -29 -74q0 -40 27 -65.5t70 -25.5z" />
    <glyph glyph-name="uni100035.small" unicode="Y&#x20dd;&#x25cf;" horiz-adv-x="1947" 
d="M974 -112q-169 0 -323 66.5t-266 178.5t-178.5 266t-66.5 323q0 168 66.5 322.5t178 266t266 178t322.5 66.5q169 0 323 -66.5t266 -178t178.5 -266t66.5 -322.5q0 -169 -66.5 -323t-178 -266t-266 -178.5t-322.5 -66.5zM973 341q55 0 85.5 34t30.5 95v121l203 360
q16 29 16 60q0 43 -29 71t-74 28q-39 0 -61.5 -17t-42.5 -62l-124 -243h-6l-124 243q-20 45 -42.5 62t-62.5 17q-45 0 -74.5 -28t-29.5 -70q0 -31 17 -61l204 -361v-120q0 -60 30 -94.5t84 -34.5z" />
    <glyph glyph-name="uni100037.small" unicode="Z&#x20dd;&#x25cf;" horiz-adv-x="1947" 
d="M974 -112q-169 0 -323 66.5t-266 178.5t-178.5 266t-66.5 323q0 168 66.5 322.5t178 266t266 178t322.5 66.5q169 0 323 -66.5t266 -178t178.5 -266t66.5 -322.5q0 -169 -66.5 -323t-178 -266t-266 -178.5t-322.5 -66.5zM763 355h434q44 0 70.5 23t26.5 63q0 41 -26 63.5
t-71 22.5h-260v9l292 374q24 27 32 45.5t8 47.5q0 41 -27.5 67t-70.5 26h-420q-45 0 -71 -23t-26 -63t26 -63t71 -23h247v-9l-292 -374q-40 -48 -40 -95q0 -40 27 -65.5t70 -25.5z" />
    <glyph glyph-name="uni100095.small" unicode="A&#x20de;&#x25a0;" horiz-adv-x="1910" 
d="M484 -34q-137 0 -210.5 73t-73.5 209v946q0 136 73.5 209t210.5 73h942q138 0 211 -72.5t73 -209.5v-946q0 -137 -73 -209.5t-211 -72.5h-942zM717 344q78 0 100 90l29 92h227l29 -92q23 -90 100 -90q47 0 73 25t26 69q0 29 -13 68l-167 476q-41 125 -163 125
q-119 0 -160 -125l-166 -476q-14 -42 -14 -68q0 -44 26.5 -69t72.5 -25zM882 670l73 255h9l73 -255h-155z" />
    <glyph glyph-name="uni100097.small" unicode="B&#x20de;&#x25a0;" horiz-adv-x="1910" 
d="M484 -34q-137 0 -210.5 73t-73.5 209v946q0 136 73.5 209t210.5 73h942q138 0 211 -72.5t73 -209.5v-946q0 -137 -73 -209.5t-211 -72.5h-942zM775 354h257q118 0 191 57t73 149q0 77 -47 125.5t-131 59.5v7q65 12 104 56t39 106q0 85 -63.5 134t-173.5 49h-249
q-124 0 -124 -125v-493q0 -125 124 -125zM854 798v162h108q45 0 71.5 -21t26.5 -58q0 -40 -31 -61.5t-89 -21.5h-86zM854 498v179h114q55 0 85.5 -23.5t30.5 -66.5q0 -89 -136 -89h-94z" />
    <glyph glyph-name="uni100099.small" unicode="C&#x20de;&#x25a0;" horiz-adv-x="1910" 
d="M484 -34q-137 0 -210.5 73t-73.5 209v946q0 136 73.5 209t210.5 73h942q138 0 211 -72.5t73 -209.5v-946q0 -137 -73 -209.5t-211 -72.5h-942zM958 336q111 0 195 46.5t118 126.5q11 23 11 54q0 40 -25.5 62.5t-71.5 22.5q-58 0 -90 -56q-42 -79 -135 -79
q-70 0 -111.5 57.5t-41.5 154.5q0 98 41.5 155.5t112.5 57.5q92 0 134 -80q18 -31 38 -44t52 -13q46 0 71.5 22.5t25.5 63.5q0 30 -11 53q-34 81 -118.5 128t-194.5 47q-167 0 -267.5 -106.5t-100.5 -283.5t100 -283t268 -106z" />
    <glyph glyph-name="uni10009B.small" unicode="D&#x20de;&#x25a0;" horiz-adv-x="1910" 
d="M484 -34q-137 0 -210.5 73t-73.5 209v946q0 136 73.5 209t210.5 73h942q138 0 211 -72.5t73 -209.5v-946q0 -137 -73 -209.5t-211 -72.5h-942zM761 355h204q175 0 269 96t94 275t-94 274.5t-269 95.5h-204q-119 0 -119 -124v-493q0 -124 119 -124zM851 516v418h81
q89 0 132 -51.5t43 -157.5q0 -108 -42.5 -158.5t-132.5 -50.5h-81z" />
    <glyph glyph-name="uni10009F.small" unicode="F&#x20de;&#x25a0;" horiz-adv-x="1910" 
d="M484 -34q-137 0 -210.5 73t-73.5 209v946q0 136 73.5 209t210.5 73h942q138 0 211 -72.5t73 -209.5v-946q0 -137 -73 -209.5t-211 -72.5h-942zM791 341q52 0 81 32.5t29 89.5v175h237q36 0 57.5 20t21.5 55q0 36 -21.5 55.5t-57.5 19.5h-239v142h253q42 0 66.5 22
t24.5 61t-24.5 61t-66.5 22h-351q-59 0 -89 -32t-30 -92v-509q0 -57 28.5 -89.5t80.5 -32.5z" />
    <glyph glyph-name="uni1000A1.small" unicode="G&#x20de;&#x25a0;" horiz-adv-x="1910" 
d="M484 -34q-137 0 -210.5 73t-73.5 209v946q0 136 73.5 209t210.5 73h942q138 0 211 -72.5t73 -209.5v-946q0 -137 -73 -209.5t-211 -72.5h-942zM959 336q156 0 249.5 83.5t93.5 213.5v34q0 101 -100 101h-180q-35 0 -54 -18t-19 -49q0 -30 19 -48t54 -18h76v-30
q0 -49 -35 -79t-97 -30q-72 0 -115 63t-43 166q0 102 42.5 163t114.5 61q85 0 129 -76q33 -49 93 -49q41 0 65 21.5t24 58.5q0 28 -11 50q-31 74 -113.5 117.5t-194.5 43.5q-167 0 -267 -106t-100 -284t100.5 -283.5t268.5 -105.5z" />
    <glyph glyph-name="uni1000A3.small" unicode="H&#x20de;&#x25a0;" horiz-adv-x="1910" 
d="M484 -34q-137 0 -210.5 73t-73.5 209v946q0 136 73.5 209t210.5 73h942q138 0 211 -72.5t73 -209.5v-946q0 -137 -73 -209.5t-211 -72.5h-942zM719 341q53 0 83.5 33.5t30.5 92.5v177h253v-177q0 -59 30 -92.5t83 -33.5q54 0 84 33.5t30 92.5v517q0 59 -30 92.5t-84 33.5
q-53 0 -83 -33.5t-30 -92.5v-170h-253v170q0 59 -30.5 92.5t-83.5 33.5t-83 -33.5t-30 -92.5v-517q0 -59 30 -92.5t83 -33.5z" />
    <glyph glyph-name="uni1000A5.small" unicode="I&#x20de;&#x25a0;" horiz-adv-x="1910" 
d="M484 -34q-137 0 -210.5 73t-73.5 209v946q0 136 73.5 209t210.5 73h942q138 0 211 -72.5t73 -209.5v-946q0 -137 -73 -209.5t-211 -72.5h-942zM959 341q56 0 87 34.5t31 95.5v509q0 61 -31 95.5t-87 34.5t-86 -34.5t-30 -95.5v-509q0 -61 30 -95.5t86 -34.5z" />
    <glyph glyph-name="uni1000A7.small" unicode="J&#x20de;&#x25a0;" horiz-adv-x="1910" 
d="M484 -34q-137 0 -210.5 73t-73.5 209v946q0 136 73.5 209t210.5 73h942q138 0 211 -72.5t73 -209.5v-946q0 -137 -73 -209.5t-211 -72.5h-942zM926 351q134 0 208 70t74 198v358q0 55 -28 86.5t-79 31.5t-78.5 -31.5t-27.5 -86.5v-353q0 -95 -71 -95q-56 0 -77 53
q-24 68 -98 68q-43 0 -69.5 -26.5t-26.5 -69.5q0 -24 8 -48q23 -71 94 -113t171 -42z" />
    <glyph glyph-name="uni1000A9.small" unicode="&#x212a;&#x20de;&#x25a0;" horiz-adv-x="1910" 
d="M484 -34q-137 0 -210.5 73t-73.5 209v946q0 136 73.5 209t210.5 73h942q138 0 211 -72.5t73 -209.5v-946q0 -137 -73 -209.5t-211 -72.5h-942zM742 349q50 0 78.5 30t28.5 83v85l75 85l168 -230q39 -53 91 -53q44 0 73 27.5t29 68.5q0 36 -26 75l-179 240l164 181
q31 35 31 74q0 37 -29 62t-70 25q-46 0 -87 -49l-234 -267h-6v198q0 56 -28 87t-79 31q-50 0 -77.5 -31t-27.5 -87v-517q0 -56 27.5 -87t77.5 -31z" />
    <glyph glyph-name="uni1000AB.small" unicode="L&#x20de;&#x25a0;" horiz-adv-x="1910" 
d="M484 -34q-137 0 -210.5 73t-73.5 209v946q0 136 73.5 209t210.5 73h942q138 0 211 -72.5t73 -209.5v-946q0 -137 -73 -209.5t-211 -72.5h-942zM817 355h342q46 0 72.5 24t26.5 67t-26.5 67t-72.5 24h-225v443q0 61 -30.5 95.5t-86.5 34.5t-86.5 -34.5t-30.5 -95.5v-495
q0 -61 30.5 -95.5t86.5 -34.5z" />
    <glyph glyph-name="uni1000AD.small" unicode="M&#x20de;&#x25a0;" horiz-adv-x="1910" 
d="M484 -34q-137 0 -210.5 73t-73.5 209v946q0 136 73.5 209t210.5 73h942q138 0 211 -72.5t73 -209.5v-946q0 -137 -73 -209.5t-211 -72.5h-942zM657 338q40 0 62 24t22 68v373h8l130 -359q21 -59 79 -59t80 58l132 360h8v-373q0 -43 22.5 -67.5t61.5 -24.5t61.5 24.5
t22.5 67.5v567q0 51 -32 82t-84 31q-93 0 -121 -91l-146 -407h-5l-147 407q-30 91 -122 91q-52 0 -83.5 -31t-31.5 -82v-567q0 -44 21.5 -68t61.5 -24z" />
    <glyph glyph-name="uni1000AF.small" unicode="N&#x20de;&#x25a0;" horiz-adv-x="1910" 
d="M484 -34q-137 0 -210.5 73t-73.5 209v946q0 136 73.5 209t210.5 73h942q138 0 211 -72.5t73 -209.5v-946q0 -137 -73 -209.5t-211 -72.5h-942zM726 341q45 0 70 27.5t25 76.5v327h8l277 -375q24 -32 44.5 -44t50.5 -12q40 0 63.5 24.5t23.5 67.5v573q0 49 -25 76.5
t-70 27.5t-70 -27.5t-25 -76.5v-324h-7l-273 368q-26 35 -46.5 47.5t-51.5 12.5q-41 0 -65 -26t-24 -70v-569q0 -49 25 -76.5t70 -27.5z" />
    <glyph glyph-name="uni1000B1.small" unicode="O&#x20de;&#x25a0;" horiz-adv-x="1910" 
d="M484 -34q-137 0 -210.5 73t-73.5 209v946q0 136 73.5 209t210.5 73h942q138 0 211 -72.5t73 -209.5v-946q0 -137 -73 -209.5t-211 -72.5h-942zM960 336q162 0 266 106t104 283t-104 283.5t-266 106.5t-266 -106.5t-104 -283.5t104 -283t266 -106zM960 509q-69 0 -111 57
t-42 159t42 159.5t111 57.5t111 -57.5t42 -159.5t-42 -159t-111 -57z" />
    <glyph glyph-name="uni1000B3.small" unicode="P&#x20de;&#x25a0;" horiz-adv-x="1910" 
d="M484 -34q-137 0 -210.5 73t-73.5 209v946q0 136 73.5 209t210.5 73h942q138 0 211 -72.5t73 -209.5v-946q0 -137 -73 -209.5t-211 -72.5h-942zM778 341q52 0 81 32.5t29 89.5v88h116q131 0 209 74t78 199q0 124 -77 198t-207 74h-220q-58 0 -88 -32t-30 -92v-509
q0 -57 28.5 -89.5t80.5 -32.5zM888 709v229h86q54 0 82.5 -29.5t28.5 -85.5q0 -55 -28.5 -84.5t-82.5 -29.5h-86z" />
    <glyph glyph-name="uni1000B5.small" unicode="Q&#x20de;&#x25a0;" horiz-adv-x="1910" 
d="M484 -34q-137 0 -210.5 73t-73.5 209v946q0 136 73.5 209t210.5 73h942q138 0 211 -72.5t73 -209.5v-946q0 -137 -73 -209.5t-211 -72.5h-942zM960 336q53 0 103 14l32 -43q32 -51 81 -51q35 0 57.5 21t22.5 55q0 30 -24 63l-23 31q121 110 121 300q0 177 -104 283
t-266 106t-266 -106t-104 -283t104 -283.5t266 -106.5zM960 510q-69 0 -111 57t-42 159t42 159t111 57t111 -57t42 -159q0 -84 -34 -137l-22 27q-13 15 -36 15q-24 0 -41 -15.5t-17 -39.5q0 -22 14 -39l17 -23q-15 -4 -34 -4z" />
    <glyph glyph-name="uni1000B7.small" unicode="R&#x20de;&#x25a0;" horiz-adv-x="1910" 
d="M484 -34q-137 0 -210.5 73t-73.5 209v946q0 136 73.5 209t210.5 73h942q138 0 211 -72.5t73 -209.5v-946q0 -137 -73 -209.5t-211 -72.5h-942zM741 341q48 0 74.5 29.5t26.5 82.5v145h95l115 -185q26 -41 48 -56.5t56 -15.5q41 0 67.5 24.5t26.5 63.5q0 36 -22 66
l-97 141q69 22 109 80t40 134q0 117 -78 181.5t-220 64.5h-223q-58 0 -88 -32t-30 -92v-519q0 -53 26 -82.5t74 -29.5zM842 746v200h114q51 0 81 -26.5t30 -74.5q0 -46 -30.5 -72.5t-82.5 -26.5h-112z" />
    <glyph glyph-name="uni1000B9.small" unicode="S&#x20de;&#x25a0;" horiz-adv-x="1910" 
d="M484 -34q-137 0 -210.5 73t-73.5 209v946q0 136 73.5 209t210.5 73h942q138 0 211 -72.5t73 -209.5v-946q0 -137 -73 -209.5t-211 -72.5h-942zM947 336q152 0 243 67.5t91 181.5q0 173 -223 215l-96 20q-58 11 -81.5 27t-23.5 43q0 32 25.5 50.5t70.5 18.5q41 0 69.5 -14
t54.5 -48q42 -42 89 -42q37 0 59.5 20t22.5 55q0 29 -15 54q-30 58 -105 94t-172 36q-141 0 -227 -66.5t-86 -175.5q0 -169 217 -211l94 -22q69 -14 92.5 -29t23.5 -45q0 -34 -30.5 -51.5t-80.5 -17.5q-45 0 -78 14.5t-65 49.5q-38 37 -83 37q-39 0 -63 -22t-24 -59
q0 -29 15 -53q28 -55 104 -91t182 -36z" />
    <glyph glyph-name="uni1000BB.small" unicode="T&#x20de;&#x25a0;" horiz-adv-x="1910" 
d="M484 -34q-137 0 -210.5 73t-73.5 209v946q0 136 73.5 209t210.5 73h942q138 0 211 -72.5t73 -209.5v-946q0 -137 -73 -209.5t-211 -72.5h-942zM959 339q56 0 86.5 35t30.5 96v455h135q45 0 71 23.5t26 65.5t-26 65.5t-71 23.5h-503q-45 0 -71 -23.5t-26 -65.5t26 -65.5
t71 -23.5h134v-455q0 -61 30.5 -96t86.5 -35z" />
    <glyph glyph-name="uni1000BD.small" unicode="U&#x20de;&#x25a0;" horiz-adv-x="1910" 
d="M484 -34q-137 0 -210.5 73t-73.5 209v946q0 136 73.5 209t210.5 73h942q138 0 211 -72.5t73 -209.5v-946q0 -137 -73 -209.5t-211 -72.5h-942zM960 336q152 0 246 77.5t94 203.5v375q0 56 -28.5 87t-80.5 31q-51 0 -79 -31t-28 -87v-354q0 -57 -34 -91.5t-90 -34.5
q-57 0 -91 34.5t-34 91.5v354q0 56 -28 87t-80 31q-51 0 -79 -31t-28 -87v-375q0 -126 94 -203.5t246 -77.5z" />
    <glyph glyph-name="uni1000BF.small" unicode="V&#x20de;&#x25a0;" horiz-adv-x="1910" 
d="M484 -34q-137 0 -210.5 73t-73.5 209v946q0 136 73.5 209t210.5 73h942q138 0 211 -72.5t73 -209.5v-946q0 -137 -73 -209.5t-211 -72.5h-942zM958 336q70 0 111.5 32t64.5 102l169 478q10 29 10 58q0 46 -31.5 74.5t-81.5 28.5q-47 0 -72.5 -23t-38.5 -76l-126 -457h-7
l-127 457q-13 53 -38.5 76t-72.5 23q-50 0 -81 -29t-31 -76q0 -25 10 -56l170 -482q23 -69 62.5 -99.5t109.5 -30.5z" />
    <glyph glyph-name="uni1000C1.small" unicode="W&#x20de;&#x25a0;" horiz-adv-x="1910" 
d="M484 -34q-137 0 -210.5 73t-73.5 209v946q0 136 73.5 209t210.5 73h942q138 0 211 -72.5t73 -209.5v-946q0 -137 -73 -209.5t-211 -72.5h-942zM751 336q97 0 118 101l87 377h7l88 -377q20 -101 116 -101q97 0 117 99l125 557q4 13 4 28q0 39 -25 64t-65 25q-79 0 -94 -92
l-75 -426h-8l-93 434q-17 76 -93 76q-78 0 -93 -75l-94 -435h-7l-76 426q-13 92 -94 92q-40 0 -64.5 -25t-24.5 -64q0 -18 3 -28l125 -557q21 -99 116 -99z" />
    <glyph glyph-name="uni1000C3.small" unicode="X&#x20de;&#x25a0;" horiz-adv-x="1910" 
d="M484 -34q-137 0 -210.5 73t-73.5 209v946q0 136 73.5 209t210.5 73h942q138 0 211 -72.5t73 -209.5v-946q0 -137 -73 -209.5t-211 -72.5h-942zM729 341q32 0 52.5 14t46.5 53l128 188h6l125 -188q23 -38 45 -52.5t54 -14.5q44 0 71.5 26t27.5 67q0 38 -29 74l-164 217
l165 219q29 37 29 74q0 41 -27 66.5t-70 25.5q-33 0 -54.5 -14.5t-44.5 -51.5l-121 -189h-7l-127 190q-24 37 -45.5 51t-53.5 14q-43 0 -71 -26.5t-28 -66.5q0 -39 30 -77l160 -212l-167 -222q-28 -38 -28 -74q0 -40 27 -65.5t70 -25.5z" />
    <glyph glyph-name="uni1000C5.small" unicode="Y&#x20de;&#x25a0;" horiz-adv-x="1910" 
d="M484 -34q-137 0 -210.5 73t-73.5 209v946q0 136 73.5 209t210.5 73h942q138 0 211 -72.5t73 -209.5v-946q0 -137 -73 -209.5t-211 -72.5h-942zM960 341q55 0 85 34t30 95v121l203 360q17 28 17 60q0 43 -29 71t-75 28q-38 0 -60.5 -17.5t-42.5 -61.5l-124 -243h-7
l-123 243q-20 45 -43 62t-62 17q-45 0 -74.5 -28t-29.5 -70q0 -31 17 -61l203 -361v-120q0 -60 30.5 -94.5t84.5 -34.5z" />
    <glyph glyph-name="uni1000C7.small" unicode="Z&#x20de;&#x25a0;" horiz-adv-x="1910" 
d="M484 -34q-137 0 -210.5 73t-73.5 209v946q0 136 73.5 209t210.5 73h942q138 0 211 -72.5t73 -209.5v-946q0 -137 -73 -209.5t-211 -72.5h-942zM750 355h434q44 0 70 23t26 63q0 41 -25.5 63.5t-70.5 22.5h-260v9l292 374q23 27 31 46t8 47q0 41 -27.5 67t-70.5 26h-420
q-45 0 -71 -23t-26 -63t26 -63t71 -23h247v-9l-291 -374q-40 -47 -40 -95q0 -41 27 -66t70 -25z" />
    <glyph glyph-name="uni10005C.small" unicode="&#x3f;&#x20dd;" horiz-adv-x="1947" 
d="M974 -112q-169 0 -323 66.5t-266 178.5t-178.5 266t-66.5 323q0 168 66.5 322.5t178 266t266 178t322.5 66.5q169 0 323 -66.5t266 -178t178.5 -266t66.5 -322.5q0 -169 -66.5 -323t-178 -266t-266 -178.5t-322.5 -66.5zM974 109q125 0 238.5 48.5t195 130.5t130 195.5
t48.5 238.5t-48.5 238.5t-130.5 195t-195.5 130t-238.5 48.5t-238 -48.5t-195 -130t-130 -195t-48 -238.5t48 -238.5t130 -195.5t195.5 -130.5t238.5 -48.5zM953 576q-101 0 -101 82v4q0 42 23.5 72.5t69.5 63.5q54 37 74.5 57.5t20.5 47.5q0 29 -19.5 46t-51.5 17
q-41 0 -81 -41q-2 -2 -11 -11.5t-12.5 -12.5t-12 -9.5t-15.5 -8.5t-17.5 -4.5t-23.5 -2.5q-40 0 -64.5 22.5t-24.5 56.5q0 23 9 46q24 58 94.5 94t168.5 36q118 0 197 -59.5t79 -157.5q0 -61 -29 -100.5t-94 -81.5q-75 -47 -82 -86q0 -1 -1 -3.5t-1 -3.5q-5 -28 -30.5 -45.5
t-64.5 -17.5zM953 321q-47 0 -78.5 27t-31.5 71t31.5 71t78.5 27t78 -27t31 -71t-31 -71t-78 -27z" />
    <glyph glyph-name="uni10005D.small" unicode="&#x3f;&#x20dd;&#x25cf;" horiz-adv-x="1947" 
d="M974 -112q-169 0 -323 66.5t-266 178.5t-178.5 266t-66.5 323q0 168 66.5 322.5t178 266t266 178t322.5 66.5q169 0 323 -66.5t266 -178t178.5 -266t66.5 -322.5q0 -169 -66.5 -323t-178 -266t-266 -178.5t-322.5 -66.5zM952 569q41 0 68.5 18.5t32.5 48.5q0 1 1 4v3
q10 43 87 91q69 44 100 85.5t31 107.5q0 104 -84 167t-209 63q-105 0 -179 -38t-100 -100q-11 -29 -11 -50q0 -36 26.5 -59.5t70.5 -23.5q16 0 28 2t23.5 9.5t15.5 10t16.5 15.5t13.5 14q40 44 85 44q33 0 53.5 -18t20.5 -48q0 -28 -22 -50.5t-78 -60.5q-49 -34 -74 -67
t-25 -77v-4q0 -87 109 -87zM951 298q50 0 83 28.5t33 75.5q0 46 -33 75t-83 29t-83.5 -29t-33.5 -75t33.5 -75t83.5 -29z" />
    <glyph glyph-name="uni1000EC.small" unicode="&#x3f;&#x20de;" horiz-adv-x="1910" 
d="M484 -34q-137 0 -210.5 73t-73.5 209v946q0 136 73.5 209t210.5 73h942q138 0 211 -72.5t73 -209.5v-946q0 -137 -73 -209.5t-211 -72.5h-942zM508 183h894q91 0 91 92v892q0 92 -91 92h-894q-91 0 -91 -92v-892q0 -92 91 -92zM935 577q-102 0 -102 81v4q0 42 24 73
t70 63q38 27 53.5 39t28 29.5t12.5 36.5q0 29 -19.5 46.5t-51.5 17.5q-40 0 -80 -41q-2 -2 -11.5 -12t-12 -12t-12 -9t-16 -9t-17.5 -4.5t-23 -2.5q-41 0 -65.5 22t-24.5 56q0 20 10 47q24 58 94 94t169 36q117 0 196.5 -59.5t79.5 -157.5q0 -62 -29.5 -101.5t-94.5 -80.5
q-74 -46 -82 -86q0 -1 -0.5 -3.5t-0.5 -3.5q-5 -27 -31 -45t-64 -18zM934 321q-47 0 -78 27t-31 71t31 71t78 27t78 -27t31 -71t-31 -71t-78 -27z" />
    <glyph glyph-name="uni1000ED.small" unicode="&#x3f;&#x20de;&#x25a0;" horiz-adv-x="1910" 
d="M484 -34q-137 0 -210.5 73t-73.5 209v946q0 136 73.5 209t210.5 73h942q138 0 211 -72.5t73 -209.5v-946q0 -137 -73 -209.5t-211 -72.5h-942zM938 569q41 0 68.5 18.5t32.5 48.5q0 1 0.5 3.5t1.5 3.5q5 25 26.5 46t59.5 45q70 44 101 85.5t31 107.5q0 104 -84.5 167
t-208.5 63q-105 0 -179.5 -38t-99.5 -100q-11 -25 -11 -50q0 -36 26.5 -59.5t69.5 -23.5q16 0 28 2t24 10t15.5 10t16.5 16l14 13q40 44 84 44q34 0 54.5 -18t20.5 -48q0 -28 -22 -50t-78 -61q-49 -34 -74 -67t-25 -77v-4q0 -87 108 -87zM938 298q50 0 83 29t33 75t-33 75
t-83 29t-83.5 -29t-33.5 -75t33.5 -75t83.5 -29z" />
    <glyph glyph-name="uni10005E.small" unicode="&#x21;&#x20dd;" horiz-adv-x="1947" 
d="M974 -112q-169 0 -323 66.5t-266 178.5t-178.5 266t-66.5 323q0 168 66.5 322.5t178 266t266 178t322.5 66.5q169 0 323 -66.5t266 -178t178.5 -266t66.5 -322.5q0 -169 -66.5 -323t-178 -266t-266 -178.5t-322.5 -66.5zM974 109q125 0 238.5 48.5t195 130.5t130 195.5
t48.5 238.5t-48.5 238.5t-130.5 195t-195.5 130t-238.5 48.5t-238 -48.5t-195 -130t-130 -195t-48 -238.5t48 -238.5t130 -195.5t195.5 -130.5t238.5 -48.5zM974 612q-86 0 -91 85l-12 315q-2 44 26.5 71.5t75.5 27.5t75.5 -28t26.5 -72l-13 -313q-1 -42 -24 -64t-64 -22z
M974 339q-47 0 -78.5 27t-31.5 71t31.5 71t78.5 27t78 -27t31 -71t-31 -71t-78 -27z" />
    <glyph glyph-name="uni10005F.small" unicode="&#x21;&#x20dd;&#x25cf;" horiz-adv-x="1947" 
d="M974 -112q-169 0 -323 66.5t-266 178.5t-178.5 266t-66.5 323q0 168 66.5 322.5t178 266t266 178t322.5 66.5q169 0 323 -66.5t266 -178t178.5 -266t66.5 -322.5q0 -169 -66.5 -323t-178 -266t-266 -178.5t-322.5 -66.5zM974 607q89 0 94 92l14 329q2 46 -28.5 76
t-80.5 30t-80.5 -29.5t-28.5 -76.5l14 -330q5 -91 96 -91zM974 318q50 0 82.5 28.5t32.5 75.5q0 46 -32.5 74.5t-82.5 28.5t-83.5 -28.5t-33.5 -74.5t33.5 -75t83.5 -29z" />
    <glyph glyph-name="uni1000EE.small" unicode="&#x21;&#x20de;" horiz-adv-x="1910" 
d="M484 -34q-137 0 -210.5 73t-73.5 209v946q0 136 73.5 209t210.5 73h942q138 0 211 -72.5t73 -209.5v-946q0 -137 -73 -209.5t-211 -72.5h-942zM508 183h894q91 0 91 92v892q0 92 -91 92h-894q-91 0 -91 -92v-892q0 -92 91 -92zM955 613q-85 0 -90 85l-13 315
q-2 43 26.5 71t75.5 28t76 -28t27 -72l-13 -313q-5 -86 -89 -86zM955 340q-47 0 -78.5 27.5t-31.5 70.5q0 44 31.5 71t78.5 27t78 -27t31 -71t-31 -71t-78 -27z" />
    <glyph glyph-name="uni1000EF.small" unicode="&#x21;&#x20de;&#x25a0;" horiz-adv-x="1910" 
d="M484 -34q-137 0 -210.5 73t-73.5 209v946q0 136 73.5 209t210.5 73h942q138 0 211 -72.5t73 -209.5v-946q0 -137 -73 -209.5t-211 -72.5h-942zM960 607q90 0 95 92l13 329q2 47 -28.5 76.5t-80.5 29.5t-80 -29.5t-28 -76.5l13 -330q5 -91 96 -91zM960 318q50 0 83 28.5
t33 75.5q0 46 -33 74.5t-83 28.5t-83 -28.5t-33 -74.5t33 -75t83 -29z" />
    <glyph glyph-name="uni10004D.small" unicode="&#x2b;&#x20dd;&#x25cf;" horiz-adv-x="1947" 
d="M974 -112q-169 0 -323 66.5t-266 178.5t-178.5 266t-66.5 323q0 168 66.5 322.5t178 266t266 178t322.5 66.5q169 0 323 -66.5t266 -178t178.5 -266t66.5 -322.5q0 -169 -66.5 -323t-178 -266t-266 -178.5t-322.5 -66.5zM590 722q0 -43 27.5 -71t69.5 -28h187v-187
q0 -42 28 -70t71 -28t71 28t28 70v187h187q43 0 70.5 28t27.5 71t-27.5 71t-70.5 28h-187v187q0 42 -28 70t-71 28t-71 -28t-28 -70v-187h-187q-42 0 -69.5 -28t-27.5 -71z" />
    <glyph glyph-name="uni1000DC.small" unicode="&#x2b;&#x20de;" horiz-adv-x="1910" 
d="M484 -34q-137 0 -210.5 73t-73.5 209v946q0 136 73.5 209t210.5 73h942q138 0 211 -72.5t73 -209.5v-946q0 -137 -73 -209.5t-211 -72.5h-942zM508 183h894q91 0 91 92v892q0 92 -91 92h-894q-91 0 -91 -92v-892q0 -92 91 -92zM685 629q-40 0 -66 26t-26 67t26 67t66 26
h177v177q0 40 26 66t66 26q41 0 67.5 -26t26.5 -66v-177h177q40 0 66 -26.5t26 -66.5t-26 -66.5t-66 -26.5h-177v-178q0 -40 -26.5 -65.5t-67.5 -25.5q-40 0 -66 25.5t-26 65.5v178h-177z" />
    <glyph glyph-name="uni1000DD.small" unicode="&#x2b;&#x20de;&#x25a0;" horiz-adv-x="1910" 
d="M484 -34q-137 0 -210.5 73t-73.5 209v946q0 136 73.5 209t210.5 73h942q138 0 211 -72.5t73 -209.5v-946q0 -137 -73 -209.5t-211 -72.5h-942zM576 722q0 -43 28 -71t70 -28h187v-187q0 -42 27.5 -70t70.5 -28t71.5 28t28.5 70v187h187q42 0 69.5 28t27.5 71t-27.5 71
t-69.5 28h-187v187q0 42 -28.5 70t-71.5 28t-70.5 -28t-27.5 -70v-187h-187q-42 0 -70 -28t-28 -71z" />
    <glyph glyph-name="uni10004F.small" unicode="&#x2212;&#x20dd;&#x25cf;" horiz-adv-x="1947" 
d="M974 -112q-169 0 -323 66.5t-266 178.5t-178.5 266t-66.5 323q0 168 66.5 322.5t178 266t266 178t322.5 66.5q169 0 323 -66.5t266 -178t178.5 -266t66.5 -322.5q0 -169 -66.5 -323t-178 -266t-266 -178.5t-322.5 -66.5zM686 622h575q45 0 73 27t28 71t-28 71.5t-73 27.5
h-575q-45 0 -73.5 -27.5t-28.5 -71.5t28.5 -71t73.5 -27z" />
    <glyph glyph-name="uni1000DE.small" unicode="&#x2212;&#x20de;" horiz-adv-x="1910" 
d="M484 -34q-137 0 -210.5 73t-73.5 209v946q0 136 73.5 209t210.5 73h942q138 0 211 -72.5t73 -209.5v-946q0 -137 -73 -209.5t-211 -72.5h-942zM508 183h894q91 0 91 92v892q0 92 -91 92h-894q-91 0 -91 -92v-892q0 -92 91 -92zM684 628q-42 0 -69.5 25.5t-27.5 66.5
q0 42 27 68t70 26h542q43 0 70 -26t27 -68q0 -41 -27.5 -66.5t-69.5 -25.5h-542z" />
    <glyph glyph-name="uni1000DF.small" unicode="&#x2212;&#x20de;&#x25a0;" horiz-adv-x="1910" 
d="M484 -34q-137 0 -210.5 73t-73.5 209v946q0 136 73.5 209t210.5 73h942q138 0 211 -72.5t73 -209.5v-946q0 -137 -73 -209.5t-211 -72.5h-942zM673 622h574q45 0 73.5 27t28.5 71t-28.5 71.5t-73.5 27.5h-574q-45 0 -73.5 -27.5t-28.5 -71.5t28.5 -71t73.5 -27z" />
    <glyph glyph-name="uni100051.small" unicode="&#xd7;&#x20dd;&#x25cf;" horiz-adv-x="1947" 
d="M974 -112q-169 0 -323 66.5t-266 178.5t-178.5 266t-66.5 323q0 168 66.5 322.5t178 266t266 178t322.5 66.5q169 0 323 -66.5t266 -178t178.5 -266t66.5 -322.5q0 -169 -66.5 -323t-178 -266t-266 -178.5t-322.5 -66.5zM723 376q43 0 71 28l179 180l180 -180
q28 -28 71 -28q41 0 68.5 28t27.5 69q0 39 -29 66l-180 182l181 182q29 29 29 66q0 41 -27.5 68.5t-68.5 27.5q-42 0 -70 -28l-182 -180l-180 180q-27 27 -70 27q-41 0 -68.5 -27.5t-27.5 -68.5q0 -37 29 -66l181 -181l-181 -182q-29 -29 -29 -66q0 -41 27.5 -69t68.5 -28z
" />
    <glyph glyph-name="uni1000E0.small" unicode="&#xd7;&#x20de;" horiz-adv-x="1910" 
d="M484 -34q-137 0 -210.5 73t-73.5 209v946q0 136 73.5 209t210.5 73h942q138 0 211 -72.5t73 -209.5v-946q0 -137 -73 -209.5t-211 -72.5h-942zM508 183h894q91 0 91 92v892q0 92 -91 92h-894q-91 0 -91 -92v-892q0 -92 91 -92zM718 395q-38 0 -64 26.5t-26 64.5
q0 35 27 62l172 173l-172 172q-27 27 -27 62q0 38 26 64t64 26q40 0 65 -26l172 -171l173 172q26 26 65 26q38 0 64 -26t26 -64q0 -36 -27 -63l-172 -172l171 -173q28 -26 28 -62q0 -38 -26.5 -64.5t-64.5 -26.5t-66 26l-171 171l-171 -171q-26 -26 -66 -26z" />
    <glyph glyph-name="uni1000E1.small" unicode="&#xd7;&#x20de;&#x25a0;" horiz-adv-x="1910" 
d="M484 -34q-137 0 -210.5 73t-73.5 209v946q0 136 73.5 209t210.5 73h942q138 0 211 -72.5t73 -209.5v-946q0 -137 -73 -209.5t-211 -72.5h-942zM710 376q43 0 71 28l179 180l180 -180q28 -28 71 -28q41 0 68.5 28t27.5 69q0 37 -29 66l-181 182l182 182q28 30 28 66
q0 41 -27.5 68.5t-67.5 27.5q-43 0 -70 -28l-182 -180l-181 180q-26 27 -69 27q-41 0 -68.5 -27.5t-27.5 -68.5q0 -39 29 -66l181 -181l-181 -182q-29 -27 -29 -66q0 -41 27.5 -69t68.5 -28z" />
    <glyph glyph-name="uni100052.small" unicode="&#xf7;&#x20dd;" horiz-adv-x="1947" 
d="M974 -112q-169 0 -323 66.5t-266 178.5t-178.5 266t-66.5 323q0 168 66.5 322.5t178 266t266 178t322.5 66.5q169 0 323 -66.5t266 -178t178.5 -266t66.5 -322.5q0 -169 -66.5 -323t-178 -266t-266 -178.5t-322.5 -66.5zM974 109q125 0 238.5 48.5t195 130.5t130 195.5
t48.5 238.5t-48.5 238.5t-130.5 195t-195.5 130t-238.5 48.5t-238 -48.5t-195 -130t-130 -195t-48 -238.5t48 -238.5t130 -195.5t195.5 -130.5t238.5 -48.5zM972 884q-49 0 -82.5 29.5t-33.5 73.5q0 46 33.5 76.5t82.5 30.5q52 0 85 -30t33 -77q0 -44 -33 -73.5t-85 -29.5z
M690 635q-39 0 -63.5 23t-24.5 61q0 39 24 62.5t64 23.5h567q39 0 63.5 -23.5t24.5 -62.5q0 -38 -24.5 -61t-63.5 -23h-567zM972 348q-49 0 -82.5 30t-33.5 73q0 46 33.5 76.5t82.5 30.5q52 0 85 -30t33 -77q0 -44 -33.5 -73.5t-84.5 -29.5z" />
    <glyph glyph-name="uni100053.small" unicode="&#xf7;&#x20dd;&#x25cf;" horiz-adv-x="1947" 
d="M974 -112q-169 0 -323 66.5t-266 178.5t-178.5 266t-66.5 323q0 168 66.5 322.5t178 266t266 178t322.5 66.5q169 0 323 -66.5t266 -178t178.5 -266t66.5 -322.5q0 -169 -66.5 -323t-178 -266t-266 -178.5t-322.5 -66.5zM972 893q54 0 89.5 31.5t35.5 77.5q0 50 -35 82.5
t-90 32.5q-52 0 -87.5 -32.5t-35.5 -82.5q0 -46 35.5 -77.5t87.5 -31.5zM673 630h601q41 0 67 25t26 65t-26 65.5t-67 25.5h-601q-42 0 -67.5 -25t-25.5 -66q0 -40 26 -65t67 -25zM972 326q54 0 89.5 31.5t35.5 78.5q0 50 -35 82t-90 32q-52 0 -87.5 -32.5t-35.5 -81.5
q0 -46 35.5 -78t87.5 -32z" />
    <glyph glyph-name="uni1000E2.small" unicode="&#xf7;&#x20de;" horiz-adv-x="1910" 
d="M484 -34q-137 0 -210.5 73t-73.5 209v946q0 136 73.5 209t210.5 73h942q138 0 211 -72.5t73 -209.5v-946q0 -137 -73 -209.5t-211 -72.5h-942zM508 183h894q91 0 91 92v892q0 92 -91 92h-894q-91 0 -91 -92v-892q0 -92 91 -92zM954 885q-49 0 -82.5 29t-33.5 73
q0 47 33 77.5t83 30.5q52 0 85 -30.5t33 -77.5q0 -44 -33.5 -73t-84.5 -29zM671 636q-39 0 -63.5 23t-24.5 61q0 39 24.5 62t63.5 23h567q40 0 64 -23t24 -62q0 -38 -24.5 -61t-63.5 -23h-567zM954 349q-50 0 -83 29.5t-33 73.5q0 46 33 76t83 30q52 0 85 -30t33 -76
q0 -44 -33.5 -73.5t-84.5 -29.5z" />
    <glyph glyph-name="uni1000E3.small" unicode="&#xf7;&#x20de;&#x25a0;" horiz-adv-x="1910" 
d="M484 -34q-137 0 -210.5 73t-73.5 209v946q0 136 73.5 209t210.5 73h942q138 0 211 -72.5t73 -209.5v-946q0 -137 -73 -209.5t-211 -72.5h-942zM959 893q54 0 89 31.5t35 77.5q0 50 -34.5 82.5t-89.5 32.5q-53 0 -88 -32.5t-35 -82.5q0 -46 35.5 -77.5t87.5 -31.5z
M660 630h600q41 0 67 25t26 65q0 41 -25.5 66t-67.5 25h-600q-42 0 -68 -25t-26 -66q0 -40 26 -65t68 -25zM959 326q54 0 89 31.5t35 78.5q0 50 -34.5 82t-89.5 32q-53 0 -88 -32.5t-35 -81.5q0 -47 35.5 -78.5t87.5 -31.5z" />
    <glyph glyph-name="uni100055.small" unicode="&#x3d;&#x20dd;&#x25cf;" horiz-adv-x="1947" 
d="M974 -112q-169 0 -323 66.5t-266 178.5t-178.5 266t-66.5 323q0 168 66.5 322.5t178 266t266 178t322.5 66.5q169 0 323 -66.5t266 -178t178.5 -266t66.5 -322.5q0 -169 -66.5 -323t-178 -266t-266 -178.5t-322.5 -66.5zM703 786h540q48 0 76.5 24t28.5 66t-28.5 66.5
t-76.5 24.5h-540q-49 0 -77.5 -24t-28.5 -67q0 -42 29 -66t77 -24zM703 474h540q48 0 76.5 24t28.5 66q0 43 -28.5 67.5t-76.5 24.5h-540q-49 0 -77.5 -24.5t-28.5 -67.5q0 -42 29 -66t77 -24z" />
    <glyph glyph-name="uni1000E4.small" unicode="&#x3d;&#x20de;" horiz-adv-x="1910" 
d="M484 -34q-137 0 -210.5 73t-73.5 209v946q0 136 73.5 209t210.5 73h942q138 0 211 -72.5t73 -209.5v-946q0 -137 -73 -209.5t-211 -72.5h-942zM508 183h894q91 0 91 92v892q0 92 -91 92h-894q-91 0 -91 -92v-892q0 -92 91 -92zM698 782q-45 0 -71.5 22.5t-26.5 62.5
t26.5 62.5t71.5 22.5h512q45 0 71.5 -22.5t26.5 -62.5t-26.5 -62.5t-71.5 -22.5h-512zM698 489q-45 0 -71.5 22.5t-26.5 61.5q0 41 26.5 63.5t71.5 22.5h512q45 0 71.5 -23t26.5 -63q0 -39 -26.5 -61.5t-71.5 -22.5h-512z" />
    <glyph glyph-name="uni1000E5.small" unicode="&#x3d;&#x20de;&#x25a0;" horiz-adv-x="1910" 
d="M484 -34q-137 0 -210.5 73t-73.5 209v946q0 136 73.5 209t210.5 73h942q138 0 211 -72.5t73 -209.5v-946q0 -137 -73 -209.5t-211 -72.5h-942zM689 786h540q48 0 77 24t29 66t-28.5 66.5t-76.5 24.5h-541q-49 0 -77 -24t-28 -67q0 -42 28.5 -66t76.5 -24zM689 474h540
q48 0 77 24t29 66q0 43 -28.5 67.5t-76.5 24.5h-541q-48 0 -76.5 -24.5t-28.5 -67.5q0 -42 28.5 -66t76.5 -24z" />
    <glyph glyph-name="uni100058.small" unicode="&#x3c;&#x20dd;" horiz-adv-x="1947" 
d="M974 -112q-169 0 -323 66.5t-266 178.5t-178.5 266t-66.5 323q0 168 66.5 322.5t178 266t266 178t322.5 66.5q169 0 323 -66.5t266 -178t178.5 -266t66.5 -322.5q0 -169 -66.5 -323t-178 -266t-266 -178.5t-322.5 -66.5zM974 109q125 0 238.5 48.5t195 130.5t130 195.5
t48.5 238.5t-48.5 238.5t-130.5 195t-195.5 130t-238.5 48.5t-238 -48.5t-195 -130t-130 -195t-48 -238.5t48 -238.5t130 -195.5t195.5 -130.5t238.5 -48.5zM1170 395q-29 0 -56 12l-447 222q-65 32 -65 90q0 61 65 93l447 227q27 13 57 13q41 0 67.5 -26.5t26.5 -68.5
q0 -34 -17.5 -56.5t-59.5 -38.5l-303 -136v-8l303 -133q42 -16 59.5 -38t17.5 -57q0 -42 -27 -68.5t-68 -26.5z" />
    <glyph glyph-name="uni100059.small" unicode="&#x3c;&#x20dd;&#x25cf;" horiz-adv-x="1947" 
d="M974 -112q-169 0 -323 66.5t-266 178.5t-178.5 266t-66.5 323q0 168 66.5 322.5t178 266t266 178t322.5 66.5q169 0 323 -66.5t266 -178t178.5 -266t66.5 -322.5q0 -169 -66.5 -323t-178 -266t-266 -178.5t-322.5 -66.5zM1184 376q44 0 72.5 28.5t28.5 72.5
q0 37 -18.5 60.5t-63.5 40.5l-320 141v7l320 144q44 17 63 41t19 60q0 44 -28 72.5t-72 28.5q-33 0 -60 -14l-474 -239q-69 -35 -69 -100q0 -62 69 -95l474 -235q27 -13 59 -13z" />
    <glyph glyph-name="uni1000E6.small" unicode="&#x3c;&#x20de;" horiz-adv-x="1910" 
d="M484 -34q-137 0 -210.5 73t-73.5 209v946q0 136 73.5 209t210.5 73h942q138 0 211 -72.5t73 -209.5v-946q0 -137 -73 -209.5t-211 -72.5h-942zM508 183h894q91 0 91 92v892q0 92 -91 92h-894q-91 0 -91 -92v-892q0 -92 91 -92zM1152 395q-30 0 -56 13l-447 221
q-65 33 -65 90q0 61 65 94l447 227q26 13 57 13q41 0 67.5 -27t26.5 -68q0 -34 -18 -56.5t-59 -39.5l-304 -136v-7l304 -134q42 -16 59.5 -38t17.5 -57q0 -41 -27 -68t-68 -27z" />
    <glyph glyph-name="uni1000E7.small" unicode="&#x3c;&#x20de;&#x25a0;" horiz-adv-x="1910" 
d="M484 -34q-137 0 -210.5 73t-73.5 209v946q0 136 73.5 209t210.5 73h942q138 0 211 -72.5t73 -209.5v-946q0 -137 -73 -209.5t-211 -72.5h-942zM1171 376q44 0 72.5 28.5t28.5 72.5q0 37 -19 60.5t-63 40.5l-320 141v7l320 144q44 17 63 41t19 60q0 44 -28.5 72.5
t-72.5 28.5q-32 0 -60 -14l-474 -239q-68 -35 -68 -100q0 -62 68 -95l474 -235q29 -13 60 -13z" />
    <glyph glyph-name="uni100056.small" unicode="&#x3e;&#x20dd;" horiz-adv-x="1947" 
d="M974 -112q-169 0 -323 66.5t-266 178.5t-178.5 266t-66.5 323q0 168 66.5 322.5t178 266t266 178t322.5 66.5q169 0 323 -66.5t266 -178t178.5 -266t66.5 -322.5q0 -169 -66.5 -323t-178 -266t-266 -178.5t-322.5 -66.5zM974 109q125 0 238.5 48.5t195 130.5t130 195.5
t48.5 238.5t-48.5 238.5t-130.5 195t-195.5 130t-238.5 48.5t-238 -48.5t-195 -130t-130 -195t-48 -238.5t48 -238.5t130 -195.5t195.5 -130.5t238.5 -48.5zM785 407q-40 0 -65.5 25t-25.5 65q0 33 16.5 54t56.5 37l296 130v8l-296 133q-39 16 -56 37t-17 54q0 39 25.5 64.5
t64.5 25.5q28 0 54 -12l431 -220q62 -30 62 -89q0 -56 -62 -86l-431 -214q-26 -12 -53 -12z" />
    <glyph glyph-name="uni100057.small" unicode="&#x3e;&#x20dd;&#x25cf;" horiz-adv-x="1947" 
d="M974 -112q-169 0 -323 66.5t-266 178.5t-178.5 266t-66.5 323q0 168 66.5 322.5t178 266t266 178t322.5 66.5q169 0 323 -66.5t266 -178t178.5 -266t66.5 -322.5q0 -169 -66.5 -323t-178 -266t-266 -178.5t-322.5 -66.5zM772 389q31 0 57 13l457 226q65 32 65 91
q0 62 -65 95l-457 232q-27 13 -57 13q-42 0 -69 -27t-27 -69q0 -35 18 -57.5t60 -39.5l311 -140v-7l-311 -137q-42 -17 -60 -39.5t-18 -57.5q0 -42 27 -69t69 -27z" />
    <glyph glyph-name="uni1000E8.small" unicode="&#x3e;&#x20de;" horiz-adv-x="1910" 
d="M484 -34q-137 0 -210.5 73t-73.5 209v946q0 136 73.5 209t210.5 73h942q138 0 211 -72.5t73 -209.5v-946q0 -137 -73 -209.5t-211 -72.5h-942zM508 183h894q91 0 91 92v892q0 92 -91 92h-894q-91 0 -91 -92v-892q0 -92 91 -92zM766 407q-39 0 -64.5 25.5t-25.5 65.5
q0 33 16.5 53.5t56.5 36.5l295 131v7l-295 133q-39 17 -56 38t-17 53q0 40 25 65.5t64 25.5q29 0 55 -13l431 -219q62 -32 62 -90q0 -54 -62 -86l-431 -213q-25 -13 -54 -13z" />
    <glyph glyph-name="uni1000E9.small" unicode="&#x3e;&#x20de;&#x25a0;" horiz-adv-x="1910" 
d="M484 -34q-137 0 -210.5 73t-73.5 209v946q0 136 73.5 209t210.5 73h942q138 0 211 -72.5t73 -209.5v-946q0 -137 -73 -209.5t-211 -72.5h-942zM759 389q30 0 57 13l456 226q66 32 66 91q0 62 -66 95l-456 232q-27 13 -58 13q-42 0 -68.5 -27t-26.5 -69q0 -35 18 -57.5
t60 -39.5l311 -140v-7l-311 -137q-43 -17 -60.5 -39.5t-17.5 -57.5q0 -42 27 -69t69 -27z" />
    <glyph glyph-name="uni10005A.small" unicode="&#x23;&#x20dd;" horiz-adv-x="1947" 
d="M974 -112q-169 0 -323 66.5t-266 178.5t-178.5 266t-66.5 323q0 168 66.5 322.5t178 266t266 178t322.5 66.5q169 0 323 -66.5t266 -178t178.5 -266t66.5 -322.5q0 -169 -66.5 -323t-178 -266t-266 -178.5t-322.5 -66.5zM974 109q125 0 238.5 48.5t195 130.5t130 195.5
t48.5 238.5t-48.5 238.5t-130.5 195t-195.5 130t-238.5 48.5t-238 -48.5t-195 -130t-130 -195t-48 -238.5t48 -238.5t130 -195.5t195.5 -130.5t238.5 -48.5zM776 345q-35 0 -55 24t-13 59l22 104h-36q-28 0 -46 18.5t-18 47.5q0 34 22 56t57 22h49l22 105h-37
q-28 0 -45.5 18.5t-17.5 47.5q0 35 22 56.5t56 21.5h50l22 110q12 68 82 68q35 0 55.5 -25t13.5 -58l-20 -95h100l22 110q12 68 82 68q35 0 56 -24.5t14 -58.5l-19 -95h36q28 0 46 -18.5t18 -47.5q0 -34 -22.5 -56t-56.5 -22h-49l-21 -105h35q29 0 46.5 -18t17.5 -48
q0 -34 -22 -56t-56 -22h-51l-24 -118q-13 -69 -85 -69q-35 0 -55 24t-13 59l21 104h-97l-25 -119q-13 -68 -83 -68zM897 656h125l27 139h-124z" />
    <glyph glyph-name="uni10005B.small" unicode="&#x23;&#x20dd;&#x25cf;" horiz-adv-x="1947" 
d="M974 -112q-169 0 -323 66.5t-266 178.5t-178.5 266t-66.5 323q0 168 66.5 322.5t178 266t266 178t322.5 66.5q169 0 323 -66.5t266 -178t178.5 -266t66.5 -322.5q0 -169 -66.5 -323t-178 -266t-266 -178.5t-322.5 -66.5zM765 324q73 0 88 72l26 125h102l-22 -110
q-7 -37 14 -62t58 -25q76 0 91 73l25 124h53q37 0 60.5 23.5t23.5 59.5q0 31 -19 50.5t-49 19.5h-37l22 110h51q37 0 61 23.5t24 60.5q0 31 -19 50.5t-49 19.5h-38l19 99q7 36 -15 62t-59 26q-75 0 -87 -72l-24 -115h-104l21 99q7 36 -15 62t-59 26q-75 0 -88 -72l-23 -115
h-51q-37 0 -60.5 -23t-23.5 -60q0 -31 19 -51t48 -20h39l-22 -110h-52q-37 0 -60.5 -23t-23.5 -60q0 -31 19 -50.5t48 -19.5h38l-23 -109q-7 -37 14 -62.5t59 -25.5zM893 653l30 146h130l-29 -146h-131z" />
    <glyph glyph-name="uni1000EA.small" unicode="&#x23;&#x20de;" horiz-adv-x="1910" 
d="M484 -34q-137 0 -210.5 73t-73.5 209v946q0 136 73.5 209t210.5 73h942q138 0 211 -72.5t73 -209.5v-946q0 -137 -73 -209.5t-211 -72.5h-942zM508 183h894q91 0 91 92v892q0 92 -91 92h-894q-91 0 -91 -92v-892q0 -92 91 -92zM758 346q-35 0 -55 24t-13 59l21 104h-35
q-28 0 -46 18.5t-18 47.5q0 34 22.5 56t56.5 22h49l22 104h-37q-28 0 -46 19t-18 48q0 34 22.5 56t56.5 22h49l22 110q13 67 82 67q35 0 56 -24.5t14 -58.5l-20 -94h100l21 110q13 67 83 67q35 0 55.5 -24.5t13.5 -58.5l-19 -94h37q29 0 46.5 -18.5t17.5 -48.5
q0 -34 -22.5 -56t-56.5 -22h-49l-21 -104h35q28 0 46 -18.5t18 -47.5q0 -34 -22.5 -56t-56.5 -22h-50l-25 -118q-14 -69 -84 -69q-36 0 -55.5 23.5t-12.5 58.5l21 104h-98l-24 -119q-13 -67 -83 -67zM879 657h124l27 138h-123z" />
    <glyph glyph-name="uni1000EB.small" unicode="&#x23;&#x20de;&#x25a0;" horiz-adv-x="1910" 
d="M484 -34q-137 0 -210.5 73t-73.5 209v946q0 136 73.5 209t210.5 73h942q138 0 211 -72.5t73 -209.5v-946q0 -137 -73 -209.5t-211 -72.5h-942zM752 324q73 0 88 72l25 125h103l-22 -110q-7 -37 14 -62t58 -25q77 0 90 73l26 124h52q37 0 60.5 23.5t23.5 59.5
q0 31 -18.5 50.5t-48.5 19.5h-38l23 110h51q37 0 60.5 23.5t23.5 60.5q0 31 -19 50.5t-48 19.5h-39l20 99q7 36 -15 62t-59 26q-75 0 -88 -72l-23 -115h-104l20 99q7 36 -14.5 62t-58.5 26q-75 0 -88 -72l-23 -115h-51q-37 0 -60.5 -23t-23.5 -60q0 -32 18.5 -51.5
t48.5 -19.5h39l-23 -110h-51q-38 0 -61.5 -23t-23.5 -60q0 -31 19 -50.5t49 -19.5h38l-23 -109q-7 -37 14 -62.5t59 -25.5zM880 653l29 146h131l-29 -146h-131z" />
    <glyph glyph-name="uni100060.small" unicode="&#x2717;&#x20dd;" horiz-adv-x="1947" 
d="M974 -112q-169 0 -323 66.5t-266 178.5t-178.5 266t-66.5 323q0 168 66.5 322.5t178 266t266 178t322.5 66.5q169 0 323 -66.5t266 -178t178.5 -266t66.5 -322.5q0 -169 -66.5 -323t-178 -266t-266 -178.5t-322.5 -66.5zM974 109q125 0 238.5 48.5t195 130.5t130 195.5
t48.5 238.5t-48.5 238.5t-130.5 195t-195.5 130t-238.5 48.5t-238 -48.5t-195 -130t-130 -195t-48 -238.5t48 -238.5t130 -195.5t195.5 -130.5t238.5 -48.5zM737 394q-38 0 -64.5 26.5t-26.5 64.5q0 37 28 62l172 173l-172 172q-28 26 -28 63q0 38 26.5 64t64.5 26
q37 0 65 -26l171 -171l173 171q27 27 65 27t64 -26.5t26 -64.5q0 -35 -27 -62l-172 -173l172 -172q27 -27 27 -63q0 -38 -26 -64.5t-64 -26.5q-39 0 -66 27l-172 170l-170 -170q-27 -27 -66 -27z" />
    <glyph glyph-name="uni100061.small" unicode="&#x2717;&#x20dd;&#x25cf;" horiz-adv-x="1947" 
d="M974 -112q-169 0 -323 66.5t-266 178.5t-178.5 266t-66.5 323q0 168 66.5 322.5t178 266t266 178t322.5 66.5q169 0 323 -66.5t266 -178t178.5 -266t66.5 -322.5q0 -169 -66.5 -323t-178 -266t-266 -178.5t-322.5 -66.5zM723 376q43 0 71 28l179 180l180 -180
q28 -28 71 -28q41 0 68.5 28t27.5 69q0 39 -29 66l-180 182l181 182q29 29 29 66q0 41 -27.5 68.5t-68.5 27.5q-42 0 -70 -28l-182 -180l-180 180q-27 27 -70 27q-41 0 -68.5 -27.5t-27.5 -68.5q0 -37 29 -66l181 -181l-181 -182q-29 -29 -29 -66q0 -41 27.5 -69t68.5 -28z
" />
    <glyph glyph-name="uni1000F1.small" unicode="&#x2717;&#x20de;&#x25a0;" horiz-adv-x="1910" 
d="M484 -34q-137 0 -210.5 73t-73.5 209v946q0 136 73.5 209t210.5 73h942q138 0 211 -72.5t73 -209.5v-946q0 -137 -73 -209.5t-211 -72.5h-942zM710 376q43 0 71 28l179 180l180 -180q28 -28 71 -28q41 0 68.5 28t27.5 69q0 37 -29 66l-181 182l182 182q28 30 28 66
q0 41 -27.5 68.5t-67.5 27.5q-43 0 -70 -28l-182 -180l-181 180q-26 27 -69 27q-41 0 -68.5 -27.5t-27.5 -68.5q0 -39 29 -66l181 -181l-181 -182q-29 -27 -29 -66q0 -41 27.5 -69t68.5 -28z" />
    <glyph glyph-name="uni100062.small" unicode="&#x2713;&#x20dd;" horiz-adv-x="1947" 
d="M974 -112q-169 0 -323 66.5t-266 178.5t-178.5 266t-66.5 323q0 168 66.5 322.5t178 266t266 178t322.5 66.5q169 0 323 -66.5t266 -178t178.5 -266t66.5 -322.5q0 -169 -66.5 -323t-178 -266t-266 -178.5t-322.5 -66.5zM974 109q125 0 238.5 48.5t195 130.5t130 195.5
t48.5 238.5t-48.5 238.5t-130.5 195t-195.5 130t-238.5 48.5t-238 -48.5t-195 -130t-130 -195t-48 -238.5t48 -238.5t130 -195.5t195.5 -130.5t238.5 -48.5zM891 348q-50 0 -88 47l-168 202q-26 32 -26 65q0 36 25.5 61.5t62.5 25.5q41 0 71 -37l121 -150l280 446
q32 50 78 50q36 0 63 -24t27 -60q0 -27 -22 -61l-339 -517q-32 -48 -85 -48z" />
    <glyph glyph-name="uni100063.small" unicode="&#x2713;&#x20dd;&#x25cf;" horiz-adv-x="1947" 
d="M974 -112q-169 0 -323 66.5t-266 178.5t-178.5 266t-66.5 323q0 168 66.5 322.5t178 266t266 178t322.5 66.5q169 0 323 -66.5t266 -178t178.5 -266t66.5 -322.5q0 -169 -66.5 -323t-178 -266t-266 -178.5t-322.5 -66.5zM886 326q56 0 91 51l358 547q24 35 24 66
q0 38 -29 63t-68 25q-50 0 -82 -53l-296 -471l-127 159q-33 39 -76 39q-39 0 -66.5 -27.5t-27.5 -65.5q0 -36 27 -69l179 -214q41 -50 93 -50z" />
    <glyph glyph-name="uni1000F3.small" unicode="&#x2713;&#x20de;&#x25a0;" horiz-adv-x="1910" 
d="M484 -34q-137 0 -210.5 73t-73.5 209v946q0 136 73.5 209t210.5 73h942q138 0 211 -72.5t73 -209.5v-946q0 -137 -73 -209.5t-211 -72.5h-942zM873 326q57 0 90 51l359 547q23 34 23 66q0 38 -28.5 63t-67.5 25q-50 0 -82 -53l-296 -471l-128 159q-32 39 -76 39
q-38 0 -65.5 -27.5t-27.5 -65.5q0 -36 27 -69l178 -214q42 -50 94 -50z" />
    <glyph glyph-name="uni10006A.small" unicode="&#x25c0;&#x20dd;" horiz-adv-x="1947" 
d="M974 -112q-169 0 -323 66.5t-266 178.5t-178.5 266t-66.5 323q0 168 66.5 322.5t178 266t266 178t322.5 66.5q169 0 323 -66.5t266 -178t178.5 -266t66.5 -322.5q0 -169 -66.5 -323t-178 -266t-266 -178.5t-322.5 -66.5zM974 109q125 0 238.5 48.5t195 130.5t130 195.5
t48.5 238.5t-48.5 238.5t-130.5 195t-195.5 130t-238.5 48.5t-238 -48.5t-195 -130t-130 -195t-48 -238.5t48 -238.5t130 -195.5t195.5 -130.5t238.5 -48.5zM652 675q-25 15 -25 46t25 45l460 268q27 16 55.5 3t28.5 -43v-547q0 -31 -28 -43.5t-56 4.5z" />
    <glyph glyph-name="uni10006B.small" unicode="&#x25c0;&#x20dd;&#x25cf;" horiz-adv-x="1947" 
d="M974 -112q-169 0 -323 66.5t-266 178.5t-178.5 266t-66.5 323q0 168 66.5 322.5t178 266t266 178t322.5 66.5q169 0 323 -66.5t266 -178t178.5 -266t66.5 -322.5q0 -169 -66.5 -323t-178 -266t-266 -178.5t-322.5 -66.5zM637 672l486 -282q31 -17 60 -4t29 45v580
q0 32 -30 46t-59 -4l-486 -283q-27 -16 -27.5 -48.5t27.5 -49.5z" />
    <glyph glyph-name="uni1000FA.small" unicode="&#x25c0;&#x20de;" horiz-adv-x="1910" 
d="M484 -34q-137 0 -210.5 73t-73.5 209v946q0 136 73.5 209t210.5 73h942q138 0 211 -72.5t73 -209.5v-946q0 -137 -73 -209.5t-211 -72.5h-942zM508 183h894q91 0 91 92v892q0 92 -91 92h-894q-91 0 -91 -92v-892q0 -92 91 -92zM634 675q-26 16 -26 46.5t26 45.5l459 268
q28 16 56.5 3t28.5 -43v-547q0 -31 -28 -43.5t-57 4.5z" />
    <glyph glyph-name="uni1000FB.small" unicode="&#x25c0;&#x20de;&#x25a0;" horiz-adv-x="1910" 
d="M484 -34q-137 0 -210.5 73t-73.5 209v946q0 136 73.5 209t210.5 73h942q138 0 211 -72.5t73 -209.5v-946q0 -137 -73 -209.5t-211 -72.5h-942zM623 672l486 -282q31 -17 60.5 -4t29.5 45v580q0 32 -30 45.5t-60 -3.5l-486 -283q-26 -16 -26.5 -48.5t26.5 -49.5z" />
    <glyph glyph-name="uni10006C.small" unicode="&#x25b6;&#x20dd;" horiz-adv-x="1947" 
d="M974 -112q-169 0 -323 66.5t-266 178.5t-178.5 266t-66.5 323q0 168 66.5 322.5t178 266t266 178t322.5 66.5q169 0 323 -66.5t266 -178t178.5 -266t66.5 -322.5q0 -169 -66.5 -323t-178 -266t-266 -178.5t-322.5 -66.5zM974 109q125 0 238.5 48.5t195 130.5t130 195.5
t48.5 238.5t-48.5 238.5t-130.5 195t-195.5 130t-238.5 48.5t-238 -48.5t-195 -130t-130 -195t-48 -238.5t48 -238.5t130 -195.5t195.5 -130.5t238.5 -48.5zM1284 675l-459 -267q-29 -17 -57 -4.5t-28 43.5v547q0 30 28.5 43t56.5 -3l459 -268q26 -15 26 -45.5t-26 -45.5z
" />
    <glyph glyph-name="uni10006D.small" unicode="&#x25b6;&#x20dd;&#x25cf;" horiz-adv-x="1947" 
d="M974 -112q-169 0 -323 66.5t-266 178.5t-178.5 266t-66.5 323q0 168 66.5 322.5t178 266t266 178t322.5 66.5q169 0 323 -66.5t266 -178t178.5 -266t66.5 -322.5q0 -169 -66.5 -323t-178 -266t-266 -178.5t-322.5 -66.5zM1301 672q28 17 27.5 49t-27.5 49l-486 283
q-29 18 -59.5 4t-30.5 -46v-580q0 -32 29.5 -45t60.5 4z" />
    <glyph glyph-name="uni1000FC.small" unicode="&#x25b6;&#x20de;" horiz-adv-x="1910" 
d="M484 -34q-137 0 -210.5 73t-73.5 209v946q0 136 73.5 209t210.5 73h942q138 0 211 -72.5t73 -209.5v-946q0 -137 -73 -209.5t-211 -72.5h-942zM508 183h894q91 0 91 92v892q0 92 -91 92h-894q-91 0 -91 -92v-892q0 -92 91 -92zM1266 675l-459 -266q-29 -17 -57 -4.5
t-28 43.5v547q0 30 28.5 43t56.5 -3l459 -268q26 -15 26 -46t-26 -46z" />
    <glyph glyph-name="uni1000FD.small" unicode="&#x25b6;&#x20de;&#x25a0;" horiz-adv-x="1910" 
d="M484 -34q-137 0 -210.5 73t-73.5 209v946q0 136 73.5 209t210.5 73h942q138 0 211 -72.5t73 -209.5v-946q0 -137 -73 -209.5t-211 -72.5h-942zM1288 672q28 17 27.5 49t-27.5 49l-487 283q-29 18 -59 4t-30 -46v-580q0 -32 29.5 -45.5t59.5 4.5z" />
    <glyph glyph-name="uni100066.small" unicode="&#x25b2;&#x20dd;" horiz-adv-x="1947" 
d="M974 -112q-169 0 -323 66.5t-266 178.5t-178.5 266t-66.5 323q0 168 66.5 322.5t178 266t266 178t322.5 66.5q169 0 323 -66.5t266 -178t178.5 -266t66.5 -322.5q0 -169 -66.5 -323t-178 -266t-266 -178.5t-322.5 -66.5zM974 109q125 0 238.5 48.5t195 130.5t130 195.5
t48.5 238.5t-48.5 238.5t-130.5 195t-195.5 130t-238.5 48.5t-238 -48.5t-195 -130t-130 -195t-48 -238.5t48 -238.5t130 -195.5t195.5 -130.5t238.5 -48.5zM1242 477h-537q-30 0 -42.5 28t3.5 55l263 451q15 25 45 25t45 -25l261 -451q17 -28 4.5 -55.5t-42.5 -27.5z" />
    <glyph glyph-name="uni100067.small" unicode="&#x25b2;&#x20dd;&#x25cf;" horiz-adv-x="1947" 
d="M974 -112q-169 0 -323 66.5t-266 178.5t-178.5 266t-66.5 323q0 168 66.5 322.5t178 266t266 178t322.5 66.5q169 0 323 -66.5t266 -178t178.5 -266t66.5 -322.5q0 -169 -66.5 -323t-178 -266t-266 -178.5t-322.5 -66.5zM1258 461q31 0 44 29t-4 59l-276 478
q-17 27 -48.5 26.5t-47.5 -26.5l-278 -478q-17 -29 -3.5 -58.5t44.5 -29.5h569z" />
    <glyph glyph-name="uni1000F6.small" unicode="&#x25b2;&#x20de;" horiz-adv-x="1910" 
d="M484 -34q-137 0 -210.5 73t-73.5 209v946q0 136 73.5 209t210.5 73h942q138 0 211 -72.5t73 -209.5v-946q0 -137 -73 -209.5t-211 -72.5h-942zM508 183h894q91 0 91 92v892q0 92 -91 92h-894q-91 0 -91 -92v-892q0 -92 91 -92zM1224 478h-537q-30 0 -42.5 28t3.5 55
l262 450q15 26 45 26t46 -26l260 -450q17 -29 5 -56t-42 -27z" />
    <glyph glyph-name="uni1000F7.small" unicode="&#x25b2;&#x20de;&#x25a0;" horiz-adv-x="1910" 
d="M484 -34q-137 0 -210.5 73t-73.5 209v946q0 136 73.5 209t210.5 73h942q138 0 211 -72.5t73 -209.5v-946q0 -137 -73 -209.5t-211 -72.5h-942zM1244 461q32 0 45 29t-5 59l-276 478q-16 27 -47.5 26.5t-48.5 -26.5l-277 -478q-17 -29 -3.5 -58.5t44.5 -29.5h568z" />
    <glyph glyph-name="uni100068.small" unicode="&#x25bc;&#x20dd;" horiz-adv-x="1947" 
d="M974 -112q-169 0 -323 66.5t-266 178.5t-178.5 266t-66.5 323q0 168 66.5 322.5t178 266t266 178t322.5 66.5q169 0 323 -66.5t266 -178t178.5 -266t66.5 -322.5q0 -169 -66.5 -323t-178 -266t-266 -178.5t-322.5 -66.5zM974 109q125 0 238.5 48.5t195 130.5t130 195.5
t48.5 238.5t-48.5 238.5t-130.5 195t-195.5 130t-238.5 48.5t-238 -48.5t-195 -130t-130 -195t-48 -238.5t48 -238.5t130 -195.5t195.5 -130.5t238.5 -48.5zM1242 962q30 0 42.5 -27.5t-4.5 -55.5l-261 -451q-15 -25 -45.5 -25t-44.5 25l-263 451q-16 27 -3.5 55t42.5 28
h537z" />
    <glyph glyph-name="uni100069.small" unicode="&#x25bc;&#x20dd;&#x25cf;" horiz-adv-x="1947" 
d="M974 -112q-169 0 -323 66.5t-266 178.5t-178.5 266t-66.5 323q0 168 66.5 322.5t178 266t266 178t322.5 66.5q169 0 323 -66.5t266 -178t178.5 -266t66.5 -322.5q0 -169 -66.5 -323t-178 -266t-266 -178.5t-322.5 -66.5zM1257 979h-568q-31 0 -44.5 -29.5t2.5 -58.5
l278 -477q16 -27 48 -27t48 27l276 477q18 30 5 59t-45 29z" />
    <glyph glyph-name="uni1000F8.small" unicode="&#x25bc;&#x20de;" horiz-adv-x="1910" 
d="M484 -34q-137 0 -210.5 73t-73.5 209v946q0 136 73.5 209t210.5 73h942q138 0 211 -72.5t73 -209.5v-946q0 -137 -73 -209.5t-211 -72.5h-942zM508 183h894q91 0 91 92v892q0 92 -91 92h-894q-91 0 -91 -92v-892q0 -92 91 -92zM1224 962q30 0 42 -27t-5 -56l-260 -450
q-15 -25 -45.5 -25t-45.5 25l-262 450q-16 27 -3.5 55t42.5 28h537z" />
    <glyph glyph-name="uni1000F9.small" unicode="&#x25bc;&#x20de;&#x25a0;" horiz-adv-x="1910" 
d="M484 -34q-137 0 -210.5 73t-73.5 209v946q0 136 73.5 209t210.5 73h942q138 0 211 -72.5t73 -209.5v-946q0 -137 -73 -209.5t-211 -72.5h-942zM1244 979h-569q-31 0 -44.5 -29.5t3.5 -58.5l278 -477q16 -27 48 -27t48 27l276 477q17 30 4 59t-44 29z" />
    <glyph glyph-name="uni1000C8.small" unicode="&#x30;&#x20de;" horiz-adv-x="1910" 
d="M484 -34q-137 0 -210.5 73t-73.5 209v946q0 136 73.5 209t210.5 73h942q138 0 211 -72.5t73 -209.5v-946q0 -137 -73 -209.5t-211 -72.5h-942zM508 183h894q91 0 91 92v892q0 92 -91 92h-894q-91 0 -91 -92v-892q0 -92 91 -92zM953 356q-136 0 -217 99.5t-81 266.5
t81 266.5t217 99.5t219 -99.5t83 -266.5t-83 -266.5t-219 -99.5zM955 513q48 0 76 53.5t28 155.5t-28 155.5t-76 53.5t-76.5 -53.5t-28.5 -155.5t28.5 -155.5t76.5 -53.5z" />
    <glyph glyph-name="uni1000C9.small" unicode="&#x30;&#x20de;&#x25a0;" horiz-adv-x="1910" 
d="M484 -34q-137 0 -210.5 73t-73.5 209v946q0 136 73.5 209t210.5 73h942q138 0 211 -72.5t73 -209.5v-946q0 -137 -73 -209.5t-211 -72.5h-942zM958 349q139 0 223 101.5t84 271.5t-84.5 272t-222.5 102q-139 0 -221.5 -102t-82.5 -272t82.5 -271.5t221.5 -101.5zM960 508
q-49 0 -78 54.5t-29 159.5t29 159.5t78 54.5t78 -54.5t29 -159.5t-29 -159.5t-78 -54.5z" />
    <glyph glyph-name="uni1000CA.small" unicode="&#x31;&#x20de;" horiz-adv-x="1910" 
d="M484 -34q-137 0 -210.5 73t-73.5 209v946q0 136 73.5 209t210.5 73h942q138 0 211 -72.5t73 -209.5v-946q0 -137 -73 -209.5t-211 -72.5h-942zM508 183h894q91 0 91 92v892q0 92 -91 92h-894q-91 0 -91 -92v-892q0 -92 91 -92zM1006 365q-49 0 -76.5 28t-27.5 82v403h-7
l-73 -49q-28 -19 -54 -19q-29 0 -48.5 20.5t-19.5 50.5q0 43 43 73l122 82q67 43 128 43q53 0 85 -30.5t32 -79.5v-494q0 -54 -27.5 -82t-76.5 -28z" />
    <glyph glyph-name="uni1000CB.small" unicode="&#x31;&#x20de;&#x25a0;" horiz-adv-x="1910" 
d="M484 -34q-137 0 -210.5 73t-73.5 209v946q0 136 73.5 209t210.5 73h942q138 0 211 -72.5t73 -209.5v-946q0 -137 -73 -209.5t-211 -72.5h-942zM1014 344q52 0 81.5 29.5t29.5 87.5v522q0 53 -34.5 85t-90.5 32q-67 0 -136 -46l-130 -87q-45 -30 -45 -77q0 -32 21 -54
t52 -22q27 0 57 21l77 51h8v-425q0 -58 29 -87.5t81 -29.5z" />
    <glyph glyph-name="uni1000CC.small" unicode="&#x32;&#x20de;" horiz-adv-x="1910" 
d="M484 -34q-137 0 -210.5 73t-73.5 209v946q0 136 73.5 209t210.5 73h942q138 0 211 -72.5t73 -209.5v-946q0 -137 -73 -209.5t-211 -72.5h-942zM508 183h894q91 0 91 92v892q0 92 -91 92h-894q-91 0 -91 -92v-892q0 -92 91 -92zM779 375q-38 0 -62 22t-24 57q0 47 41 83
l211 202q43 38 63.5 66.5t20.5 57.5q0 31 -21 49t-56 18q-33 0 -53.5 -17t-41.5 -48q-35 -46 -81 -46q-39 0 -62.5 20t-23.5 56q0 21 7 41q23 67 95.5 109.5t165.5 42.5q120 0 193.5 -57t73.5 -151q0 -57 -31 -107t-97 -109l-123 -120v-7h192q42 0 66 -21t24 -59t-24.5 -60
t-65.5 -22h-387z" />
    <glyph glyph-name="uni1000CD.small" unicode="&#x32;&#x20de;&#x25a0;" horiz-adv-x="1910" 
d="M484 -34q-137 0 -210.5 73t-73.5 209v946q0 136 73.5 209t210.5 73h942q138 0 211 -72.5t73 -209.5v-946q0 -137 -73 -209.5t-211 -72.5h-942zM773 355h411q44 0 69.5 23.5t25.5 63.5t-25.5 63t-69.5 23h-202v6l128 126q70 63 103 116t33 113q0 99 -78 160t-205 61
q-99 0 -175 -44.5t-101 -116.5q-8 -20 -8 -45q0 -38 25 -59.5t67 -21.5q30 0 48.5 13t36.5 37q14 21 25 33t31.5 23.5t44.5 11.5q37 0 59 -19t22 -51q0 -31 -22 -60.5t-67 -70.5l-224 -213q-43 -38 -43 -88q0 -38 25 -61t66 -23z" />
    <glyph glyph-name="uni1000CE.small" unicode="&#x33;&#x20de;" horiz-adv-x="1910" 
d="M484 -34q-137 0 -210.5 73t-73.5 209v946q0 136 73.5 209t210.5 73h942q138 0 211 -72.5t73 -209.5v-946q0 -137 -73 -209.5t-211 -72.5h-942zM508 183h894q91 0 91 92v892q0 92 -91 92h-894q-91 0 -91 -92v-892q0 -92 91 -92zM955 356q-101 0 -175.5 40t-94.5 104
q-7 18 -7 39q0 35 23.5 56.5t63.5 21.5q51 0 80 -45q35 -64 114 -64q43 0 70 19.5t27 51.5q0 35 -27 54.5t-74 19.5h-25q-38 0 -61 21t-23 55t22.5 54t61.5 20h23q39 0 63 20.5t24 52.5q0 30 -22 47t-61 17q-72 0 -104 -64q-28 -45 -78 -45q-40 0 -64 21t-24 56q0 22 7 40
q20 65 91 102.5t174 37.5q123 0 198 -52.5t75 -138.5q0 -55 -39.5 -99.5t-94.5 -52.5v-9q67 -6 110.5 -53.5t43.5 -114.5q0 -97 -80 -154.5t-217 -57.5z" />
    <glyph glyph-name="uni1000CF.small" unicode="&#x33;&#x20de;&#x25a0;" horiz-adv-x="1910" 
d="M484 -34q-137 0 -210.5 73t-73.5 209v946q0 136 73.5 209t210.5 73h942q138 0 211 -72.5t73 -209.5v-946q0 -137 -73 -209.5t-211 -72.5h-942zM960 334q146 0 231 61t85 164q0 71 -46.5 121.5t-117.5 56.5v10q59 7 100.5 54t41.5 106q0 92 -79.5 147.5t-210.5 55.5
q-109 0 -184 -39.5t-97 -108.5q-6 -21 -6 -42q0 -38 25 -60.5t67 -22.5q55 0 84 48q35 67 109 67q41 0 64.5 -18t23.5 -49q0 -34 -25.5 -55t-65.5 -21h-25q-41 0 -65 -21.5t-24 -58.5q0 -36 24.5 -58t64.5 -22h27q49 0 77 -21t28 -57q0 -34 -28 -54t-73 -20q-84 0 -121 67
q-30 48 -84 48q-43 0 -68 -23t-25 -61q0 -21 7 -42q22 -68 101 -110t185 -42z" />
    <glyph glyph-name="uni1000D0.small" unicode="&#x34;&#x20de;" horiz-adv-x="1910" 
d="M484 -34q-137 0 -210.5 73t-73.5 209v946q0 136 73.5 209t210.5 73h942q138 0 211 -72.5t73 -209.5v-946q0 -137 -73 -209.5t-211 -72.5h-942zM508 183h894q91 0 91 92v892q0 92 -91 92h-894q-91 0 -91 -92v-892q0 -92 91 -92zM1059 365q-40 0 -62.5 24t-22.5 69v33h-233
q-55 0 -87.5 30t-32.5 80q0 47 26 100q56 101 170 280q35 59 76.5 83t106.5 24q63 0 104 -35.5t41 -90.5v-316h30q39 0 62 -21t23 -57q0 -35 -23 -56t-63 -21h-29v-33q0 -45 -23 -69t-63 -24zM974 646v300h-7q-111 -184 -171 -295v-5h178z" />
    <glyph glyph-name="uni1000D1.small" unicode="&#x34;&#x20de;&#x25a0;" horiz-adv-x="1910" 
d="M484 -34q-137 0 -210.5 73t-73.5 209v946q0 136 73.5 209t210.5 73h942q138 0 211 -72.5t73 -209.5v-946q0 -137 -73 -209.5t-211 -72.5h-942zM1070 344q43 0 67.5 25t24.5 73v34h30q42 0 66.5 22.5t24.5 60.5t-24 60.5t-66 22.5h-31v333q0 58 -44 96.5t-111 38.5
q-70 0 -113.5 -26t-81.5 -89q-123 -194 -179 -295q-27 -53 -27 -106q0 -54 34.5 -86t92.5 -32h246v-34q0 -47 24 -72.5t67 -25.5zM979 642h-186v5q64 121 179 311h7v-316z" />
    <glyph glyph-name="uni1000D2.small" unicode="&#x35;&#x20de;" horiz-adv-x="1910" 
d="M484 -34q-137 0 -210.5 73t-73.5 209v946q0 136 73.5 209t210.5 73h942q138 0 211 -72.5t73 -209.5v-946q0 -137 -73 -209.5t-211 -72.5h-942zM508 183h894q91 0 91 92v892q0 92 -91 92h-894q-91 0 -91 -92v-892q0 -92 91 -92zM951 356q-103 0 -172.5 31.5t-92.5 87.5
q-10 23 -10 44q0 34 22.5 54.5t61.5 20.5q49 0 80 -34q40 -52 106 -52q44 0 73.5 28.5t29.5 71.5q0 44 -25.5 70.5t-67.5 26.5q-37 0 -78 -26q-40 -26 -89 -26q-54 0 -81 27.5t-24 77.5l16 210q2 45 32.5 73t78.5 28h322q38 0 59 -19t21 -53t-21.5 -53.5t-58.5 -19.5h-276
l-13 -148h10q18 29 61 47.5t93 18.5q106 0 171 -62.5t65 -166.5q0 -118 -79.5 -187.5t-213.5 -69.5z" />
    <glyph glyph-name="uni1000D3.small" unicode="&#x35;&#x20de;&#x25a0;" horiz-adv-x="1910" 
d="M484 -34q-137 0 -210.5 73t-73.5 209v946q0 136 73.5 209t210.5 73h942q138 0 211 -72.5t73 -209.5v-946q0 -137 -73 -209.5t-211 -72.5h-942zM956 334q142 0 226.5 74t84.5 200q0 109 -68.5 175.5t-181.5 66.5q-53 0 -99 -20t-65 -51h-9l12 156h293q39 0 62 20.5
t23 56.5q0 37 -22 57t-63 20h-342q-51 0 -83 -29.5t-35 -77.5l-16 -221q-4 -54 25 -83.5t87 -29.5q50 0 94 28q44 27 82 27q44 0 71 -27.5t27 -73.5q0 -45 -31 -75t-78 -30q-69 0 -112 54q-29 36 -83 36q-42 0 -66 -22t-24 -58q0 -26 10 -47q25 -59 98.5 -92.5t182.5 -33.5z
" />
    <glyph glyph-name="uni1000D4.small" unicode="&#x36;&#x20de;" horiz-adv-x="1910" 
d="M484 -34q-137 0 -210.5 73t-73.5 209v946q0 136 73.5 209t210.5 73h942q138 0 211 -72.5t73 -209.5v-946q0 -137 -73 -209.5t-211 -72.5h-942zM508 183h894q91 0 91 92v892q0 92 -91 92h-894q-91 0 -91 -92v-892q0 -92 91 -92zM962 356q-174 0 -254 126q-56 89 -56 237
q0 180 86.5 274.5t243.5 94.5q75 0 135 -26.5t84 -68.5q15 -24 15 -52q0 -30 -20.5 -49t-53.5 -19q-17 0 -32.5 5t-24.5 11t-25 18q-41 33 -81 33q-60 0 -96.5 -49.5t-36.5 -129.5q0 -7 2 -21h7q22 38 67.5 63t105.5 25q96 0 160.5 -58.5t64.5 -158.5q0 -119 -80 -187
t-211 -68zM952 503q46 0 74 28t28 74q0 44 -28.5 72.5t-72.5 28.5q-45 0 -73.5 -28t-28.5 -72q0 -46 28.5 -74.5t72.5 -28.5z" />
    <glyph glyph-name="uni1000D5.small" unicode="&#x36;&#x20de;&#x25a0;" horiz-adv-x="1910" 
d="M484 -34q-137 0 -210.5 73t-73.5 209v946q0 136 73.5 209t210.5 73h942q138 0 211 -72.5t73 -209.5v-946q0 -137 -73 -209.5t-211 -72.5h-942zM968 334q139 0 223.5 72.5t84.5 197.5q0 106 -68 168.5t-170 62.5q-64 0 -112.5 -26.5t-69.5 -67.5h-8q-2 16 -2 23
q0 84 38 136t101 52q20 0 37.5 -6t25.5 -11.5t24 -17.5t26 -18.5t26 -11.5t34 -5q35 0 57.5 20t22.5 52q0 29 -17 55q-25 45 -88.5 73t-143.5 28q-166 0 -258 -100.5t-92 -290.5q0 -156 59 -251q85 -134 270 -134zM957 491q-47 0 -76.5 30t-29.5 78q0 46 30 75.5t77 29.5
q46 0 76 -29.5t30 -75.5q0 -49 -29 -78.5t-78 -29.5z" />
    <glyph glyph-name="uni1000D6.small" unicode="&#x37;&#x20de;" horiz-adv-x="1910" 
d="M484 -34q-137 0 -210.5 73t-73.5 209v946q0 136 73.5 209t210.5 73h942q138 0 211 -72.5t73 -209.5v-946q0 -137 -73 -209.5t-211 -72.5h-942zM508 183h894q91 0 91 92v892q0 92 -91 92h-894q-91 0 -91 -92v-892q0 -92 91 -92zM872 356q-43 0 -70.5 24t-27.5 63
q0 32 17 61l242 399v8h-272q-40 0 -63 21t-23 58q0 36 23 57.5t63 21.5h364q58 0 92 -30.5t34 -80.5q0 -48 -31 -101l-250 -434q-22 -37 -44 -52t-54 -15z" />
    <glyph glyph-name="uni1000D7.small" unicode="&#x37;&#x20de;&#x25a0;" horiz-adv-x="1910" 
d="M484 -34q-137 0 -210.5 73t-73.5 209v946q0 136 73.5 209t210.5 73h942q138 0 211 -72.5t73 -209.5v-946q0 -137 -73 -209.5t-211 -72.5h-942zM872 334q35 0 58 16t47 56l264 458q34 57 34 107q0 54 -36.5 86t-98.5 32h-386q-42 0 -67 -22.5t-25 -61.5t25 -62t67 -23h287
v-8l-254 -420q-19 -29 -19 -65q0 -42 29 -67.5t75 -25.5z" />
    <glyph glyph-name="uni1000D8.small" unicode="&#x38;&#x20de;" horiz-adv-x="1910" 
d="M484 -34q-137 0 -210.5 73t-73.5 209v946q0 136 73.5 209t210.5 73h942q138 0 211 -72.5t73 -209.5v-946q0 -137 -73 -209.5t-211 -72.5h-942zM508 183h894q91 0 91 92v892q0 92 -91 92h-894q-91 0 -91 -92v-892q0 -92 91 -92zM954 356q-142 0 -226 57t-84 154
q0 67 43.5 113.5t116.5 57.5v8q-130 36 -130 152q0 86 76.5 138t204.5 52t204.5 -52t76.5 -138q0 -117 -131 -152v-8q74 -11 117.5 -57t43.5 -113q0 -97 -84.5 -154.5t-227.5 -57.5zM955 797q37 0 61.5 22.5t24.5 57.5q0 34 -24.5 56t-61.5 22t-61.5 -22t-24.5 -56
q0 -35 24.5 -57.5t61.5 -22.5zM955 489q46 0 75.5 26t29.5 67t-29.5 67t-75.5 26q-45 0 -75 -26.5t-30 -66.5q0 -41 29.5 -67t75.5 -26z" />
    <glyph glyph-name="uni1000D9.small" unicode="&#x38;&#x20de;&#x25a0;" horiz-adv-x="1910" 
d="M484 -34q-137 0 -210.5 73t-73.5 209v946q0 136 73.5 209t210.5 73h942q138 0 211 -72.5t73 -209.5v-946q0 -137 -73 -209.5t-211 -72.5h-942zM959 334q152 0 241.5 60.5t89.5 163.5q0 71 -46 120t-124 61v8q67 19 102.5 60.5t35.5 101.5q0 91 -81.5 146t-216.5 55
t-216.5 -55t-81.5 -146q0 -123 138 -162v-8q-78 -12 -124 -61t-46 -120q0 -103 88.5 -163.5t240.5 -60.5zM960 802q-39 0 -65 24t-26 59t26 59t65 24t64.5 -24t25.5 -59t-25.5 -59t-64.5 -24zM960 476q-47 0 -78.5 27.5t-31.5 70.5q0 42 31.5 70t78.5 28q49 0 79.5 -27.5
t30.5 -70.5t-31 -70.5t-79 -27.5z" />
    <glyph glyph-name="uni1000DA.small" unicode="&#x39;&#x20de;" horiz-adv-x="1910" 
d="M484 -34q-137 0 -210.5 73t-73.5 209v946q0 136 73.5 209t210.5 73h942q138 0 211 -72.5t73 -209.5v-946q0 -137 -73 -209.5t-211 -72.5h-942zM508 183h894q91 0 91 92v892q0 92 -91 92h-894q-91 0 -91 -92v-892q0 -92 91 -92zM944 356q-96 0 -156.5 30.5t-81.5 76.5
q-9 18 -9 38q0 31 23 52.5t56 21.5q41 0 76 -29q43 -41 91 -41q60 0 94.5 56t28.5 145h-7q-19 -42 -62 -68t-105 -26q-100 0 -165.5 60t-65.5 162q0 114 80.5 184t210.5 70q146 0 226.5 -93t80.5 -262q0 -181 -82 -279t-233 -98zM961 738q45 0 73.5 28.5t28.5 72.5
q0 45 -29 74.5t-73 29.5q-46 0 -74.5 -28.5t-28.5 -74.5q0 -45 28.5 -73.5t74.5 -28.5z" />
    <glyph glyph-name="uni1000DB.small" unicode="&#x39;&#x20de;&#x25a0;" horiz-adv-x="1910" 
d="M484 -34q-137 0 -210.5 73t-73.5 209v946q0 136 73.5 209t210.5 73h942q138 0 211 -72.5t73 -209.5v-946q0 -137 -73 -209.5t-211 -72.5h-942zM949 334q160 0 247 103.5t87 295.5q0 180 -85.5 278.5t-240.5 98.5q-137 0 -222.5 -74.5t-85.5 -195.5q0 -108 69 -171
t175 -63q66 0 111 27t65 72h8q6 -94 -30.5 -153t-98.5 -59q-52 0 -96 44q-38 30 -81 30q-35 0 -59.5 -22.5t-24.5 -56.5q0 -22 10 -41q22 -49 86.5 -81t165.5 -32zM966 740q-47 0 -77.5 30t-30.5 76q0 49 30 79t78 30q46 0 76.5 -31t30.5 -78q0 -46 -30 -76t-77 -30z" />
    <glyph glyph-name=".notdef" horiz-adv-x="2048" 
d="M100 1751v199h1848v-199h-1848zM100 1302v199h1848v-199h-1848zM100 853v199h1848v-199h-1848zM100 404v199h1848v-199h-1848zM100 -45v199h1848v-199h-1848zM100 -494v199h1848v-199h-1848z" />
    <glyph glyph-name=".null" horiz-adv-x="0" 
 />
    <glyph glyph-name="nonmarkingreturn" unicode="&#x2029;" horiz-adv-x="0" 
 />
    <glyph glyph-name="nonmarkingreturn" unicode="&#x2028;" horiz-adv-x="0" 
 />
    <glyph glyph-name="space" unicode=" " horiz-adv-x="405" 
 />
    <glyph glyph-name="exclamationmark" unicode="!" horiz-adv-x="648" 
d="M198 485l-24 958h300l-24 -958h-252zM324 -12q-68 0 -115.5 45.5t-47.5 111.5t47.5 111.5t115.5 45.5t115.5 -45.5t47.5 -111.5t-47.5 -111.5t-115.5 -45.5z" />
    <glyph glyph-name="quotedbl" unicode="&#x22;" horiz-adv-x="933" 
d="M174 880l-27 563h260l-28 -563h-205zM554 880l-27 563h260l-28 -563h-205z" />
    <glyph glyph-name="numbersign" unicode="#" horiz-adv-x="1308" 
d="M377 0h-223l69 362h-223l41 217h224l58 304h-231l42 215h230l67 345h222l-66 -345h263l67 345h223l-66 -345h234l-41 -215h-234l-59 -304h241l-41 -217h-241l-69 -362h-224l69 362h-264zM472 567h288l63 328h-287z" />
    <glyph glyph-name="dollarsign" unicode="$" horiz-adv-x="1325" 
d="M612 -145v167q-218 11 -352 114.5t-146 278.5l-1 15h267l2 -11q28 -153 230 -171v358l-75 16q-202 42 -302.5 138.5t-100.5 253.5v2q0 174 131.5 284t346.5 121v167h100v-168q209 -13 334 -115t140 -275l2 -17h-267l-2 9q-11 74 -64 118t-143 55v-347l79 -16
q213 -45 314.5 -137.5t101.5 -252.5v-2q0 -185 -136 -295.5t-359 -122.5v-167h-100zM413 1036q0 -62 46.5 -103t152.5 -64v327q-96 -9 -147.5 -52.5t-51.5 -105.5v-2zM928 414q0 66 -47.5 105.5t-168.5 65.5v-339q109 8 162.5 52t53.5 114v2z" />
    <glyph glyph-name="percent" unicode="%" horiz-adv-x="1823" 
d="M419 700q-156 0 -245.5 101.5t-89.5 276.5v1q0 174 89.5 275.5t245.5 101.5q155 0 244.5 -101.5t89.5 -275.5v-1q0 -175 -89.5 -276.5t-244.5 -101.5zM568 0h-223l912 1443h222zM419 866q60 0 92 54.5t32 157.5v1q0 102 -32 156.5t-92 54.5q-61 0 -93.5 -54.5
t-32.5 -156.5v-1q0 -103 32.5 -157.5t93.5 -54.5zM1406 -13q-156 0 -245.5 101.5t-89.5 276.5v1q0 174 89.5 275.5t245.5 101.5q155 0 244.5 -101.5t89.5 -275.5v-1q0 -175 -89.5 -276.5t-244.5 -101.5zM1406 153q60 0 92 54.5t32 157.5v1q0 102 -32 156.5t-92 54.5
q-61 0 -93.5 -54.5t-32.5 -156.5v-1q0 -103 32.5 -157.5t93.5 -54.5z" />
    <glyph glyph-name="ampersand" unicode="&#x26;" horiz-adv-x="1437" 
d="M571 -26q-229 0 -366 110t-137 293v1q0 122 67 217.5t208 172.5l53 29q-97 111 -136 183.5t-39 144.5v1q0 146 116.5 241t294.5 95q176 0 288 -92t112 -238v-1q0 -109 -71.5 -200.5t-225.5 -175.5l278 -291q53 124 53 300v46h243v-58q0 -279 -124 -469l266 -278v-5h-322
l-104 113q-188 -139 -454 -139zM471 1113q0 -47 29 -93t105 -128q96 52 140 104.5t44 116.5v1q0 68 -44 111t-114 43q-69 0 -114.5 -43.5t-45.5 -110.5v-1zM341 401q0 -97 71.5 -156t188.5 -59q154 0 272 92l-337 366l-32 -18q-87 -50 -125 -104t-38 -120v-1z" />
    <glyph glyph-name="quotesingle" unicode="'" horiz-adv-x="553" 
d="M174 880l-27 563h260l-28 -563h-205z" />
    <glyph glyph-name="parenleft" unicode="(" horiz-adv-x="782" 
d="M479 -350q-153 185 -225 404.5t-72 491.5q0 274 72 494t225 403h268q-112 -131 -188 -386.5t-76 -509.5q0 -253 75.5 -508.5t188.5 -388.5h-268z" />
    <glyph glyph-name="parenright" unicode=")" horiz-adv-x="782" 
d="M304 -350h-269q112 133 188 388.5t76 508.5q0 254 -76 509.5t-188 386.5h269q153 -183 224.5 -403t71.5 -494q0 -271 -71.5 -491t-224.5 -405z" />
    <glyph glyph-name="asterisk" unicode="*" horiz-adv-x="920" 
d="M364 708l12 219l-174 -115l-97 150l202 108l-202 108l97 151l174 -116l-12 220h191l-12 -221l175 117l98 -151l-203 -108l202 -107l-97 -151l-175 116l12 -220h-191z" />
    <glyph glyph-name="plus" unicode="+" horiz-adv-x="1325" 
d="M120 459v255h415v385h255v-385h416v-255h-416v-384h-255v384h-415z" />
    <glyph glyph-name="comma" unicode="," horiz-adv-x="493" 
d="M39 -301l73 553h276l-147 -553h-202z" />
    <glyph glyph-name="hyphen" unicode="&#x2011;" horiz-adv-x="903" 
d="M128 459v255h648v-255h-648z" />
    <glyph glyph-name="hyphen" unicode="&#x2010;" horiz-adv-x="903" 
d="M128 459v255h648v-255h-648z" />
    <glyph glyph-name="hyphen" unicode="-" horiz-adv-x="903" 
d="M128 459v255h648v-255h-648z" />
    <glyph glyph-name="period" unicode="." horiz-adv-x="493" 
d="M247 -17q-68 0 -115 47t-47 115t47 115t115 47t115 -47t47 -115q0 -67 -47.5 -114.5t-114.5 -47.5z" />
    <glyph glyph-name="slash" unicode="/" horiz-adv-x="620" 
d="M621 1443l-361 -1793h-260l362 1793h259z" />
    <glyph glyph-name="zero" unicode="0" horiz-adv-x="1343" 
d="M672 -25q-274 0 -431 200.5t-157 545.5v2q0 345 157 545t431 200t431 -200t157 -545v-2q0 -345 -157 -545.5t-431 -200.5zM672 217q135 0 209 133t74 371v2q0 238 -74 370.5t-209 132.5t-209 -132.5t-74 -370.5v-2q0 -238 74 -371t209 -133z" />
    <glyph glyph-name="one" unicode="1" horiz-adv-x="983" 
d="M463 0v1166h-6l-368 -250v268l373 259h300v-1443h-299z" />
    <glyph glyph-name="two" unicode="2" horiz-adv-x="1235" 
d="M102 0v207l510 477q136 127 180.5 197.5t44.5 147.5v2q-1 89 -62 145.5t-157 56.5q-110 0 -179.5 -64t-72.5 -163l-1 -9h-280v8q0 203 150.5 333t380.5 130q228 0 371.5 -117.5t143.5 -302.5v-2q0 -128 -70 -235t-262 -283l-302 -276v-12h654v-240h-1049z" />
    <glyph glyph-name="three" unicode="3" horiz-adv-x="1290" 
d="M639 -25q-243 0 -394.5 116t-166.5 305l-1 13h288l2 -11q10 -79 83 -129.5t188 -50.5t185 56t70 145v2q0 103 -73 158.5t-204 55.5h-165v215h161q113 0 181 54.5t68 142.5v2q0 88 -59.5 137.5t-165.5 49.5q-105 0 -172.5 -50.5t-76.5 -134.5l-1 -9h-277l1 12
q15 188 157.5 301t368.5 113q232 0 371.5 -104t139.5 -275v-2q0 -130 -84 -217.5t-217 -114.5v-6q163 -15 258.5 -105t95.5 -235v-2q0 -194 -154.5 -313t-406.5 -119z" />
    <glyph glyph-name="four" unicode="4" horiz-adv-x="1326" 
d="M790 0v265h-718v252l579 926h426v-937h190v-241h-190v-265h-287zM335 498h461v727h-7l-454 -719v-8z" />
    <glyph glyph-name="five" unicode="5" horiz-adv-x="1280" 
d="M656 -25q-231 0 -378.5 119.5t-161.5 304.5l-1 15h279l2 -7q16 -84 87.5 -138.5t173.5 -54.5q119 0 194 73.5t75 188.5v2q-1 114 -76 186.5t-192 72.5q-109 0 -186 -61q-42 -31 -69 -80h-263l66 847h921v-240h-681l-35 -406h6q45 73 130.5 114.5t194.5 41.5
q205 0 338.5 -132.5t133.5 -336.5v-2q0 -226 -155 -366.5t-403 -140.5z" />
    <glyph glyph-name="six" unicode="6" horiz-adv-x="1336" 
d="M684 -25q-132 0 -241 46.5t-190 136.5t-126 231t-45 320v2q0 354 161.5 555.5t443.5 201.5q207 0 353 -107.5t179 -276.5l2 -10h-298l-3 9q-28 68 -88 107t-146 39q-102 0 -172 -62t-103 -161.5t-39 -232.5q-2 -40 -2 -55h6q44 104 148 168t246 64q208 0 339 -132
t131 -336v-2q0 -221 -157.5 -363t-398.5 -142zM416 473q0 -109 76.5 -183.5t187.5 -74.5t188.5 74t77.5 180v2q0 112 -75 184t-188 72q-114 0 -190.5 -71.5t-76.5 -180.5v-2z" />
    <glyph glyph-name="seven" unicode="7" horiz-adv-x="1172" 
d="M177 0l621 1197v6h-734v240h1032v-243l-602 -1200h-317z" />
    <glyph glyph-name="eight" unicode="8" horiz-adv-x="1329" 
d="M665 -25q-258 0 -420 116.5t-162 302.5v2q0 138 92.5 236t240.5 127v6q-127 31 -203.5 116.5t-76.5 199.5v2q0 168 148 276.5t381 108.5q232 0 380.5 -108.5t148.5 -276.5v-2q0 -114 -77 -199.5t-203 -116.5v-6q148 -29 240 -127t92 -236v-2q0 -186 -161.5 -302.5
t-419.5 -116.5zM665 856q102 0 166 55t64 142v2q0 86 -64.5 140.5t-165.5 54.5t-166 -54.5t-65 -140.5v-2q0 -87 64.5 -142t166.5 -55zM665 195q117 0 192.5 62t75.5 157v2q0 97 -74.5 159t-193.5 62t-194 -62.5t-75 -158.5v-2q0 -96 75.5 -157.5t193.5 -61.5z" />
    <glyph glyph-name="nine" unicode="9" horiz-adv-x="1336" 
d="M652 1468q132 0 241 -46.5t190 -136t126 -230.5t45 -320v-2q0 -354 -161.5 -556t-443.5 -202q-207 0 -353 108t-179 277l-2 9h298l3 -8q28 -68 88 -107t146 -39q102 0 172 62t103 161.5t39 232.5q2 39 1 55h-5q-44 -104 -148 -168t-246 -64q-208 0 -339 132t-131 336v2
q0 145 71.5 260.5t198.5 179.5t286 64zM653 717q114 0 190.5 71.5t76.5 180.5v1q0 109 -76.5 183.5t-187.5 74.5t-188.5 -73.5t-77.5 -180.5v-2q0 -112 75 -183.5t188 -71.5z" />
    <glyph glyph-name="colon" unicode=":" horiz-adv-x="493" 
d="M247 695q-68 0 -115 47t-47 115t47 115t115 47q67 0 114.5 -47.5t47.5 -114.5q0 -68 -47 -115t-115 -47zM247 -17q-68 0 -115 47t-47 115t47 115t115 47t115 -47t47 -115q0 -67 -47.5 -114.5t-114.5 -47.5z" />
    <glyph glyph-name="semicolon" unicode=";" horiz-adv-x="493" 
d="M247 695q-68 0 -115 47t-47 115t47 115t115 47q67 0 114.5 -47.5t47.5 -114.5q0 -68 -47 -115t-115 -47zM39 -301l73 553h276l-147 -553h-202z" />
    <glyph glyph-name="less" unicode="&#x3c;" horiz-adv-x="1325" 
d="M133 442v289l1060 371v-256l-799 -256l799 -257v-262z" />
    <glyph glyph-name="equal" unicode="=" horiz-adv-x="1325" 
d="M133 716v255h1060v-255h-1060zM133 203v255h1060v-255h-1060z" />
    <glyph glyph-name="greater" unicode="&#x3e;" horiz-adv-x="1325" 
d="M1193 731v-289l-1060 -371v256l798 257l-798 256v262z" />
    <glyph glyph-name="questionmark" unicode="?" horiz-adv-x="1093" 
d="M365 467l-1 58q-8 107 34.5 180t145.5 134q97 58 132.5 104t35.5 116v1q0 72 -53 118t-137 46q-85 0 -138 -49.5t-58 -128.5l-1 -8h-271v10q6 182 134 295t352 113q213 0 344 -107.5t131 -279.5v-1q0 -111 -53 -193t-161 -145q-99 -57 -134.5 -103.5t-35.5 -118.5v-41
h-266zM502 -12q-68 0 -115.5 45.5t-47.5 111.5t47.5 111.5t115.5 45.5t116 -45.5t48 -111.5t-48 -111.5t-116 -45.5z" />
    <glyph glyph-name="at" unicode="@" horiz-adv-x="1818" 
d="M961 -243q-259 0 -457 100t-310.5 293.5t-112.5 454.5v1q0 185 62.5 342.5t173.5 267.5t269 171.5t344 61.5q239 0 423 -94t286 -269.5t102 -406.5v-1q0 -236 -96 -371.5t-252 -135.5q-90 0 -157 44t-99 118l-9 18h-9q-38 -88 -109.5 -134t-167.5 -46q-154 0 -249 119
t-95 314v1q0 183 97 300t247 117q83 0 148.5 -40t95.5 -108h8v126h202v-467q0 -89 29.5 -136.5t81.5 -47.5q66 0 106 85t40 236v1q0 282 -171 448t-458 166q-290 0 -472.5 -189t-182.5 -491v-1q0 -321 192.5 -500.5t514.5 -179.5q198 0 337 51v-165q-154 -53 -352 -53z
M897 355q81 0 129.5 65.5t48.5 177.5v3q0 110 -48 174.5t-129 64.5t-127 -63.5t-46 -176.5v-1q0 -114 46 -179t126 -65z" />
    <glyph glyph-name="A" unicode="A" horiz-adv-x="1418" 
d="M28 0l504 1443h355l503 -1443h-317l-109 350h-510l-109 -350h-317zM706 1163l-182 -587h370l-182 587h-6z" />
    <glyph glyph-name="B" unicode="B" horiz-adv-x="1310" 
d="M120 0v1443h628q204 0 323.5 -97.5t119.5 -264.5v-2q0 -118 -80 -208t-199 -106v-6q151 -11 248.5 -108t97.5 -238v-2q0 -190 -134 -300.5t-365 -110.5h-639zM670 1219h-248v-379h211q127 0 194 51t67 145v2q0 86 -59 133.5t-165 47.5zM669 635h-247v-410h260
q130 0 199 52.5t69 152.5v2q0 99 -71.5 151t-209.5 52z" />
    <glyph glyph-name="C" unicode="C" horiz-adv-x="1459" 
d="M762 -25q-318 0 -502.5 199.5t-184.5 547.5v1q0 347 185 546t502 199q260 0 434 -147.5t195 -379.5l1 -9h-294l-4 17q-26 122 -112.5 192.5t-219.5 70.5q-174 0 -276.5 -131t-102.5 -357v-1q0 -227 102.5 -359.5t276.5 -132.5q130 0 218 71t117 200l2 10h294l-1 -11
q-21 -232 -195.5 -379t-434.5 -147z" />
    <glyph glyph-name="D" unicode="D" horiz-adv-x="1434" 
d="M120 0v1443h551q326 0 507 -186.5t181 -527.5v-2q0 -343 -181.5 -535t-506.5 -192h-551zM422 250h213q203 0 309.5 121.5t106.5 354.5v2q0 225 -108.5 345.5t-307.5 120.5h-213v-944z" />
    <glyph glyph-name="E" unicode="E" horiz-adv-x="1174" 
d="M120 0v1443h956v-249h-654v-346h617v-236h-617v-363h654v-249h-956z" />
    <glyph glyph-name="F" unicode="F" horiz-adv-x="1123" 
d="M120 0v1443h945v-249h-643v-387h587v-239h-587v-568h-302z" />
    <glyph glyph-name="G" unicode="G" horiz-adv-x="1489" 
d="M770 -25q-324 0 -509.5 199.5t-185.5 551.5v1q0 345 185 543t503 198q254 0 424 -132t207 -341l3 -14h-303l-4 10q-36 106 -120.5 163.5t-205.5 57.5q-179 0 -280 -126.5t-101 -355.5v-1q0 -233 105.5 -365.5t286.5 -132.5q148 0 241 81t99 214l1 21h-330v225h624v-166
q0 -295 -169.5 -463t-470.5 -168z" />
    <glyph glyph-name="H" unicode="H" horiz-adv-x="1494" 
d="M120 0v1443h302v-586h650v586h302v-1443h-302v608h-650v-608h-302z" />
    <glyph glyph-name="I" unicode="I" horiz-adv-x="542" 
d="M120 0v1443h302v-1443h-302z" />
    <glyph glyph-name="J" unicode="J" horiz-adv-x="1143" 
d="M518 -25q-222 0 -351.5 121.5t-134.5 326.5l-1 9h293l1 -6q4 -86 53.5 -138t136.5 -52q95 0 145 57t50 166v984h302v-987q0 -228 -129.5 -354.5t-364.5 -126.5z" />
    <glyph glyph-name="K" unicode="&#x212a;" horiz-adv-x="1338" 
d="M120 0v1443h302v-660h7l529 660h336l-517 -637l554 -806h-361l-413 609l-135 -167v-442h-302z" />
    <glyph glyph-name="K" unicode="K" horiz-adv-x="1338" 
d="M120 0v1443h302v-660h7l529 660h336l-517 -637l554 -806h-361l-413 609l-135 -167v-442h-302z" />
    <glyph glyph-name="L" unicode="L" horiz-adv-x="1112" 
d="M120 0v1443h302v-1194h631v-249h-933z" />
    <glyph glyph-name="M" unicode="M" horiz-adv-x="1764" 
d="M120 0v1443h349l410 -1037h6l410 1037h349v-1443h-269v976h-9l-389 -976h-190l-390 976h-8v-976h-269z" />
    <glyph glyph-name="N" unicode="N" horiz-adv-x="1463" 
d="M120 0v1443h264l652 -938h6v938h301v-1443h-262l-654 945h-6v-945h-301z" />
    <glyph glyph-name="O" unicode="O" horiz-adv-x="1541" 
d="M771 -25q-322 0 -509 201t-187 545v2q0 344 187.5 544.5t508.5 200.5t508.5 -200.5t187.5 -544.5v-2q0 -344 -187 -545t-509 -201zM771 231q179 0 283.5 132.5t104.5 357.5v2q0 225 -105 357t-283 132t-283 -131.5t-105 -357.5v-2q0 -226 105 -358t283 -132z" />
    <glyph glyph-name="P" unicode="P" horiz-adv-x="1265" 
d="M120 0v1443h580q228 0 367.5 -135t139.5 -358v-2q0 -223 -139.5 -358t-367.5 -135h-278v-455h-302zM626 1204h-204v-513h204q130 0 202.5 67t72.5 189v2q0 122 -72.5 188.5t-202.5 66.5z" />
    <glyph glyph-name="Q" unicode="Q" horiz-adv-x="1541" 
d="M771 -25q-322 0 -509 201t-187 545v2q0 344 187.5 544.5t508.5 200.5t508.5 -200.5t187.5 -544.5v-2q0 -193 -61 -343.5t-176 -248.5l188 -264h-287l-106 149q-115 -39 -254 -39zM771 231q47 0 93 11l-179 253h287l87 -124q99 130 99 350v2q0 225 -104.5 357t-282.5 132
t-283 -131.5t-105 -357.5v-2q0 -226 105 -358t283 -132z" />
    <glyph glyph-name="R" unicode="R" horiz-adv-x="1311" 
d="M120 0v1443h596q243 0 379.5 -122t136.5 -340v-2q0 -142 -70.5 -253t-190.5 -158l304 -568h-342l-269 523h-242v-523h-302zM422 752h261q113 0 176.5 60.5t63.5 166.5v2q0 104 -66 165t-178 61h-257v-455z" />
    <glyph glyph-name="S" unicode="S" horiz-adv-x="1293" 
d="M647 -25q-258 0 -413 112t-168 311l-1 16h285l2 -11q14 -84 96.5 -133t206.5 -49q125 0 198.5 50t73.5 133v1q0 73 -57.5 114.5t-192.5 69.5l-152 30q-429 86 -429 410v1q0 196 154 317t396 121q248 0 395 -114t158 -306l1 -19h-285l-1 12q-11 84 -83.5 133t-184.5 49
q-115 -1 -181.5 -49t-66.5 -126v-1q0 -68 57.5 -110t182.5 -67l153 -31q228 -45 333 -143t105 -267v-1q0 -209 -155 -331t-427 -122z" />
    <glyph glyph-name="T" unicode="T" horiz-adv-x="1232" 
d="M465 0v1194h-417v249h1137v-249h-418v-1194h-302z" />
    <glyph glyph-name="U" unicode="U" horiz-adv-x="1449" 
d="M725 -25q-276 0 -440.5 146.5t-164.5 388.5v933h302v-906q0 -142 79.5 -224t223.5 -82t223 82t79 224v906h302v-933q0 -242 -163.5 -388.5t-440.5 -146.5z" />
    <glyph glyph-name="V" unicode="V" horiz-adv-x="1389" 
d="M511 0l-483 1443h334l330 -1134h6l329 1134h335l-483 -1443h-368z" />
    <glyph glyph-name="W" unicode="W" horiz-adv-x="1977" 
d="M425 0l-382 1443h313l228 -1034h6l266 1034h265l266 -1034h6l229 1034h313l-383 -1443h-295l-265 967h-6l-266 -967h-295z" />
    <glyph glyph-name="X" unicode="X" horiz-adv-x="1404" 
d="M43 0l459 727v3l-456 713h355l307 -520h11l305 520h337l-473 -718v-4l467 -721h-344l-317 506h-10l-315 -506h-326z" />
    <glyph glyph-name="Y" unicode="Y" horiz-adv-x="1362" 
d="M530 0v539l-502 904h326l324 -616h7l323 616h327l-503 -904v-539h-302z" />
    <glyph glyph-name="Z" unicode="Z" horiz-adv-x="1292" 
d="M89 0v197l734 991v6h-717v249h1077v-196l-731 -992v-6h751v-249h-1114z" />
    <glyph glyph-name="bracketleft" unicode="[" horiz-adv-x="782" 
d="M203 -350v1793h554v-215h-273v-1363h273v-215h-554z" />
    <glyph glyph-name="backslash" unicode="\" horiz-adv-x="620" 
d="M260 1443l361 -1793h-259l-362 1793h260z" />
    <glyph glyph-name="bracketright" unicode="]" horiz-adv-x="782" 
d="M579 -350h-554v215h274v1363h-274v215h554v-1793z" />
    <glyph glyph-name="asciicircum" unicode="^" horiz-adv-x="1325" 
d="M392 788h-286l430 655h254l429 -655h-285l-271 427z" />
    <glyph glyph-name="underscore" unicode="_" horiz-adv-x="1180" 
d="M0 -355v255h1180v-255h-1180z" />
    <glyph glyph-name="grave" unicode="`" horiz-adv-x="1024" 
d="M535 1192l-243 342h261l180 -342h-198z" />
    <glyph glyph-name="a" unicode="a" horiz-adv-x="1121" 
d="M414 -17q-160 0 -260 90.5t-100 233.5v2q0 146 108 229.5t309 96.5l265 16v66q0 72 -45.5 113t-130.5 41q-79 0 -128.5 -33t-60.5 -87l-2 -9h-267l1 12q12 152 136.5 246t332.5 94q207 0 331.5 -98.5t124.5 -260.5v-735h-292v160h-6q-46 -83 -128.5 -130t-187.5 -47z
M343 322q0 -59 45 -92.5t121 -33.5q98 0 162.5 56t64.5 140v77l-221 -14q-84 -5 -128 -39t-44 -92v-2z" />
    <glyph glyph-name="b" unicode="b" horiz-adv-x="1222" 
d="M730 -22q-114 0 -200 54.5t-130 150.5h-6v-183h-292v1443h292v-557h6q45 98 131 153t200 55q203 0 319.5 -148t116.5 -409v-1q0 -260 -117 -409t-320 -149zM633 220q109 0 173 85t64 231v1q0 146 -64 230.5t-173 84.5q-107 0 -173 -86t-66 -229v-1q0 -144 66 -230
t173 -86z" />
    <glyph glyph-name="c" unicode="c" horiz-adv-x="1116" 
d="M585 -22q-245 0 -387 150t-142 409v1q0 257 142.5 406.5t383.5 149.5q214 0 346.5 -116.5t140.5 -294.5v-7h-271l-2 9q-14 80 -68.5 130t-141.5 50q-108 0 -170.5 -87.5t-62.5 -240.5v-1q0 -156 62.5 -242.5t171.5 -86.5q86 0 140.5 48.5t69.5 131.5l1 9h272v-6
q-11 -179 -143 -295.5t-342 -116.5z" />
    <glyph glyph-name="d" unicode="d" horiz-adv-x="1220" 
d="M492 -22q-203 0 -319.5 148.5t-116.5 409.5v1q0 261 116.5 409t319.5 148q113 0 199.5 -55t130.5 -153h6v557h292v-1443h-292v183h-6q-43 -96 -129 -150.5t-201 -54.5zM590 220q107 0 173 86t66 230v1q0 143 -66 229t-173 86q-109 0 -173 -84.5t-64 -230.5v-1
q0 -146 63.5 -231t173.5 -85z" />
    <glyph glyph-name="e" unicode="e" horiz-adv-x="1137" 
d="M583 -22q-245 0 -386 149t-141 407v1q0 256 139.5 407.5t375.5 151.5q234 0 372.5 -146.5t138.5 -390.5v-90h-738q2 -128 67.5 -199.5t177.5 -71.5q84 0 140 37.5t74 88.5l2 6h268l-3 -11q-13 -63 -48 -120.5t-92.5 -108t-147 -80.5t-199.5 -30zM576 876
q-92 0 -153.5 -59t-75.5 -166h455q-13 109 -73 167t-153 58z" />
    <glyph glyph-name="f" unicode="f" horiz-adv-x="729" 
d="M173 0v852h-146v220h146v86q0 159 82.5 233t270.5 74q89 0 147 -12v-193q-25 5 -75 5q-140 0 -140 -118v-75h213v-220h-206v-852h-292z" />
    <glyph glyph-name="g" unicode="g" horiz-adv-x="1215" 
d="M596 -372q-215 0 -351 86t-158 219l-1 9h284l3 -7q18 -42 77 -70.5t146 -28.5q111 0 171 53t60 145v164h-6q-43 -85 -129.5 -134t-201.5 -49q-202 0 -318 142t-116 391v1q0 255 117.5 400t321.5 145q111 0 196.5 -55t129.5 -150h6v183h292v-1042q0 -181 -141.5 -291.5
t-381.5 -110.5zM591 229q108 0 172.5 84.5t64.5 227.5v1q0 142 -65 226t-172 84q-109 0 -173.5 -83.5t-64.5 -226.5v-1q0 -144 64 -228t174 -84z" />
    <glyph glyph-name="h" unicode="h" horiz-adv-x="1197" 
d="M102 0v1443h292v-556h6q42 100 125.5 153.5t203.5 53.5q174 0 275 -113.5t101 -307.5v-673h-292v613q0 113 -54 176t-153 63q-96 0 -154 -66t-58 -172v-614h-292z" />
    <glyph glyph-name="i" unicode="i" horiz-adv-x="493" 
d="M247 1210q-66 0 -111 44.5t-45 107.5t45 107.5t111 44.5t111 -44.5t45 -107.5t-45 -107.5t-111 -44.5zM101 0v1072h292v-1072h-292z" />
    <glyph glyph-name="j" unicode="j" horiz-adv-x="492" 
d="M246 1210q-66 0 -111 44.5t-45 107.5t45 107.5t111 44.5t111 -44.5t45 -107.5t-45 -107.5t-111 -44.5zM8 -353q-53 0 -80 3v220q22 -2 37 -2q73 0 104 26.5t31 91.5v1086h292v-1094q0 -163 -97.5 -247t-286.5 -84z" />
    <glyph glyph-name="k" unicode="k" horiz-adv-x="1102" 
d="M105 0v1443h292v-800h6l362 429h331l-405 -461l425 -611h-337l-307 438l-75 -83v-355h-292z" />
    <glyph glyph-name="l" unicode="l" horiz-adv-x="496" 
d="M102 0v1443h292v-1443h-292z" />
    <glyph glyph-name="m" unicode="m" horiz-adv-x="1768" 
d="M95 0v1072h292v-180h6q33 93 113 147.5t187 54.5q113 0 190.5 -58t104.5 -163h6q36 101 126 161t207 60q158 0 254.5 -99.5t96.5 -261.5v-733h-292v660q0 93 -45 142.5t-130 49.5q-83 0 -133.5 -55t-50.5 -145v-652h-281v669q0 86 -46 134.5t-127 48.5q-83 0 -134.5 -57
t-51.5 -148v-647h-292z" />
    <glyph glyph-name="n" unicode="n" horiz-adv-x="1180" 
d="M95 0v1072h292v-176h6q42 94 125 146t202 52q176 0 273 -106.5t97 -295.5v-692h-292v632q0 106 -50 163t-147 57q-98 0 -156 -65t-58 -171v-616h-292z" />
    <glyph glyph-name="o" unicode="o" horiz-adv-x="1173" 
d="M587 -22q-246 0 -388.5 148.5t-142.5 409.5v2q0 257 144 406.5t386 149.5q243 0 387.5 -149t144.5 -407v-2q0 -261 -143 -409.5t-388 -148.5zM588 207q108 0 170.5 87t62.5 242v2q0 154 -63.5 240.5t-171.5 86.5q-107 0 -170 -86.5t-63 -240.5v-2q0 -156 63 -242.5
t172 -86.5z" />
    <glyph glyph-name="p" unicode="p" horiz-adv-x="1215" 
d="M95 -350v1422h292v-187h7q44 99 129 154t198 55q204 0 321 -148t117 -409v-1q0 -260 -116.5 -409t-317.5 -149q-114 0 -201 54.5t-131 150.5h-6v-533h-292zM625 220q109 0 173 85t64 231v1q0 146 -64 230.5t-173 84.5q-107 0 -173 -86t-66 -230v-1q0 -144 66 -229.5
t173 -85.5z" />
    <glyph glyph-name="q" unicode="q" horiz-adv-x="1214" 
d="M827 -350v530h-6q-42 -94 -129 -147.5t-202 -53.5q-201 0 -317.5 149t-116.5 409v1q0 259 117.5 407t321.5 148q111 0 196.5 -55.5t129.5 -152.5h6v187h292v-1422h-292zM591 221q108 0 172.5 85.5t64.5 229.5v1q0 144 -65 229t-172 85q-109 0 -173.5 -84.5t-64.5 -228.5
v-1q0 -146 64 -231t174 -85z" />
    <glyph glyph-name="r" unicode="r" horiz-adv-x="745" 
d="M95 0v1072h292v-187h6q24 100 87.5 154.5t156.5 54.5q44 0 84 -11v-257q-38 16 -106 16q-109 0 -168.5 -63t-59.5 -179v-600h-292z" />
    <glyph glyph-name="s" unicode="s" horiz-adv-x="1054" 
d="M536 -22q-217 0 -342 91.5t-143 248.5l-1 9h285l2 -9q30 -133 199 -133q82 0 129.5 30t47.5 82v1q0 44 -32 70t-109 43l-182 38q-313 66 -313 308v1q0 153 122 244.5t327 91.5q207 0 326.5 -96t124.5 -243v-10h-269l-1 8q-8 60 -55.5 97.5t-125.5 37.5q-75 0 -119.5 -31
t-44.5 -83v-1q0 -43 33 -70t112 -44l182 -39q167 -35 241.5 -104.5t74.5 -188.5v-1q0 -157 -130.5 -252.5t-338.5 -95.5z" />
    <glyph glyph-name="t" unicode="t" horiz-adv-x="728" 
d="M521 -22q-181 0 -265.5 76t-84.5 246v552h-149v220h149v262h295v-262h196v-220h-196v-520q0 -73 32.5 -103.5t100.5 -30.5q18 0 63 5v-214q-73 -11 -141 -11z" />
    <glyph glyph-name="u" unicode="u" horiz-adv-x="1180" 
d="M460 -22q-176 0 -273 106.5t-97 295.5v692h292v-631q0 -106 50 -163.5t147 -57.5q98 0 156 65t58 171v616h292v-1072h-292v177h-6q-42 -95 -125 -147t-202 -52z" />
    <glyph glyph-name="v" unicode="v" horiz-adv-x="1082" 
d="M378 0l-371 1072h312l224 -814h6l221 814h305l-368 -1072h-329z" />
    <glyph glyph-name="w" unicode="w" horiz-adv-x="1618" 
d="M304 0l-285 1072h294l162 -795h6l190 795h280l191 -795h6l163 795h288l-284 -1072h-311l-194 758h-6l-193 -758h-307z" />
    <glyph glyph-name="x" unicode="x" horiz-adv-x="1081" 
d="M22 0l336 534l-334 538h329l193 -362h6l190 362h318l-335 -530l332 -542h-317l-204 372h-6l-201 -372h-307z" />
    <glyph glyph-name="y" unicode="y" horiz-adv-x="1104" 
d="M263 -353q-75 0 -149 13v217q52 -10 98 -10q67 0 104.5 22t56.5 76l13 35l-379 1072h321l226 -838h8l227 838h308l-368 -1091q-61 -184 -171 -259t-295 -75z" />
    <glyph glyph-name="z" unicode="z" horiz-adv-x="1035" 
d="M75 0v166l539 681v5h-531v220h865v-185l-507 -661v-6h519v-220h-885z" />
    <glyph glyph-name="braceleft" unicode="{" horiz-adv-x="782" 
d="M683 -350q-222 0 -322 90t-100 288v177q0 110 -53.5 156t-182.5 48v278q129 1 182.5 47t53.5 157v179q0 196 99 284.5t323 88.5h74v-212h-44q-94 0 -134 -44.5t-40 -150.5v-223q0 -108 -67 -171.5t-195 -77.5v-32q128 -14 195 -77.5t67 -171.5v-226q0 -106 40 -150.5
t134 -44.5h44v-212h-74z" />
    <glyph glyph-name="bar" unicode="|" horiz-adv-x="495" 
d="M120 -350v1793h255v-1793h-255z" />
    <glyph glyph-name="braceright" unicode="}" horiz-adv-x="782" 
d="M99 -350h-74v212h44q94 0 134 44.5t40 150.5v226q0 108 67 171.5t195 77.5v32q-128 14 -195 77.5t-67 171.5v223q0 106 -39.5 150.5t-134.5 44.5h-44v212h74q224 0 323.5 -88.5t99.5 -284.5v-179q0 -111 53.5 -157t181.5 -47v-278q-128 -2 -181.5 -48t-53.5 -156v-177
q0 -198 -100.5 -288t-322.5 -90z" />
    <glyph glyph-name="asciitilde" unicode="~" horiz-adv-x="1325" 
d="M927 401q-79 0 -177.5 28t-192.5 56t-162 28q-173 0 -262 -94v253q105 100 266 100q78 0 176.5 -28t192.5 -56t163 -28q171 0 262 94v-253q-107 -100 -266 -100z" />
    <glyph glyph-name="nonbreakingspace" unicode="&#xa0;" horiz-adv-x="405" 
 />
    <glyph glyph-name="exclamationmarkinverted" unicode="&#xa1;" horiz-adv-x="648" 
d="M324 1084q68 0 115.5 -45.5t47.5 -111.5t-47.5 -111t-115.5 -45t-115.5 45t-47.5 111t47.5 111.5t115.5 45.5zM450 587l24 -958h-300l24 958h252z" />
    <glyph glyph-name="centsign" unicode="&#xa2;" horiz-adv-x="1325" 
d="M639 0v161q-227 17 -358.5 166t-131.5 396v1q0 247 131.5 395.5t358.5 165.5v158h100v-158q191 -13 311.5 -124t141.5 -285l1 -13h-269l-2 8q-15 76 -62 124t-121 59v-662q74 11 121 59t62 124l2 9h269l-2 -13q-20 -174 -140.5 -285.5t-311.5 -124.5v-161h-100zM440 723
q-1 -146 51 -229t148 -101v660q-199 -38 -199 -329v-1z" />
    <glyph glyph-name="sterlingsign" unicode="&#xa3;" horiz-adv-x="1325" 
d="M118 30v226q251 40 251 283q0 49 -13 112h-246v148h212q-28 121 -28 196q0 202 144.5 314.5t394.5 112.5q95 0 182 -14.5t138 -36.5v-230q-120 46 -274 46q-139 0 -214.5 -57t-75.5 -166q0 -63 23 -165h460v-148h-427q10 -55 10 -105q0 -102 -36.5 -164.5t-112.5 -104.5
v-6h712v-241h-1100z" />
    <glyph glyph-name="currencysign" unicode="&#xa4;" horiz-adv-x="1325" 
d="M1067 722l-1 -2q1 -112 -56 -208l173 -172l-138 -138l-173 172q-95 -57 -208 -57h-2q-116 0 -209 56l-172 -171l-138 138l172 171q-56 95 -56 209v2q0 114 56 209l-172 172l138 138l172 -172q95 56 209 56h2q115 0 208 -56l173 172l138 -138l-173 -172q57 -97 57 -209z
M869 722q0 86 -59.5 145.5t-145.5 59.5h-2q-86 0 -145.5 -59.5t-59.5 -145.5v-1q0 -86 59.5 -145.5t145.5 -59.5h2q86 0 145.5 59.5t59.5 145.5v1z" />
    <glyph glyph-name="yensign" unicode="&#xa5;" horiz-adv-x="1325" 
d="M191 238v100h331v165h-331v100h299l-451 810h319l310 -597h7l309 597h314l-451 -810h299v-100h-330v-165h330v-100h-330v-208h-294v208h-331z" />
    <glyph glyph-name="brokenbar" unicode="&#xa6;" horiz-adv-x="495" 
d="M375 1444v-777h-255v777h255zM120 -350v777h255v-777h-255z" />
    <glyph glyph-name="section" unicode="&#xa7;" horiz-adv-x="1323" 
d="M662 -286q-197 0 -325 88.5t-140 230.5l-1 12h274l1 -5q10 -55 63 -88t130 -33q82 0 132 33.5t50 89.5v2q0 45 -37.5 77.5t-117.5 54.5l-189 57q-167 48 -243 120.5t-76 180.5v3q0 87 60.5 158t158.5 97v15q-110 50 -159 121.5t-49 169.5v2q1 150 128.5 241.5t336.5 91.5
q194 0 319 -85.5t141 -227.5l2 -13h-272l-1 7q-11 53 -60.5 83.5t-124.5 30.5q-80 0 -130 -34.5t-51 -88.5v-2q0 -46 36 -79t115 -55l189 -57q166 -48 242 -119.5t76 -175.5v-2q0 -92 -60 -164.5t-159 -97.5v-16q112 -50 161.5 -120.5t49.5 -167.5v-2q0 -150 -129.5 -241.5
t-340.5 -91.5zM607 441l116 -37q65 18 104.5 58t39.5 93v2q0 105 -150 147l-118 36q-63 -17 -102 -57.5t-39 -92.5v-2q0 -104 149 -147z" />
    <glyph glyph-name="dieresis" unicode="&#xa8;" horiz-adv-x="1024" 
d="M296 1214q-60 0 -102 41t-42 99t42 99t102 41t102 -41t42 -99t-42 -99t-102 -41zM728 1214q-60 0 -101.5 41t-41.5 99t41.5 99t101.5 41q61 0 102.5 -41t41.5 -99t-41.5 -99t-102.5 -41z" />
    <glyph glyph-name="copyright" unicode="&#xa9;" horiz-adv-x="1749" 
d="M1675 726v-8q0 -164 -62.5 -312t-168.5 -254t-253.5 -168t-311.5 -62h-8q-164 0 -312 62t-254 168t-168 254t-62 312v8q0 164 62 311.5t168 253.5t254 168.5t312 62.5h8q164 0 311.5 -62.5t253.5 -168.5t168.5 -253.5t62.5 -311.5zM1518 726q0 176 -84.5 323
t-231.5 231.5t-323 84.5h-8q-176 0 -323 -84.5t-231.5 -231.5t-84.5 -323v-8q0 -176 84.5 -323t231.5 -231.5t323 -84.5h8q176 0 323 84.5t231.5 231.5t84.5 323v8zM886 362q-168 0 -263.5 94.5t-95.5 265.5t96 265t263 94q148 0 241.5 -85t94.5 -211v-4h-199v5
q-6 52 -42 85t-95 33q-69 0 -108.5 -47.5t-39.5 -133.5q0 -88 39.5 -136t109.5 -48q56 0 93 32t44 86v5h199v-5q-2 -126 -96 -210.5t-241 -84.5z" />
    <glyph glyph-name="a.sups" unicode="&#xaa;" horiz-adv-x="762" 
d="M273 794q-100 0 -162.5 54.5t-62.5 138.5v1q0 90 68.5 140.5t197.5 58.5l157 10v31q0 35 -25.5 54.5t-72.5 19.5q-45 0 -73 -16t-33 -42l-1 -5h-186l1 7q7 96 87 153.5t215 57.5q132 0 212.5 -60t80.5 -157v-437h-205v90h-4q-60 -99 -194 -99zM250 1001q0 -29 25 -45
t68 -16q55 0 91.5 26t36.5 66v43l-125 -8q-96 -6 -96 -65v-1z" />
    <glyph glyph-name="guillemetleft" unicode="&#xab;" horiz-adv-x="1349" 
d="M464 146l-351 415v8l351 416h273l-352 -414v-10l352 -415h-273zM964 146l-352 415v8l352 416h273l-352 -414v-10l352 -415h-273z" />
    <glyph glyph-name="logicalnot" unicode="&#xac;" horiz-adv-x="1325" 
d="M133 459v255h1060v-639h-255v384h-805z" />
    <glyph glyph-name="registered" unicode="&#xae;" horiz-adv-x="1319" 
d="M1245 887v-7q0 -160 -77 -294t-210.5 -211t-293.5 -77h-7q-121 0 -229 45.5t-185 123t-122.5 185.5t-45.5 228v7q0 120 45.5 228t122.5 185t185 122.5t229 45.5h7q160 0 293.5 -76.5t210.5 -210.5t77 -294zM1097 887q0 181 -125.5 307t-307.5 126h-7q-182 0 -308 -125.5
t-126 -307.5v-7q0 -182 126 -308t308 -126h7q182 0 307.5 126t125.5 308v7zM400 591v584h284q124 0 188 -53t64 -157v-1q0 -52 -26 -97.5t-68 -67.5l112 -208h-221l-91 177h-44v-177h-198zM598 911h63q33 0 53.5 16t20.5 40t-21 40.5t-52 16.5h-64v-113z" />
    <glyph glyph-name="macron" unicode="&#xaf;" horiz-adv-x="1024" 
d="M192 1263v181h640v-181h-640z" />
    <glyph glyph-name="degree" unicode="&#xb0;" horiz-adv-x="920" 
d="M460 725q-151 0 -251.5 98.5t-100.5 246.5v1q1 148 101 246.5t251 98.5t251.5 -98.5t100.5 -246.5v-1q0 -148 -100.5 -246.5t-251.5 -98.5zM460 933q57 0 95.5 39.5t38.5 97.5v1q0 59 -38.5 98t-95.5 39q-56 0 -95 -39t-39 -98v-1q0 -58 39 -97.5t95 -39.5z" />
    <glyph glyph-name="plusminus" unicode="&#xb1;" horiz-adv-x="1325" 
d="M166 606v255h372v275h250v-275h372v-255h-372v-275h-250v275h-372zM166 37v219h994v-219h-994z" />
    <glyph glyph-name="two.sups" unicode="&#xb2;" horiz-adv-x="691" 
d="M55 803v147l271 214q68 52 91 82.5t23 62.5v1q-1 34 -28 55t-70 21q-49 0 -78 -24t-32 -64l-1 -6h-189v5q0 111 83.5 180t216.5 69q134 0 215.5 -61t81.5 -161v-1q0 -71 -37.5 -122t-136.5 -125l-141 -110h325v-163h-594z" />
    <glyph glyph-name="three.sups" unicode="&#xb3;" horiz-adv-x="721" 
d="M356 790q-137 0 -223 62t-94 165l-1 6h198l1 -6q4 -25 36 -42.5t83 -17.5t81 20t30 52v1q0 76 -128 76h-82v142h82q54 0 85 19t31 52v1q0 32 -27 50t-73 18q-48 0 -77.5 -18t-33.5 -48v-5h-188v8q8 101 88.5 161t210.5 60q133 0 212.5 -53.5t79.5 -142.5v-1
q0 -65 -45 -108.5t-113 -55.5v-5q87 -8 138 -51t51 -113v-1q0 -104 -86.5 -164.5t-235.5 -60.5z" />
    <glyph glyph-name="acute" unicode="&#xb4;" horiz-adv-x="1024" 
d="M490 1192h-198l180 342h261z" />
    <glyph glyph-name="mu.grek" unicode="&#x3bc;" horiz-adv-x="1284" 
d="M95 -350v1422h292v-626q0 -226 197 -226q102 0 158 64.5t56 171.5v616h292v-750q0 -66 21 -92.5t67 -26.5q32 0 59 9v-216q-54 -18 -142 -18q-110 0 -176 42.5t-94 134.5l-6 19h-5q-34 -94 -100.5 -145t-152.5 -51q-55 0 -99.5 22t-66.5 57h-5v-407h-295z" />
    <glyph glyph-name="mu.grek" unicode="&#xb5;" horiz-adv-x="1284" 
d="M95 -350v1422h292v-626q0 -226 197 -226q102 0 158 64.5t56 171.5v616h292v-750q0 -66 21 -92.5t67 -26.5q32 0 59 9v-216q-54 -18 -142 -18q-110 0 -176 42.5t-94 134.5l-6 19h-5q-34 -94 -100.5 -145t-152.5 -51q-55 0 -99.5 22t-66.5 57h-5v-407h-295z" />
    <glyph glyph-name="paragraph" unicode="&#xb6;" horiz-adv-x="1323" 
d="M586 -255v898h-18q-191 0 -319 113.5t-129 281.5v2q0 175 126 289t323 114h242v-1698h-225zM978 -255v1698h225v-1698h-225z" />
    <glyph glyph-name="middledot" unicode="&#xb7;" horiz-adv-x="493" 
d="M247 425q-68 0 -115 47t-47 115t47 115t115 47q67 0 114.5 -47.5t47.5 -114.5q0 -68 -47 -115t-115 -47z" />
    <glyph glyph-name="cedilla" unicode="&#xb8;" horiz-adv-x="1024" 
d="M496 -475q-113 0 -168 24v140q42 -14 100 -14q93 0 93 55v2q0 62 -108 62h-38v87l86 137h153v-18l-51 -82q85 -8 133.5 -58t48.5 -136v-2q0 -90 -69.5 -143.5t-179.5 -53.5z" />
    <glyph glyph-name="one.sups" unicode="&#xb9;" horiz-adv-x="550" 
d="M237 803v545h-4l-190 -118v181l194 122h207v-730h-207z" />
    <glyph glyph-name="o.sups" unicode="&#xba;" horiz-adv-x="797" 
d="M398 789q-158 0 -248 88t-90 245v1q0 155 91.5 244.5t246.5 89.5t246.5 -89t91.5 -245v-1q0 -157 -90.5 -245t-247.5 -88zM398 949q60 0 95 45.5t35 127.5v1q0 82 -35 128t-95 46t-95 -46t-35 -128v-1q0 -82 34.5 -127.5t95.5 -45.5z" />
    <glyph glyph-name="guillemetright" unicode="&#xbb;" horiz-adv-x="1349" 
d="M885 985l352 -415v-8l-352 -416h-273l352 414v10l-352 415h273zM386 985l351 -415v-8l-351 -416h-273l352 414v10l-352 415h273z" />
    <glyph glyph-name="onequarter" unicode="&#xbc;" horiz-adv-x="1538" 
d="M237 713v545h-4l-190 -118v181l194 122h207v-730h-207zM403 0h-223l913 1443h222zM1214 0v115h-378v174l287 441h287v-449h96v-166h-96v-115h-196zM1008 273h212v313h-4l-208 -307v-6z" />
    <glyph glyph-name="onehalf" unicode="&#xbd;" horiz-adv-x="1601" 
d="M237 713v545h-4l-190 -118v181l194 122h207v-730h-207zM403 0h-223l913 1443h222zM965 0v148l271 213q69 53 91.5 83.5t22.5 62.5v1q-1 33 -28 54.5t-70 21.5q-49 0 -78 -24t-32 -64l-1 -6h-189v5q0 111 83.5 179.5t216.5 68.5q134 0 215.5 -61t81.5 -161v-1
q0 -71 -37.5 -122t-136.5 -125l-141 -110h325v-163h-594z" />
    <glyph glyph-name="threequarters" unicode="&#xbe;" horiz-adv-x="1720" 
d="M356 700q-137 0 -223 62t-94 165l-1 7h198l1 -6q4 -25 36 -42.5t83 -17.5t81 20t30 52v1q0 75 -128 75h-82v142h82q54 0 85 19t31 53v1q0 32 -27 50t-73 18q-48 0 -77.5 -18.5t-33.5 -48.5v-4h-188v8q8 101 88.5 160.5t210.5 59.5q134 0 213 -53t79 -142v-1
q0 -66 -45 -109t-113 -56v-4q88 -9 138.5 -52.5t50.5 -112.5v-1q0 -104 -86.5 -164.5t-235.5 -60.5zM574 0h-223l913 1443h222zM1396 0v115h-378v174l287 441h287v-449h96v-166h-96v-115h-196zM1190 273h212v313h-4l-208 -307v-6z" />
    <glyph glyph-name="questionmarkinverted" unicode="&#xbf;" horiz-adv-x="1093" 
d="M591 1084q68 0 115.5 -45.5t47.5 -111.5t-47.5 -111t-115.5 -45t-115.5 45t-47.5 111t47.5 111.5t115.5 45.5zM728 606l2 -58q7 -107 -35.5 -180.5t-145.5 -134.5q-97 -57 -132.5 -103t-35.5 -116v-2q0 -72 53 -117.5t137 -45.5q85 0 138.5 49.5t58.5 127.5v8h272l-1 -9
q-6 -182 -134 -295t-351 -113q-213 0 -344 107t-131 279v2q0 111 53 192.5t160 144.5q100 58 135.5 104.5t35.5 117.5v42h265z" />
    <glyph glyph-name="Agrave" unicode="&#xc0;" horiz-adv-x="1418" 
d="M645 1562l-236 330h256l174 -330h-194zM28 0l504 1443h355l503 -1443h-317l-109 350h-510l-109 -350h-317zM706 1163l-182 -587h370l-182 587h-6z" />
    <glyph glyph-name="Aacute" unicode="&#xc1;" horiz-adv-x="1418" 
d="M784 1562h-194l174 330h256zM28 0l504 1443h355l503 -1443h-317l-109 350h-510l-109 -350h-317zM706 1163l-182 -587h370l-182 587h-6z" />
    <glyph glyph-name="Acircumflex" unicode="&#xc2;" horiz-adv-x="1418" 
d="M361 1562l230 330h234l233 -330h-208l-143 200l-138 -200h-208zM28 0l504 1443h355l503 -1443h-317l-109 350h-510l-109 -350h-317zM706 1163l-182 -587h370l-182 587h-6z" />
    <glyph glyph-name="Atilde" unicode="&#xc3;" horiz-adv-x="1418" 
d="M857 1557q-69 0 -139 47l-42 29q-53 37 -84 37q-60 0 -60 -109v-5h-158v14q0 143 50 216t136 73q71 0 137 -48l43 -28q53 -37 85 -37q60 0 60 109v5h158v-15q0 -142 -48.5 -215t-137.5 -73zM28 0l504 1443h355l503 -1443h-317l-109 350h-510l-109 -350h-317zM706 1163
l-182 -587h370l-182 587h-6z" />
    <glyph glyph-name="Adieresis" unicode="&#xc4;" horiz-adv-x="1418" 
d="M500 1578q-60 0 -101 41t-41 98t41 97.5t101 40.5t101 -40.5t41 -97.5q0 -58 -41 -98.5t-101 -40.5zM919 1578q-60 0 -101 41t-41 98t41 97.5t101 40.5t101 -40.5t41 -97.5t-41 -98t-101 -41zM28 0l504 1443h355l503 -1443h-317l-109 350h-510l-109 -350h-317zM706 1163
l-182 -587h370l-182 587h-6z" />
    <glyph glyph-name="Aring" unicode="&#x212b;" horiz-adv-x="1418" 
d="M715 1527q-85 0 -145 57.5t-60 141.5v1q0 84 60 141.5t145 57.5q84 0 144.5 -57.5t60.5 -141.5v-1q0 -84 -60.5 -141.5t-144.5 -57.5zM715 1648q33 0 56.5 22.5t23.5 55.5v1q0 33 -23.5 56t-56.5 23t-56.5 -23t-23.5 -56v-1q0 -33 23.5 -55.5t56.5 -22.5zM28 0l504 1443
h355l503 -1443h-317l-109 350h-510l-109 -350h-317zM706 1163l-182 -587h370l-182 587h-6z" />
    <glyph glyph-name="Aring" unicode="&#xc5;" horiz-adv-x="1418" 
d="M715 1527q-85 0 -145 57.5t-60 141.5v1q0 84 60 141.5t145 57.5q84 0 144.5 -57.5t60.5 -141.5v-1q0 -84 -60.5 -141.5t-144.5 -57.5zM715 1648q33 0 56.5 22.5t23.5 55.5v1q0 33 -23.5 56t-56.5 23t-56.5 -23t-23.5 -56v-1q0 -33 23.5 -55.5t56.5 -22.5zM28 0l504 1443
h355l503 -1443h-317l-109 350h-510l-109 -350h-317zM706 1163l-182 -587h370l-182 587h-6z" />
    <glyph glyph-name="AE" unicode="&#xc6;" horiz-adv-x="2008" 
d="M28 0l643 1443h1240v-249h-669v-353h632v-232h-632v-360h669v-249h-945v373h-474l-163 -373h-301zM860 1211l-268 -612h374v612h-106z" />
    <glyph glyph-name="Ccedilla" unicode="&#xc7;" horiz-adv-x="1459" 
d="M746 -475q-113 0 -168 24v140q42 -14 100 -14q93 0 93 55v2q0 62 -108 62h-38v87l61 97q-285 24 -448 221t-163 523v1q0 347 185 546t502 199q260 0 434 -147.5t195 -379.5l1 -9h-294l-4 17q-26 122 -112.5 192.5t-219.5 70.5q-174 0 -276.5 -131t-102.5 -357v-1
q0 -227 102.5 -359.5t276.5 -132.5q130 0 218 71t117 200l2 10h294l-1 -11q-20 -210 -167 -353t-373 -168l-39 -62q85 -8 133.5 -58t48.5 -136v-2q0 -90 -69.5 -143.5t-179.5 -53.5z" />
    <glyph glyph-name="Egrave" unicode="&#xc8;" horiz-adv-x="1174" 
d="M534 1562l-236 330h256l174 -330h-194zM120 0v1443h956v-249h-654v-346h617v-236h-617v-363h654v-249h-956z" />
    <glyph glyph-name="Eacute" unicode="&#xc9;" horiz-adv-x="1174" 
d="M673 1562h-194l174 330h256zM120 0v1443h956v-249h-654v-346h617v-236h-617v-363h654v-249h-956z" />
    <glyph glyph-name="Ecircumflex" unicode="&#xca;" horiz-adv-x="1174" 
d="M250 1562l230 330h234l233 -330h-208l-143 200l-138 -200h-208zM120 0v1443h956v-249h-654v-346h617v-236h-617v-363h654v-249h-956z" />
    <glyph glyph-name="Edieresis" unicode="&#xcb;" horiz-adv-x="1174" 
d="M389 1578q-60 0 -101 41t-41 98t41 97.5t101 40.5t101 -40.5t41 -97.5q0 -58 -41 -98.5t-101 -40.5zM808 1578q-60 0 -101 41t-41 98t41 97.5t101 40.5t101 -40.5t41 -97.5t-41 -98t-101 -41zM120 0v1443h956v-249h-654v-346h617v-236h-617v-363h654v-249h-956z" />
    <glyph glyph-name="Igrave" unicode="&#xcc;" horiz-adv-x="542" 
d="M207 1562l-236 330h256l174 -330h-194zM120 0v1443h302v-1443h-302z" />
    <glyph glyph-name="Iacute" unicode="&#xcd;" horiz-adv-x="542" 
d="M346 1562h-194l174 330h256zM120 0v1443h302v-1443h-302z" />
    <glyph glyph-name="Icircumflex" unicode="&#xce;" horiz-adv-x="542" 
d="M-77 1562l230 330h234l233 -330h-208l-143 200l-138 -200h-208zM120 0v1443h302v-1443h-302z" />
    <glyph glyph-name="Idieresis" unicode="&#xcf;" horiz-adv-x="542" 
d="M62 1578q-60 0 -101 41t-41 98t41 97.5t101 40.5t101 -40.5t41 -97.5q0 -58 -41 -98.5t-101 -40.5zM481 1578q-60 0 -101 41t-41 98t41 97.5t101 40.5t101 -40.5t41 -97.5t-41 -98t-101 -41zM120 0v1443h302v-1443h-302z" />
    <glyph glyph-name="Dstroke" unicode="&#x110;" horiz-adv-x="1473" 
d="M160 0v624h-120v195h120v624h551q326 0 507 -186.5t181 -527.5v-2q0 -343 -181.5 -535t-506.5 -192h-551zM462 250h213q202 0 309 121.5t107 354.5v2q0 225 -108.5 345.5t-307.5 120.5h-213v-375h218v-195h-218v-374z" />
    <glyph glyph-name="Dstroke" unicode="&#xd0;" horiz-adv-x="1473" 
d="M160 0v624h-120v195h120v624h551q326 0 507 -186.5t181 -527.5v-2q0 -343 -181.5 -535t-506.5 -192h-551zM462 250h213q202 0 309 121.5t107 354.5v2q0 225 -108.5 345.5t-307.5 120.5h-213v-375h218v-195h-218v-374z" />
    <glyph glyph-name="Ntilde" unicode="&#xd1;" horiz-adv-x="1463" 
d="M880 1557q-71 0 -139 47l-43 29q-51 37 -83 37q-60 0 -60 -109v-5h-158v14q0 143 50 216t136 73q69 0 137 -48l42 -28q55 -37 86 -37q60 0 60 109v5h158v-15q0 -142 -49 -215t-137 -73zM120 0v1443h264l652 -938h6v938h301v-1443h-262l-654 945h-6v-945h-301z" />
    <glyph glyph-name="Ograve" unicode="&#xd2;" horiz-adv-x="1541" 
d="M707 1562l-237 330h256l175 -330h-194zM771 -25q-322 0 -509 201t-187 545v2q0 344 187.5 544.5t508.5 200.5t508.5 -200.5t187.5 -544.5v-2q0 -344 -187 -545t-509 -201zM771 231q179 0 283.5 132.5t104.5 357.5v2q0 225 -105 357t-283 132t-283 -131.5t-105 -357.5v-2
q0 -226 105 -358t283 -132z" />
    <glyph glyph-name="Oacute" unicode="&#xd3;" horiz-adv-x="1541" 
d="M845 1562h-194l175 330h256zM771 -25q-322 0 -509 201t-187 545v2q0 344 187.5 544.5t508.5 200.5t508.5 -200.5t187.5 -544.5v-2q0 -344 -187 -545t-509 -201zM771 231q179 0 283.5 132.5t104.5 357.5v2q0 225 -105 357t-283 132t-283 -131.5t-105 -357.5v-2
q0 -226 105 -358t283 -132z" />
    <glyph glyph-name="Ocircumflex" unicode="&#xd4;" horiz-adv-x="1541" 
d="M422 1562l231 330h234l232 -330h-208l-143 200l-138 -200h-208zM771 -25q-322 0 -509 201t-187 545v2q0 344 187.5 544.5t508.5 200.5t508.5 -200.5t187.5 -544.5v-2q0 -344 -187 -545t-509 -201zM771 231q179 0 283.5 132.5t104.5 357.5v2q0 225 -105 357t-283 132
t-283 -131.5t-105 -357.5v-2q0 -226 105 -358t283 -132z" />
    <glyph glyph-name="Otilde" unicode="&#xd5;" horiz-adv-x="1541" 
d="M919 1557q-71 0 -139 47l-43 29q-51 37 -83 37q-60 0 -60 -109v-5h-158v14q0 143 50 216t136 73q69 0 137 -48l42 -28q55 -37 86 -37q60 0 60 109v5h158v-15q0 -142 -48.5 -215t-137.5 -73zM771 -25q-322 0 -509 201t-187 545v2q0 344 187.5 544.5t508.5 200.5
t508.5 -200.5t187.5 -544.5v-2q0 -344 -187 -545t-509 -201zM771 231q179 0 283.5 132.5t104.5 357.5v2q0 225 -105 357t-283 132t-283 -131.5t-105 -357.5v-2q0 -226 105 -358t283 -132z" />
    <glyph glyph-name="Odieresis" unicode="&#xd6;" horiz-adv-x="1541" 
d="M562 1578q-60 0 -101 41t-41 98t41 97.5t101 40.5t101 -40.5t41 -97.5t-41 -98t-101 -41zM980 1578q-60 0 -101 41t-41 98t41 97.5t101 40.5t101 -40.5t41 -97.5q0 -58 -41 -98.5t-101 -40.5zM771 -25q-322 0 -509 201t-187 545v2q0 344 187.5 544.5t508.5 200.5
t508.5 -200.5t187.5 -544.5v-2q0 -344 -187 -545t-509 -201zM771 231q179 0 283.5 132.5t104.5 357.5v2q0 225 -105 357t-283 132t-283 -131.5t-105 -357.5v-2q0 -226 105 -358t283 -132z" />
    <glyph glyph-name="multiply" unicode="&#xd7;" horiz-adv-x="1325" 
d="M145 955l167 171l351 -367l351 367l167 -171l-353 -369l353 -368l-167 -171l-351 366l-351 -366l-167 171l352 368z" />
    <glyph glyph-name="Ostroke" unicode="&#xd8;" horiz-adv-x="1532" 
d="M766 -25q-259 0 -434 135l-150 -169l-118 105l157 178q-146 192 -146 497v2q0 344 186.5 544.5t504.5 200.5q257 0 434 -135l150 170l118 -105l-157 -179q146 -194 146 -496v-2q0 -344 -186 -545t-505 -201zM364 721q0 -158 54 -274l600 680q-102 90 -252 90
q-184 0 -293 -133t-109 -361v-2zM766 226q186 0 294 134t108 361l-1 2q1 156 -53 273l-600 -680q102 -90 252 -90z" />
    <glyph glyph-name="Ugrave" unicode="&#xd9;" horiz-adv-x="1449" 
d="M661 1562l-237 330h256l175 -330h-194zM725 -25q-276 0 -440.5 146.5t-164.5 388.5v933h302v-906q0 -142 79.5 -224t223.5 -82t223 82t79 224v906h302v-933q0 -242 -163.5 -388.5t-440.5 -146.5z" />
    <glyph glyph-name="Uacute" unicode="&#xda;" horiz-adv-x="1449" 
d="M799 1562h-194l175 330h256zM725 -25q-276 0 -440.5 146.5t-164.5 388.5v933h302v-906q0 -142 79.5 -224t223.5 -82t223 82t79 224v906h302v-933q0 -242 -163.5 -388.5t-440.5 -146.5z" />
    <glyph glyph-name="Ucircumflex" unicode="&#xdb;" horiz-adv-x="1449" 
d="M376 1562l231 330h234l232 -330h-208l-143 200l-138 -200h-208zM725 -25q-276 0 -440.5 146.5t-164.5 388.5v933h302v-906q0 -142 79.5 -224t223.5 -82t223 82t79 224v906h302v-933q0 -242 -163.5 -388.5t-440.5 -146.5z" />
    <glyph glyph-name="Udieresis" unicode="&#xdc;" horiz-adv-x="1449" 
d="M516 1578q-60 0 -101 41t-41 98t41 97.5t101 40.5t101 -40.5t41 -97.5t-41 -98t-101 -41zM934 1578q-60 0 -101 41t-41 98t41 97.5t101 40.5t101 -40.5t41 -97.5q0 -58 -41 -98.5t-101 -40.5zM725 -25q-276 0 -440.5 146.5t-164.5 388.5v933h302v-906q0 -142 79.5 -224
t223.5 -82t223 82t79 224v906h302v-933q0 -242 -163.5 -388.5t-440.5 -146.5z" />
    <glyph glyph-name="Yacute" unicode="&#xdd;" horiz-adv-x="1362" 
d="M756 1562h-194l174 330h256zM530 0v539l-502 904h326l324 -616h7l323 616h327l-503 -904v-539h-302z" />
    <glyph glyph-name="Thorn" unicode="&#xde;" horiz-adv-x="1330" 
d="M151 0v1443h304l-1 -235h308q136 0 243.5 -54t169.5 -158.5t62 -243.5v-2q0 -209 -137.5 -332.5t-352.5 -123.5h-294v-294h-302zM678 969h-224v-439h223q117 0 184.5 56t67.5 163v2q0 106 -67 162t-184 56z" />
    <glyph glyph-name="germandbls" unicode="&#xdf;" horiz-adv-x="1282" 
d="M735 -18q-110 0 -178 17v228q62 -16 128 -16q106 0 166.5 54t60.5 144v1q0 97 -68.5 155t-190.5 58h-74v224h49q83 0 132.5 54.5t49.5 141.5v1q0 85 -52 136t-142 51q-100 0 -154 -57.5t-54 -161.5v-1012h-292v1060q0 188 132.5 296.5t358.5 108.5q217 0 352.5 -107
t135.5 -282v-1q0 -111 -61 -196t-161 -111v-6q151 -14 243.5 -114t92.5 -254v-1q0 -189 -128 -300t-346 -111z" />
    <glyph glyph-name="agrave" unicode="&#xe0;" horiz-adv-x="1121" 
d="M498 1192l-246 342h259l183 -342h-196zM414 -17q-160 0 -260 90.5t-100 233.5v2q0 146 108 229.5t309 96.5l265 16v66q0 72 -45.5 113t-130.5 41q-79 0 -128.5 -33t-60.5 -87l-2 -9h-267l1 12q12 152 136.5 246t332.5 94q207 0 331.5 -98.5t124.5 -260.5v-735h-292v160
h-6q-46 -83 -128.5 -130t-187.5 -47zM343 322q0 -59 45 -92.5t121 -33.5q98 0 162.5 56t64.5 140v77l-221 -14q-84 -5 -128 -39t-44 -92v-2z" />
    <glyph glyph-name="aacute" unicode="&#xe1;" horiz-adv-x="1121" 
d="M639 1192h-196l182 342h259zM414 -17q-160 0 -260 90.5t-100 233.5v2q0 146 108 229.5t309 96.5l265 16v66q0 72 -45.5 113t-130.5 41q-79 0 -128.5 -33t-60.5 -87l-2 -9h-267l1 12q12 152 136.5 246t332.5 94q207 0 331.5 -98.5t124.5 -260.5v-735h-292v160h-6
q-46 -83 -128.5 -130t-187.5 -47zM343 322q0 -59 45 -92.5t121 -33.5q98 0 162.5 56t64.5 140v77l-221 -14q-84 -5 -128 -39t-44 -92v-2z" />
    <glyph glyph-name="acircumflex" unicode="&#xe2;" horiz-adv-x="1121" 
d="M208 1192l239 342h240l241 -342h-211l-151 209l-147 -209h-211zM414 -17q-160 0 -260 90.5t-100 233.5v2q0 146 108 229.5t309 96.5l265 16v66q0 72 -45.5 113t-130.5 41q-79 0 -128.5 -33t-60.5 -87l-2 -9h-267l1 12q12 152 136.5 246t332.5 94q207 0 331.5 -98.5
t124.5 -260.5v-735h-292v160h-6q-46 -83 -128.5 -130t-187.5 -47zM343 322q0 -59 45 -92.5t121 -33.5q98 0 162.5 56t64.5 140v77l-221 -14q-84 -5 -128 -39t-44 -92v-2z" />
    <glyph glyph-name="atilde" unicode="&#xe3;" horiz-adv-x="1121" 
d="M723 1188q-75 0 -146 51l-43 30q-58 40 -89 40q-62 0 -62 -116v-6h-161v15q0 147 51 222t140 75q74 0 144 -50l44 -30q55 -41 90 -41q62 0 62 116v6h161v-15q0 -146 -50 -221.5t-141 -75.5zM414 -17q-160 0 -260 90.5t-100 233.5v2q0 146 108 229.5t309 96.5l265 16v66
q0 72 -45.5 113t-130.5 41q-79 0 -128.5 -33t-60.5 -87l-2 -9h-267l1 12q12 152 136.5 246t332.5 94q207 0 331.5 -98.5t124.5 -260.5v-735h-292v160h-6q-46 -83 -128.5 -130t-187.5 -47zM343 322q0 -59 45 -92.5t121 -33.5q98 0 162.5 56t64.5 140v77l-221 -14
q-84 -5 -128 -39t-44 -92v-2z" />
    <glyph glyph-name="adieresis" unicode="&#xe4;" horiz-adv-x="1121" 
d="M352 1214q-60 0 -102 41t-42 99t42 99t102 41t102 -41t42 -99t-42 -99t-102 -41zM784 1214q-60 0 -101.5 41t-41.5 99t41.5 99t101.5 41q61 0 102.5 -41t41.5 -99t-41.5 -99t-102.5 -41zM414 -17q-160 0 -260 90.5t-100 233.5v2q0 146 108 229.5t309 96.5l265 16v66
q0 72 -45.5 113t-130.5 41q-79 0 -128.5 -33t-60.5 -87l-2 -9h-267l1 12q12 152 136.5 246t332.5 94q207 0 331.5 -98.5t124.5 -260.5v-735h-292v160h-6q-46 -83 -128.5 -130t-187.5 -47zM343 322q0 -59 45 -92.5t121 -33.5q98 0 162.5 56t64.5 140v77l-221 -14
q-84 -5 -128 -39t-44 -92v-2z" />
    <glyph glyph-name="aring" unicode="&#xe5;" horiz-adv-x="1121" 
d="M568 1174q-91 0 -156 62.5t-65 152.5v1q0 90 65 152.5t156 62.5t156.5 -62.5t65.5 -152.5v-1q0 -90 -65.5 -152.5t-156.5 -62.5zM568 1301q37 0 63.5 25.5t26.5 62.5v1q0 37 -26 62.5t-64 25.5q-37 0 -63 -25.5t-26 -62.5v-1q0 -37 26 -62.5t63 -25.5zM414 -17
q-160 0 -260 90.5t-100 233.5v2q0 146 108 229.5t309 96.5l265 16v66q0 72 -45.5 113t-130.5 41q-79 0 -128.5 -33t-60.5 -87l-2 -9h-267l1 12q12 152 136.5 246t332.5 94q207 0 331.5 -98.5t124.5 -260.5v-735h-292v160h-6q-46 -83 -128.5 -130t-187.5 -47zM343 322
q0 -59 45 -92.5t121 -33.5q98 0 162.5 56t64.5 140v77l-221 -14q-84 -5 -128 -39t-44 -92v-2z" />
    <glyph glyph-name="ae" unicode="&#xe6;" horiz-adv-x="1800" 
d="M462 -22q-187 0 -297.5 90.5t-110.5 238.5v2q0 144 108.5 226.5t314.5 94.5l266 15v59q0 76 -53 122.5t-139 46.5q-75 0 -124.5 -33t-60.5 -87l-2 -9h-267l1 12q13 153 136 245.5t315 92.5q123 0 215.5 -44t137.5 -118h8q112 162 353 162q217 0 349.5 -145t132.5 -391
v-88h-731v-19q0 -115 68 -186t178 -71q84 0 136.5 39t69.5 89l2 6h268l-2 -14q-9 -48 -32 -95t-63.5 -91t-94.5 -77t-129 -53t-161 -20q-132 0 -236 54t-157 149h-9q-58 -97 -158 -150t-232 -53zM1017 648h447v1q0 97 -61.5 163t-160.5 66q-96 0 -158 -66.5t-67 -161.5v-2z
M504 186q101 0 170 59t69 144v79l-230 -15q-85 -5 -132.5 -39.5t-47.5 -91.5v-2q0 -60 48 -97t123 -37z" />
    <glyph glyph-name="ccedilla" unicode="&#xe7;" horiz-adv-x="1116" 
d="M568 -475q-113 0 -168 24v140q42 -14 100 -14q93 0 93 55v2q0 62 -108 62h-38v87l63 101q-212 23 -333 170t-121 385v1q0 257 142.5 406.5t383.5 149.5q214 0 346.5 -116.5t140.5 -294.5v-7h-271l-2 9q-14 80 -68.5 130t-141.5 50q-108 0 -170.5 -87.5t-62.5 -240.5v-1
q0 -156 62.5 -242.5t171.5 -86.5q86 0 140.5 48.5t69.5 131.5l1 9h272v-6q-10 -158 -115.5 -269.5t-278.5 -136.5l-41 -66q85 -8 133.5 -58t48.5 -136v-2q0 -90 -69.5 -143.5t-179.5 -53.5z" />
    <glyph glyph-name="egrave" unicode="&#xe8;" horiz-adv-x="1137" 
d="M508 1192l-246 342h259l183 -342h-196zM583 -22q-245 0 -386 149t-141 407v1q0 256 139.5 407.5t375.5 151.5q234 0 372.5 -146.5t138.5 -390.5v-90h-738q2 -128 67.5 -199.5t177.5 -71.5q84 0 140 37.5t74 88.5l2 6h268l-3 -11q-13 -63 -48 -120.5t-92.5 -108
t-147 -80.5t-199.5 -30zM576 876q-92 0 -153.5 -59t-75.5 -166h455q-13 109 -73 167t-153 58z" />
    <glyph glyph-name="eacute" unicode="&#xe9;" horiz-adv-x="1137" 
d="M649 1192h-196l182 342h259zM583 -22q-245 0 -386 149t-141 407v1q0 256 139.5 407.5t375.5 151.5q234 0 372.5 -146.5t138.5 -390.5v-90h-738q2 -128 67.5 -199.5t177.5 -71.5q84 0 140 37.5t74 88.5l2 6h268l-3 -11q-13 -63 -48 -120.5t-92.5 -108t-147 -80.5
t-199.5 -30zM576 876q-92 0 -153.5 -59t-75.5 -166h455q-13 109 -73 167t-153 58z" />
    <glyph glyph-name="ecircumflex" unicode="&#xea;" horiz-adv-x="1137" 
d="M218 1192l239 342h240l241 -342h-211l-151 209l-147 -209h-211zM583 -22q-245 0 -386 149t-141 407v1q0 256 139.5 407.5t375.5 151.5q234 0 372.5 -146.5t138.5 -390.5v-90h-738q2 -128 67.5 -199.5t177.5 -71.5q84 0 140 37.5t74 88.5l2 6h268l-3 -11
q-13 -63 -48 -120.5t-92.5 -108t-147 -80.5t-199.5 -30zM576 876q-92 0 -153.5 -59t-75.5 -166h455q-13 109 -73 167t-153 58z" />
    <glyph glyph-name="edieresis" unicode="&#xeb;" horiz-adv-x="1137" 
d="M362 1214q-60 0 -102 41t-42 99t42 99t102 41t102 -41t42 -99t-42 -99t-102 -41zM794 1214q-60 0 -101.5 41t-41.5 99t41.5 99t101.5 41q61 0 102.5 -41t41.5 -99t-41.5 -99t-102.5 -41zM583 -22q-245 0 -386 149t-141 407v1q0 256 139.5 407.5t375.5 151.5
q234 0 372.5 -146.5t138.5 -390.5v-90h-738q2 -128 67.5 -199.5t177.5 -71.5q84 0 140 37.5t74 88.5l2 6h268l-3 -11q-13 -63 -48 -120.5t-92.5 -108t-147 -80.5t-199.5 -30zM576 876q-92 0 -153.5 -59t-75.5 -166h455q-13 109 -73 167t-153 58z" />
    <glyph glyph-name="igrave" unicode="&#xec;" horiz-adv-x="493" 
d="M176 1192l-245 342h259l182 -342h-196zM101 0v1072h292v-1072h-292z" />
    <glyph glyph-name="iacute" unicode="&#xed;" horiz-adv-x="493" 
d="M317 1192h-196l183 342h259zM101 0v1072h292v-1072h-292z" />
    <glyph glyph-name="icircumflex" unicode="&#xee;" horiz-adv-x="493" 
d="M-113 1192l239 342h240l241 -342h-211l-152 209l-146 -209h-211zM101 0v1072h292v-1072h-292z" />
    <glyph glyph-name="idieresis" unicode="&#xef;" horiz-adv-x="493" 
d="M31 1214q-60 0 -102 41t-42 99t42 99t102 41t101.5 -41t41.5 -99t-41.5 -99t-101.5 -41zM463 1214q-60 0 -102 41t-42 99t42 99t102 41t102 -41t42 -99t-42 -99t-102 -41zM101 0v1072h292v-1072h-292z" />
    <glyph glyph-name="eth" unicode="&#xf0;" horiz-adv-x="1185" 
d="M593 -22q-169 0 -290.5 70.5t-180 188.5t-58.5 270v2q0 117 38 212.5t101.5 155.5t143 92.5t166.5 32.5q83 0 151 -32t109 -87h12l-7 17q-62 147 -224 267l-236 -143l-72 104l191 115q-97 54 -211 99l51 139q190 -49 339 -128l215 130l71 -104l-164 -100
q189 -131 285 -313t96 -401v-2q0 -168 -60 -299t-180.5 -208.5t-285.5 -77.5zM600 207q110 0 170 85.5t60 220.5v2q0 136 -61 213.5t-170 77.5q-107 0 -172 -79.5t-65 -213.5v-2q0 -141 63 -222.5t175 -81.5z" />
    <glyph glyph-name="ntilde" unicode="&#xf1;" horiz-adv-x="1180" 
d="M747 1188q-75 0 -146 51l-43 30q-58 40 -89 40q-62 0 -62 -116v-6h-161v15q0 147 51 222t140 75q74 0 144 -50l44 -30q55 -41 90 -41q62 0 62 116v6h161v-15q0 -146 -50 -221.5t-141 -75.5zM95 0v1072h292v-176h6q42 94 125 146t202 52q176 0 273 -106.5t97 -295.5v-692
h-292v632q0 106 -50 163t-147 57q-98 0 -156 -65t-58 -171v-616h-292z" />
    <glyph glyph-name="ograve" unicode="&#xf2;" horiz-adv-x="1173" 
d="M517 1192l-246 342h259l183 -342h-196zM587 -22q-246 0 -388.5 148.5t-142.5 409.5v2q0 257 144 406.5t386 149.5q243 0 387.5 -149t144.5 -407v-2q0 -261 -143 -409.5t-388 -148.5zM588 207q108 0 170.5 87t62.5 242v2q0 154 -63.5 240.5t-171.5 86.5q-107 0 -170 -86.5
t-63 -240.5v-2q0 -156 63 -242.5t172 -86.5z" />
    <glyph glyph-name="oacute" unicode="&#xf3;" horiz-adv-x="1173" 
d="M658 1192h-196l182 342h259zM587 -22q-246 0 -388.5 148.5t-142.5 409.5v2q0 257 144 406.5t386 149.5q243 0 387.5 -149t144.5 -407v-2q0 -261 -143 -409.5t-388 -148.5zM588 207q108 0 170.5 87t62.5 242v2q0 154 -63.5 240.5t-171.5 86.5q-107 0 -170 -86.5
t-63 -240.5v-2q0 -156 63 -242.5t172 -86.5z" />
    <glyph glyph-name="ocircumflex" unicode="&#xf4;" horiz-adv-x="1173" 
d="M227 1192l239 342h240l241 -342h-211l-151 209l-147 -209h-211zM587 -22q-246 0 -388.5 148.5t-142.5 409.5v2q0 257 144 406.5t386 149.5q243 0 387.5 -149t144.5 -407v-2q0 -261 -143 -409.5t-388 -148.5zM588 207q108 0 170.5 87t62.5 242v2q0 154 -63.5 240.5
t-171.5 86.5q-107 0 -170 -86.5t-63 -240.5v-2q0 -156 63 -242.5t172 -86.5z" />
    <glyph glyph-name="otilde" unicode="&#xf5;" horiz-adv-x="1173" 
d="M742 1188q-75 0 -146 51l-43 30q-58 40 -89 40q-62 0 -62 -116v-6h-161v15q0 147 51 222t140 75q74 0 144 -50l44 -30q55 -41 90 -41q62 0 62 116v6h161v-15q0 -146 -50 -221.5t-141 -75.5zM587 -22q-246 0 -388.5 148.5t-142.5 409.5v2q0 257 144 406.5t386 149.5
q243 0 387.5 -149t144.5 -407v-2q0 -261 -143 -409.5t-388 -148.5zM588 207q108 0 170.5 87t62.5 242v2q0 154 -63.5 240.5t-171.5 86.5q-107 0 -170 -86.5t-63 -240.5v-2q0 -156 63 -242.5t172 -86.5z" />
    <glyph glyph-name="odieresis" unicode="&#xf6;" horiz-adv-x="1173" 
d="M371 1214q-60 0 -102 41t-42 99t42 99t102 41t102 -41t42 -99t-42 -99t-102 -41zM803 1214q-60 0 -101.5 41t-41.5 99t41.5 99t101.5 41q61 0 102.5 -41t41.5 -99t-41.5 -99t-102.5 -41zM587 -22q-246 0 -388.5 148.5t-142.5 409.5v2q0 257 144 406.5t386 149.5
q243 0 387.5 -149t144.5 -407v-2q0 -261 -143 -409.5t-388 -148.5zM588 207q108 0 170.5 87t62.5 242v2q0 154 -63.5 240.5t-171.5 86.5q-107 0 -170 -86.5t-63 -240.5v-2q0 -156 63 -242.5t172 -86.5z" />
    <glyph glyph-name="divide" unicode="&#xf7;" horiz-adv-x="1325" 
d="M662 833q-61 0 -103 42t-42 103t42 103.5t103 42.5q62 0 104 -42t42 -104q0 -61 -42.5 -103t-103.5 -42zM100 459v255h1126v-255h-1126zM662 49q-61 0 -103 42.5t-42 103.5t42 103.5t103 42.5t103.5 -42.5t42.5 -103.5t-42.5 -103.5t-103.5 -42.5z" />
    <glyph glyph-name="ostroke" unicode="&#xf8;" horiz-adv-x="1173" 
d="M586 -22q-189 0 -320 94l-119 -132l-110 99l124 138q-100 140 -100 359v2q0 256 143 405.5t382 149.5q188 0 319 -94l121 134l109 -100l-125 -138q103 -144 103 -357v-2q0 -261 -142 -409t-385 -149zM346 535q0 -77 15 -137l373 413q-60 57 -148 57q-110 0 -175 -88
t-65 -243v-2zM588 203q111 0 175 87.5t64 244.5v2q0 73 -16 137l-374 -414q60 -57 151 -57z" />
    <glyph glyph-name="ugrave" unicode="&#xf9;" horiz-adv-x="1180" 
d="M517 1192l-246 342h259l183 -342h-196zM460 -22q-176 0 -273 106.5t-97 295.5v692h292v-631q0 -106 50 -163.5t147 -57.5q98 0 156 65t58 171v616h292v-1072h-292v177h-6q-42 -95 -125 -147t-202 -52z" />
    <glyph glyph-name="uacute" unicode="&#xfa;" horiz-adv-x="1180" 
d="M658 1192h-196l182 342h259zM460 -22q-176 0 -273 106.5t-97 295.5v692h292v-631q0 -106 50 -163.5t147 -57.5q98 0 156 65t58 171v616h292v-1072h-292v177h-6q-42 -95 -125 -147t-202 -52z" />
    <glyph glyph-name="ucircumflex" unicode="&#xfb;" horiz-adv-x="1180" 
d="M227 1192l239 342h240l241 -342h-211l-151 209l-147 -209h-211zM460 -22q-176 0 -273 106.5t-97 295.5v692h292v-631q0 -106 50 -163.5t147 -57.5q98 0 156 65t58 171v616h292v-1072h-292v177h-6q-42 -95 -125 -147t-202 -52z" />
    <glyph glyph-name="udieresis" unicode="&#xfc;" horiz-adv-x="1180" 
d="M371 1214q-60 0 -102 41t-42 99t42 99t102 41t102 -41t42 -99t-42 -99t-102 -41zM803 1214q-60 0 -101.5 41t-41.5 99t41.5 99t101.5 41q61 0 102.5 -41t41.5 -99t-41.5 -99t-102.5 -41zM460 -22q-176 0 -273 106.5t-97 295.5v692h292v-631q0 -106 50 -163.5t147 -57.5
q98 0 156 65t58 171v616h292v-1072h-292v177h-6q-42 -95 -125 -147t-202 -52z" />
    <glyph glyph-name="yacute" unicode="&#xfd;" horiz-adv-x="1104" 
d="M628 1192h-196l183 342h259zM263 -353q-75 0 -149 13v217q52 -10 98 -10q67 0 104.5 22t56.5 76l13 35l-379 1072h321l226 -838h8l227 838h308l-368 -1091q-61 -184 -171 -259t-295 -75z" />
    <glyph glyph-name="thorn" unicode="&#xfe;" horiz-adv-x="1215" 
d="M95 -350v1793h292v-558h7q44 99 129 154t198 55q204 0 321 -148t117 -409v-1q0 -260 -116.5 -409t-317.5 -149q-114 0 -201 54.5t-131 150.5h-6v-533h-292zM625 220q109 0 173 85t64 231v1q0 146 -64 230.5t-173 84.5q-107 0 -173 -86t-66 -230v-1q0 -144 66 -229.5
t173 -85.5z" />
    <glyph glyph-name="ydieresis" unicode="&#xff;" horiz-adv-x="1104" 
d="M342 1214q-60 0 -102 41t-42 99t42 99t102 41t101.5 -41t41.5 -99t-41.5 -99t-101.5 -41zM774 1214q-60 0 -102 41t-42 99t42 99t102 41t102 -41t42 -99t-42 -99t-102 -41zM263 -353q-75 0 -149 13v217q52 -10 98 -10q67 0 104.5 22t56.5 76l13 35l-379 1072h321
l226 -838h8l227 838h308l-368 -1091q-61 -184 -171 -259t-295 -75z" />
    <glyph glyph-name="Amacron" unicode="&#x100;" horiz-adv-x="1418" 
d="M400 1627v179h619v-179h-619zM28 0l504 1443h355l503 -1443h-317l-109 350h-510l-109 -350h-317zM706 1163l-182 -587h370l-182 587h-6z" />
    <glyph glyph-name="amacron" unicode="&#x101;" horiz-adv-x="1121" 
d="M248 1263v181h640v-181h-640zM414 -17q-160 0 -260 90.5t-100 233.5v2q0 146 108 229.5t309 96.5l265 16v66q0 72 -45.5 113t-130.5 41q-79 0 -128.5 -33t-60.5 -87l-2 -9h-267l1 12q12 152 136.5 246t332.5 94q207 0 331.5 -98.5t124.5 -260.5v-735h-292v160h-6
q-46 -83 -128.5 -130t-187.5 -47zM343 322q0 -59 45 -92.5t121 -33.5q98 0 162.5 56t64.5 140v77l-221 -14q-84 -5 -128 -39t-44 -92v-2z" />
    <glyph glyph-name="Abreve" unicode="&#x102;" horiz-adv-x="1418" 
d="M709 1558q-151 0 -243 87.5t-92 230.5v9h177v-4q0 -67 43.5 -111t114.5 -44t115 44t44 111v4h177v-9q0 -143 -92.5 -230.5t-243.5 -87.5zM28 0l504 1443h355l503 -1443h-317l-109 350h-510l-109 -350h-317zM706 1163l-182 -587h370l-182 587h-6z" />
    <glyph glyph-name="abreve" unicode="&#x103;" horiz-adv-x="1121" 
d="M568 1189q-160 0 -257 90t-97 238v10h180v-4q0 -71 47.5 -118t126.5 -47t127 47t48 118v4h180v-10q0 -148 -97.5 -238t-257.5 -90zM414 -17q-160 0 -260 90.5t-100 233.5v2q0 146 108 229.5t309 96.5l265 16v66q0 72 -45.5 113t-130.5 41q-79 0 -128.5 -33t-60.5 -87
l-2 -9h-267l1 12q12 152 136.5 246t332.5 94q207 0 331.5 -98.5t124.5 -260.5v-735h-292v160h-6q-46 -83 -128.5 -130t-187.5 -47zM343 322q0 -59 45 -92.5t121 -33.5q98 0 162.5 56t64.5 140v77l-221 -14q-84 -5 -128 -39t-44 -92v-2z" />
    <glyph glyph-name="Aogonek" unicode="&#x104;" horiz-adv-x="1418" 
d="M28 0l504 1443h355l503 -1443q-126 -96 -126 -215v-2q0 -50 27 -77.5t69 -27.5q33 0 48 7v-143q-50 -25 -151 -25q-106 0 -174.5 59t-68.5 161v1q0 75 39.5 143.5t112.5 118.5h-93l-109 350h-510l-109 -350h-317zM706 1163l-182 -587h370l-182 587h-6z" />
    <glyph glyph-name="aogonek" unicode="&#x105;" horiz-adv-x="1121" 
d="M414 -17q-160 0 -260 90.5t-100 233.5v2q0 146 108 229.5t309 96.5l265 16v66q0 72 -45.5 113t-130.5 41q-79 0 -128.5 -33t-60.5 -87l-2 -9h-267l1 12q12 152 136.5 246t332.5 94q207 0 331.5 -98.5t124.5 -260.5v-735q-126 -96 -126 -215v-2q0 -50 27 -77.5t69 -27.5
q33 0 48 7v-143q-50 -25 -151 -25q-106 0 -174.5 59t-68.5 161v1q0 75 39.5 143.5t112.5 118.5h-68v160h-6q-46 -83 -128.5 -130t-187.5 -47zM343 322q0 -59 45 -92.5t121 -33.5q98 0 162.5 56t64.5 140v77l-221 -14q-84 -5 -128 -39t-44 -92v-2z" />
    <glyph glyph-name="Cacute" unicode="&#x106;" horiz-adv-x="1459" 
d="M837 1562h-194l174 330h256zM762 -25q-318 0 -502.5 199.5t-184.5 547.5v1q0 347 185 546t502 199q260 0 434 -147.5t195 -379.5l1 -9h-294l-4 17q-26 122 -112.5 192.5t-219.5 70.5q-174 0 -276.5 -131t-102.5 -357v-1q0 -227 102.5 -359.5t276.5 -132.5q130 0 218 71
t117 200l2 10h294l-1 -11q-21 -232 -195.5 -379t-434.5 -147z" />
    <glyph glyph-name="cacute" unicode="&#x107;" horiz-adv-x="1116" 
d="M655 1192h-196l182 342h259zM585 -22q-245 0 -387 150t-142 409v1q0 257 142.5 406.5t383.5 149.5q214 0 346.5 -116.5t140.5 -294.5v-7h-271l-2 9q-14 80 -68.5 130t-141.5 50q-108 0 -170.5 -87.5t-62.5 -240.5v-1q0 -156 62.5 -242.5t171.5 -86.5q86 0 140.5 48.5
t69.5 131.5l1 9h272v-6q-11 -179 -143 -295.5t-342 -116.5z" />
    <glyph glyph-name="Ccircumflex" unicode="&#x108;" horiz-adv-x="1459" 
d="M414 1562l230 330h234l233 -330h-208l-143 200l-138 -200h-208zM762 -25q-318 0 -502.5 199.5t-184.5 547.5v1q0 347 185 546t502 199q260 0 434 -147.5t195 -379.5l1 -9h-294l-4 17q-26 122 -112.5 192.5t-219.5 70.5q-174 0 -276.5 -131t-102.5 -357v-1
q0 -227 102.5 -359.5t276.5 -132.5q130 0 218 71t117 200l2 10h294l-1 -11q-21 -232 -195.5 -379t-434.5 -147z" />
    <glyph glyph-name="ccircumflex" unicode="&#x109;" horiz-adv-x="1116" 
d="M224 1192l239 342h240l241 -342h-211l-151 209l-147 -209h-211zM585 -22q-245 0 -387 150t-142 409v1q0 257 142.5 406.5t383.5 149.5q214 0 346.5 -116.5t140.5 -294.5v-7h-271l-2 9q-14 80 -68.5 130t-141.5 50q-108 0 -170.5 -87.5t-62.5 -240.5v-1
q0 -156 62.5 -242.5t171.5 -86.5q86 0 140.5 48.5t69.5 131.5l1 9h272v-6q-11 -179 -143 -295.5t-342 -116.5z" />
    <glyph glyph-name="Cdotabove" unicode="&#x10a;" horiz-adv-x="1459" 
d="M762 1574q-62 0 -105 42.5t-43 102.5q0 59 43 101.5t105 42.5t105 -42.5t43 -101.5q0 -60 -43 -102.5t-105 -42.5zM762 -25q-318 0 -502.5 199.5t-184.5 547.5v1q0 347 185 546t502 199q260 0 434 -147.5t195 -379.5l1 -9h-294l-4 17q-26 122 -112.5 192.5t-219.5 70.5
q-174 0 -276.5 -131t-102.5 -357v-1q0 -227 102.5 -359.5t276.5 -132.5q130 0 218 71t117 200l2 10h294l-1 -11q-21 -232 -195.5 -379t-434.5 -147z" />
    <glyph glyph-name="cdotabove" unicode="&#x10b;" horiz-adv-x="1116" 
d="M584 1210q-65 0 -110.5 44.5t-45.5 107.5t45.5 107.5t110.5 44.5q66 0 111 -44.5t45 -107.5t-45 -107.5t-111 -44.5zM585 -22q-245 0 -387 150t-142 409v1q0 257 142.5 406.5t383.5 149.5q214 0 346.5 -116.5t140.5 -294.5v-7h-271l-2 9q-14 80 -68.5 130t-141.5 50
q-108 0 -170.5 -87.5t-62.5 -240.5v-1q0 -156 62.5 -242.5t171.5 -86.5q86 0 140.5 48.5t69.5 131.5l1 9h272v-6q-11 -179 -143 -295.5t-342 -116.5z" />
    <glyph glyph-name="Ccaron" unicode="&#x10c;" horiz-adv-x="1459" 
d="M1111 1892l-231 -330h-234l-232 330h208l142 -200l139 200h208zM762 -25q-318 0 -502.5 199.5t-184.5 547.5v1q0 347 185 546t502 199q260 0 434 -147.5t195 -379.5l1 -9h-294l-4 17q-26 122 -112.5 192.5t-219.5 70.5q-174 0 -276.5 -131t-102.5 -357v-1
q0 -227 102.5 -359.5t276.5 -132.5q130 0 218 71t117 200l2 10h294l-1 -11q-21 -232 -195.5 -379t-434.5 -147z" />
    <glyph glyph-name="ccaron" unicode="&#x10d;" horiz-adv-x="1116" 
d="M944 1534l-241 -342h-236l-243 342h211l151 -212l147 212h211zM585 -22q-245 0 -387 150t-142 409v1q0 257 142.5 406.5t383.5 149.5q214 0 346.5 -116.5t140.5 -294.5v-7h-271l-2 9q-14 80 -68.5 130t-141.5 50q-108 0 -170.5 -87.5t-62.5 -240.5v-1q0 -156 62.5 -242.5
t171.5 -86.5q86 0 140.5 48.5t69.5 131.5l1 9h272v-6q-11 -179 -143 -295.5t-342 -116.5z" />
    <glyph glyph-name="Dcaron" unicode="&#x10e;" horiz-adv-x="1434" 
d="M999 1892l-231 -330h-234l-232 330h208l142 -200l139 200h208zM120 0v1443h551q326 0 507 -186.5t181 -527.5v-2q0 -343 -181.5 -535t-506.5 -192h-551zM422 250h213q203 0 309.5 121.5t106.5 354.5v2q0 225 -108.5 345.5t-307.5 120.5h-213v-944z" />
    <glyph glyph-name="dcaron" unicode="&#x10f;" horiz-adv-x="1493" 
d="M1188 1192l67 342h238l-132 -342h-173zM492 -22q-203 0 -319.5 148.5t-116.5 409.5v1q0 261 116.5 409t319.5 148q113 0 199.5 -55t130.5 -153h6v557h292v-1443h-292v183h-6q-43 -96 -129 -150.5t-201 -54.5zM590 220q107 0 173 86t66 230v1q0 143 -66 229t-173 86
q-109 0 -173 -84.5t-64 -230.5v-1q0 -146 63.5 -231t173.5 -85z" />
    <glyph glyph-name="dstroke" unicode="&#x111;" horiz-adv-x="1252" 
d="M492 -22q-203 0 -319.5 148.5t-116.5 409.5v1q0 261 116.5 409t319.5 148q113 0 199.5 -55t130.5 -153h6v276h-180v157h180v124h292v-124h100v-157h-100v-1162h-292v183h-6q-43 -96 -129 -150.5t-201 -54.5zM590 220q107 0 173 86t66 230v1q0 143 -66 229t-173 86
q-109 0 -173 -84.5t-64 -230.5v-1q0 -146 63.5 -231t173.5 -85z" />
    <glyph glyph-name="Emacron" unicode="&#x112;" horiz-adv-x="1174" 
d="M289 1627v179h619v-179h-619zM120 0v1443h956v-249h-654v-346h617v-236h-617v-363h654v-249h-956z" />
    <glyph glyph-name="emacron" unicode="&#x113;" horiz-adv-x="1137" 
d="M258 1263v181h640v-181h-640zM583 -22q-245 0 -386 149t-141 407v1q0 256 139.5 407.5t375.5 151.5q234 0 372.5 -146.5t138.5 -390.5v-90h-738q2 -128 67.5 -199.5t177.5 -71.5q84 0 140 37.5t74 88.5l2 6h268l-3 -11q-13 -63 -48 -120.5t-92.5 -108t-147 -80.5
t-199.5 -30zM576 876q-92 0 -153.5 -59t-75.5 -166h455q-13 109 -73 167t-153 58z" />
    <glyph glyph-name="Ebreve" unicode="&#x114;" horiz-adv-x="1174" 
d="M598 1558q-151 0 -243 87.5t-92 230.5v9h177v-4q0 -67 43.5 -111t114.5 -44t115 44t44 111v4h177v-9q0 -143 -92.5 -230.5t-243.5 -87.5zM120 0v1443h956v-249h-654v-346h617v-236h-617v-363h654v-249h-956z" />
    <glyph glyph-name="ebreve" unicode="&#x115;" horiz-adv-x="1137" 
d="M578 1189q-160 0 -257 90t-97 238v10h180v-4q0 -71 47.5 -118t126.5 -47t127 47t48 118v4h180v-10q0 -148 -97.5 -238t-257.5 -90zM583 -22q-245 0 -386 149t-141 407v1q0 256 139.5 407.5t375.5 151.5q234 0 372.5 -146.5t138.5 -390.5v-90h-738q2 -128 67.5 -199.5
t177.5 -71.5q84 0 140 37.5t74 88.5l2 6h268l-3 -11q-13 -63 -48 -120.5t-92.5 -108t-147 -80.5t-199.5 -30zM576 876q-92 0 -153.5 -59t-75.5 -166h455q-13 109 -73 167t-153 58z" />
    <glyph glyph-name="Edotabove" unicode="&#x116;" horiz-adv-x="1174" 
d="M598 1574q-62 0 -105 42.5t-43 102.5q0 59 43 101.5t105 42.5t105 -42.5t43 -101.5q0 -60 -43 -102.5t-105 -42.5zM120 0v1443h956v-249h-654v-346h617v-236h-617v-363h654v-249h-956z" />
    <glyph glyph-name="edotabove" unicode="&#x117;" horiz-adv-x="1137" 
d="M578 1210q-65 0 -110.5 44.5t-45.5 107.5t45.5 107.5t110.5 44.5q66 0 111 -44.5t45 -107.5t-45 -107.5t-111 -44.5zM583 -22q-245 0 -386 149t-141 407v1q0 256 139.5 407.5t375.5 151.5q234 0 372.5 -146.5t138.5 -390.5v-90h-738q2 -128 67.5 -199.5t177.5 -71.5
q84 0 140 37.5t74 88.5l2 6h268l-3 -11q-13 -63 -48 -120.5t-92.5 -108t-147 -80.5t-199.5 -30zM576 876q-92 0 -153.5 -59t-75.5 -166h455q-13 109 -73 167t-153 58z" />
    <glyph glyph-name="Eogonek" unicode="&#x118;" horiz-adv-x="1174" 
d="M120 0v1443h956v-249h-654v-346h617v-236h-617v-363h654v-249q-126 -96 -126 -215v-2q0 -50 27 -77.5t69 -27.5q33 0 48 7v-143q-50 -25 -151 -25q-106 0 -174.5 59t-68.5 161v1q0 75 39.5 143.5t112.5 118.5h-732z" />
    <glyph glyph-name="eogonek" unicode="&#x119;" horiz-adv-x="1137" 
d="M583 -22q-247 0 -387 148t-140 405v1q0 256 140 409t376 153q234 0 372 -145.5t138 -390.5v-89h-736v-18q0 -115 65.5 -185.5t176.5 -70.5q90 0 145 38.5t72 88.5l2 6h264l-3 -11q-13 -66 -55 -141t-83 -130.5t-74 -126.5t-33 -134v-2q0 -50 27 -77.5t69 -27.5q33 0 48 7
v-143q-50 -25 -151 -25q-106 0 -174.5 59t-68.5 161v2q0 137 139 251q-58 -12 -129 -12zM575 878q-97 0 -159 -66.5t-66 -161.5v-2h451v1q0 96 -63 162.5t-163 66.5z" />
    <glyph glyph-name="Ecaron" unicode="&#x11a;" horiz-adv-x="1174" 
d="M947 1892l-231 -330h-234l-232 330h208l142 -200l139 200h208zM120 0v1443h956v-249h-654v-346h617v-236h-617v-363h654v-249h-956z" />
    <glyph glyph-name="ecaron" unicode="&#x11b;" horiz-adv-x="1137" 
d="M938 1534l-241 -342h-236l-243 342h211l151 -212l147 212h211zM583 -22q-245 0 -386 149t-141 407v1q0 256 139.5 407.5t375.5 151.5q234 0 372.5 -146.5t138.5 -390.5v-90h-738q2 -128 67.5 -199.5t177.5 -71.5q84 0 140 37.5t74 88.5l2 6h268l-3 -11
q-13 -63 -48 -120.5t-92.5 -108t-147 -80.5t-199.5 -30zM576 876q-92 0 -153.5 -59t-75.5 -166h455q-13 109 -73 167t-153 58z" />
    <glyph glyph-name="Gcircumflex" unicode="&#x11c;" horiz-adv-x="1489" 
d="M414 1562l231 330h234l232 -330h-208l-143 200l-138 -200h-208zM770 -25q-324 0 -509.5 199.5t-185.5 551.5v1q0 345 185 543t503 198q254 0 424 -132t207 -341l3 -14h-303l-4 10q-36 106 -120.5 163.5t-205.5 57.5q-179 0 -280 -126.5t-101 -355.5v-1
q0 -233 105.5 -365.5t286.5 -132.5q148 0 241 81t99 214l1 21h-330v225h624v-166q0 -295 -169.5 -463t-470.5 -168z" />
    <glyph glyph-name="gcircumflex" unicode="&#x11d;" horiz-adv-x="1215" 
d="M233 1192l239 342h240l241 -342h-211l-152 209l-146 -209h-211zM596 -372q-215 0 -351 86t-158 219l-1 9h284l3 -7q18 -42 77 -70.5t146 -28.5q111 0 171 53t60 145v164h-6q-43 -85 -129.5 -134t-201.5 -49q-202 0 -318 142t-116 391v1q0 255 117.5 400t321.5 145
q111 0 196.5 -55t129.5 -150h6v183h292v-1042q0 -181 -141.5 -291.5t-381.5 -110.5zM591 229q108 0 172.5 84.5t64.5 227.5v1q0 142 -65 226t-172 84q-109 0 -173.5 -83.5t-64.5 -226.5v-1q0 -144 64 -228t174 -84z" />
    <glyph glyph-name="Gbreve" unicode="&#x11e;" horiz-adv-x="1489" 
d="M763 1558q-151 0 -243.5 87.5t-92.5 230.5v9h177v-4q0 -67 44 -111t115 -44t114.5 44t43.5 111v4h177v-9q0 -143 -92 -230.5t-243 -87.5zM770 -25q-324 0 -509.5 199.5t-185.5 551.5v1q0 345 185 543t503 198q254 0 424 -132t207 -341l3 -14h-303l-4 10
q-36 106 -120.5 163.5t-205.5 57.5q-179 0 -280 -126.5t-101 -355.5v-1q0 -233 105.5 -365.5t286.5 -132.5q148 0 241 81t99 214l1 21h-330v225h624v-166q0 -295 -169.5 -463t-470.5 -168z" />
    <glyph glyph-name="gbreve" unicode="&#x11f;" horiz-adv-x="1215" 
d="M593 1189q-160 0 -257.5 90t-97.5 238v10h180v-4q0 -71 48 -118t127 -47t126.5 47t47.5 118v4h180v-10q0 -148 -97.5 -238t-256.5 -90zM596 -372q-215 0 -351 86t-158 219l-1 9h284l3 -7q18 -42 77 -70.5t146 -28.5q111 0 171 53t60 145v164h-6q-43 -85 -129.5 -134
t-201.5 -49q-202 0 -318 142t-116 391v1q0 255 117.5 400t321.5 145q111 0 196.5 -55t129.5 -150h6v183h292v-1042q0 -181 -141.5 -291.5t-381.5 -110.5zM591 229q108 0 172.5 84.5t64.5 227.5v1q0 142 -65 226t-172 84q-109 0 -173.5 -83.5t-64.5 -226.5v-1q0 -144 64 -228
t174 -84z" />
    <glyph glyph-name="Gdotabove" unicode="&#x120;" horiz-adv-x="1489" 
d="M762 1574q-61 0 -104.5 43t-43.5 102t43.5 101.5t104.5 42.5q62 0 105.5 -42.5t43.5 -101.5q0 -60 -43 -102.5t-106 -42.5zM770 -25q-324 0 -509.5 199.5t-185.5 551.5v1q0 345 185 543t503 198q254 0 424 -132t207 -341l3 -14h-303l-4 10q-36 106 -120.5 163.5
t-205.5 57.5q-179 0 -280 -126.5t-101 -355.5v-1q0 -233 105.5 -365.5t286.5 -132.5q148 0 241 81t99 214l1 21h-330v225h624v-166q0 -295 -169.5 -463t-470.5 -168z" />
    <glyph glyph-name="gdotabove" unicode="&#x121;" horiz-adv-x="1215" 
d="M593 1210q-66 0 -111 44.5t-45 107.5t45 107.5t111 44.5t111 -44.5t45 -107.5t-45 -107.5t-111 -44.5zM596 -372q-215 0 -351 86t-158 219l-1 9h284l3 -7q18 -42 77 -70.5t146 -28.5q111 0 171 53t60 145v164h-6q-43 -85 -129.5 -134t-201.5 -49q-202 0 -318 142
t-116 391v1q0 255 117.5 400t321.5 145q111 0 196.5 -55t129.5 -150h6v183h292v-1042q0 -181 -141.5 -291.5t-381.5 -110.5zM591 229q108 0 172.5 84.5t64.5 227.5v1q0 142 -65 226t-172 84q-109 0 -173.5 -83.5t-64.5 -226.5v-1q0 -144 64 -228t174 -84z" />
    <glyph glyph-name="Gcommaaccent" unicode="&#x122;" horiz-adv-x="1489" 
d="M770 -25q-324 0 -509.5 199.5t-185.5 551.5v1q0 345 185 543t503 198q254 0 424 -132t207 -341l3 -14h-303l-4 10q-36 106 -120.5 163.5t-205.5 57.5q-179 0 -280 -126.5t-101 -355.5v-1q0 -233 105.5 -365.5t286.5 -132.5q148 0 241 81t99 214l1 21h-330v225h624v-166
q0 -295 -169.5 -463t-470.5 -168zM560 -475l76 355h253l-146 -355h-183z" />
    <glyph glyph-name="gcommaaccent" unicode="&#x123;" horiz-adv-x="1215" 
d="M800 1547l-76 -355h-253l147 355h182zM596 -372q-215 0 -351 86t-158 219l-1 9h284l3 -7q18 -42 77 -70.5t146 -28.5q111 0 171 53t60 145v164h-6q-43 -85 -129.5 -134t-201.5 -49q-202 0 -318 142t-116 391v1q0 255 117.5 400t321.5 145q111 0 196.5 -55t129.5 -150h6
v183h292v-1042q0 -181 -141.5 -291.5t-381.5 -110.5zM591 229q108 0 172.5 84.5t64.5 227.5v1q0 142 -65 226t-172 84q-109 0 -173.5 -83.5t-64.5 -226.5v-1q0 -144 64 -228t174 -84z" />
    <glyph glyph-name="Hcircumflex" unicode="&#x124;" horiz-adv-x="1494" 
d="M399 1562l230 330h234l233 -330h-208l-143 200l-138 -200h-208zM120 0v1443h302v-586h650v586h302v-1443h-302v608h-650v-608h-302z" />
    <glyph glyph-name="hcircumflex" unicode="&#x125;" horiz-adv-x="1197" 
d="M-102 1562l230 330h234l233 -330h-208l-143 200l-138 -200h-208zM102 0v1443h292v-556h6q42 100 125.5 153.5t203.5 53.5q174 0 275 -113.5t101 -307.5v-673h-292v613q0 113 -54 176t-153 63q-96 0 -154 -66t-58 -172v-614h-292z" />
    <glyph glyph-name="Hstroke" unicode="&#x126;" horiz-adv-x="1573" 
d="M160 0v1058h-120v195h120v190h302v-190h650v190h302v-190h120v-195h-120v-1058h-302v608h-650v-608h-302zM462 857h650v201h-650v-201z" />
    <glyph glyph-name="hstroke" unicode="&#x127;" horiz-adv-x="1230" 
d="M136 0v1162h-102v157h102v124h292v-124h175v-157h-175v-275h6q42 100 125.5 153.5t203.5 53.5q174 0 274.5 -113t100.5 -308v-673h-292v613q0 113 -53.5 176t-152.5 63q-96 0 -154 -66t-58 -172v-614h-292z" />
    <glyph glyph-name="Itilde" unicode="&#x128;" horiz-adv-x="542" 
d="M419 1557q-69 0 -139 47l-42 29q-53 37 -84 37q-60 0 -60 -109v-5h-158v14q0 143 50 216t136 73q71 0 137 -48l43 -28q53 -37 85 -37q60 0 60 109v5h158v-15q0 -142 -48.5 -215t-137.5 -73zM120 0v1443h302v-1443h-302z" />
    <glyph glyph-name="itilde" unicode="&#x129;" horiz-adv-x="493" 
d="M402 1188q-77 0 -146 51l-44 30q-58 40 -88 40q-62 0 -62 -116v-6h-161v15q0 147 51 222t140 75q72 0 144 -50l43 -30q55 -41 91 -41q62 0 62 116v6h161v-15q0 -146 -50 -221.5t-141 -75.5zM101 0v1072h292v-1072h-292z" />
    <glyph glyph-name="Imacron" unicode="&#x12a;" horiz-adv-x="542" 
d="M-38 1627v179h619v-179h-619zM120 0v1443h302v-1443h-302z" />
    <glyph glyph-name="imacron" unicode="&#x12b;" horiz-adv-x="493" 
d="M5 1263v181h483v-181h-483zM101 0v1072h292v-1072h-292z" />
    <glyph glyph-name="Ibreve" unicode="&#x12c;" horiz-adv-x="542" 
d="M271 1558q-151 0 -243 87.5t-92 230.5v9h177v-4q0 -67 43.5 -111t114.5 -44t115 44t44 111v4h177v-9q0 -143 -92.5 -230.5t-243.5 -87.5zM120 0v1443h302v-1443h-302z" />
    <glyph glyph-name="ibreve" unicode="&#x12d;" horiz-adv-x="493" 
d="M247 1189q-160 0 -257.5 90t-97.5 238v10h180v-4q0 -71 48 -118t127 -47t126.5 47t47.5 118v4h180v-10q0 -148 -97.5 -238t-256.5 -90zM101 0v1072h292v-1072h-292z" />
    <glyph glyph-name="Iogonek" unicode="&#x12e;" horiz-adv-x="542" 
d="M120 0v1443h302v-1443q-126 -96 -126 -215v-2q0 -50 27 -77.5t69 -27.5q33 0 48 7v-143q-50 -25 -151 -25q-106 0 -174.5 59t-68.5 161v1q-1 75 39 143.5t113 118.5h-78z" />
    <glyph glyph-name="iogonek" unicode="&#x12f;" horiz-adv-x="493" 
d="M247 1210q-66 0 -111 44.5t-45 107.5t45 107.5t111 44.5t111 -44.5t45 -107.5t-45 -107.5t-111 -44.5zM101 0v1072h292v-1072q-127 -96 -127 -215v-2q0 -50 27 -77.5t69 -27.5q32 0 49 7v-143q-52 -25 -151 -25q-107 0 -175.5 59t-68.5 161v1q0 75 39.5 143.5
t113.5 118.5h-68z" />
    <glyph glyph-name="Idotabove" unicode="&#x130;" horiz-adv-x="542" 
d="M271 1574q-62 0 -105 42.5t-43 102.5q0 59 43 101.5t105 42.5t105 -42.5t43 -101.5q0 -60 -43 -102.5t-105 -42.5zM120 0v1443h302v-1443h-302z" />
    <glyph glyph-name="dotlessi" unicode="&#x131;" horiz-adv-x="493" 
d="M101 0v1072h292v-1072h-292z" />
    <glyph glyph-name="IJdigraph" unicode="&#x132;" horiz-adv-x="1685" 
d="M120 0v1443h302v-1443h-302zM1060 -25q-222 0 -351.5 121.5t-134.5 326.5l-1 9h293l1 -6q4 -86 53.5 -138t136.5 -52q95 0 145 57t50 166v984h302v-987q0 -228 -129.5 -354.5t-364.5 -126.5z" />
    <glyph glyph-name="ijdigraph" unicode="&#x133;" horiz-adv-x="985" 
d="M247 1210q-66 0 -111 44.5t-45 107.5t45 107.5t111 44.5t111 -44.5t45 -107.5t-45 -107.5t-111 -44.5zM739 1210q-66 0 -111 44.5t-45 107.5t45 107.5t111 44.5t111 -44.5t45 -107.5t-45 -107.5t-111 -44.5zM101 0v1072h292v-1072h-292zM501 -353q-53 0 -80 3v220
q22 -2 37 -2q73 0 104 26.5t31 91.5v1086h292v-1094q0 -163 -97.5 -247t-286.5 -84z" />
    <glyph glyph-name="Jcircumflex" unicode="&#x134;" horiz-adv-x="1143" 
d="M513 1562l230 330h234l233 -330h-208l-143 200l-138 -200h-208zM518 -25q-222 0 -351.5 121.5t-134.5 326.5l-1 9h293l1 -6q4 -86 53.5 -138t136.5 -52q95 0 145 57t50 166v984h302v-987q0 -228 -129.5 -354.5t-364.5 -126.5z" />
    <glyph glyph-name="jcircumflex" unicode="&#x135;" horiz-adv-x="492" 
d="M-114 1192l239 342h240l241 -342h-211l-152 209l-146 -209h-211zM8 -353q-53 0 -80 3v220q22 -2 37 -2q73 0 104 26.5t31 91.5v1086h292v-1094q0 -163 -97.5 -247t-286.5 -84z" />
    <glyph glyph-name="Kcommaaccent" unicode="&#x136;" horiz-adv-x="1338" 
d="M120 0v1443h302v-660h7l529 660h336l-517 -637l554 -806h-361l-413 609l-135 -167v-442h-302zM451 -475l76 355h253l-147 -355h-182z" />
    <glyph glyph-name="kcommaaccent" unicode="&#x137;" horiz-adv-x="1102" 
d="M105 0v1443h292v-800h6l362 429h331l-405 -461l425 -611h-337l-307 438l-75 -83v-355h-292zM377 -475l76 355h253l-147 -355h-182z" />
    <glyph glyph-name="ka.cyrl" unicode="&#x43a;" horiz-adv-x="1142" 
d="M432 450h-35v-450h-292v1072h292v-421h35l329 421h332l-408 -497l433 -575h-351z" />
    <glyph glyph-name="ka.cyrl" unicode="&#x138;" horiz-adv-x="1142" 
d="M432 450h-35v-450h-292v1072h292v-421h35l329 421h332l-408 -497l433 -575h-351z" />
    <glyph glyph-name="Lacute" unicode="&#x139;" horiz-adv-x="1112" 
d="M346 1562h-194l174 330h256zM120 0v1443h302v-1194h631v-249h-933z" />
    <glyph glyph-name="lacute" unicode="&#x13a;" horiz-adv-x="496" 
d="M323 1562h-194l174 330h256zM102 0v1443h292v-1443h-292z" />
    <glyph glyph-name="Lcommaaccent" unicode="&#x13b;" horiz-adv-x="1112" 
d="M120 0v1443h302v-1194h631v-249h-933zM379 -475l76 355h253l-146 -355h-183z" />
    <glyph glyph-name="lcommaaccent" unicode="&#x13c;" horiz-adv-x="496" 
d="M102 0v1443h292v-1443h-292zM41 -475l76 355h253l-147 -355h-182z" />
    <glyph glyph-name="Lcaron" unicode="&#x13d;" horiz-adv-x="1112" 
d="M629 1017l59 426h248l-128 -426h-179zM120 0v1443h302v-1194h631v-249h-933z" />
    <glyph glyph-name="lcaron" unicode="&#x13e;" horiz-adv-x="767" 
d="M462 1192l67 342h238l-132 -342h-173zM102 0v1443h292v-1443h-292z" />
    <glyph glyph-name="Ldot.CAT" unicode="&#x13f;" horiz-adv-x="1112" 
d="M120 0v1443h302v-1194h631v-249h-933zM989 788v-2q0 -68 -46.5 -114.5t-114.5 -46.5h-2q-68 0 -114.5 46.5t-46.5 114.5v2q0 68 46.5 114.5t114.5 46.5h2q68 0 114.5 -46.5t46.5 -114.5z" />
    <glyph glyph-name="ldot.CAT" unicode="&#x140;" horiz-adv-x="788" 
d="M102 0v1443h292v-1443h-292zM788 698v-2q0 -61 -42 -103t-103 -42h-2q-61 0 -103 42t-42 103v2q0 61 42 103t103 42h2q61 0 103 -42t42 -103z" />
    <glyph glyph-name="Lstroke" unicode="&#x141;" horiz-adv-x="1137" 
d="M145 0v512l-105 -53v210l105 52v722h302v-571l368 184v-209l-368 -184v-414h631v-249h-933z" />
    <glyph glyph-name="lstroke" unicode="&#x142;" horiz-adv-x="584" 
d="M147 0v561l-112 -56v180l112 56v702h292v-557l112 56v-179l-112 -56v-707h-292z" />
    <glyph glyph-name="Nacute" unicode="&#x143;" horiz-adv-x="1463" 
d="M806 1562h-194l175 330h256zM120 0v1443h264l652 -938h6v938h301v-1443h-262l-654 945h-6v-945h-301z" />
    <glyph glyph-name="nacute" unicode="&#x144;" horiz-adv-x="1180" 
d="M663 1192h-196l182 342h259zM95 0v1072h292v-176h6q42 94 125 146t202 52q176 0 273 -106.5t97 -295.5v-692h-292v632q0 106 -50 163t-147 57q-98 0 -156 -65t-58 -171v-616h-292z" />
    <glyph glyph-name="Ncommaaccent" unicode="&#x145;" horiz-adv-x="1463" 
d="M120 0v1443h264l652 -938h6v938h301v-1443h-262l-654 945h-6v-945h-301zM524 -475l76 355h253l-146 -355h-183z" />
    <glyph glyph-name="ncommaaccent" unicode="&#x146;" horiz-adv-x="1180" 
d="M95 0v1072h292v-176h6q42 94 125 146t202 52q176 0 273 -106.5t97 -295.5v-692h-292v632q0 106 -50 163t-147 57q-98 0 -156 -65t-58 -171v-616h-292zM385 -475l76 355h253l-147 -355h-182z" />
    <glyph glyph-name="Ncaron" unicode="&#x147;" horiz-adv-x="1463" 
d="M1080 1892l-230 -330h-234l-233 330h208l143 -200l138 200h208zM120 0v1443h264l652 -938h6v938h301v-1443h-262l-654 945h-6v-945h-301z" />
    <glyph glyph-name="ncaron" unicode="&#x148;" horiz-adv-x="1180" 
d="M952 1534l-241 -342h-236l-243 342h211l151 -212l147 212h211zM95 0v1072h292v-176h6q42 94 125 146t202 52q176 0 273 -106.5t97 -295.5v-692h-292v632q0 106 -50 163t-147 57q-98 0 -156 -65t-58 -171v-616h-292z" />
    </font>
</defs>
</svg>
